#TITLE:xenon;
#SUBTITLE:(Piano Climax);
#ARTIST:Remixed by dj Baka Sai;
#TITLETRANSLIT:;
#SUBTITLETRANSLIT:;
#ARTISTTRANSLIT:;
#CREDIT:DigiMindAxel;
#BANNER:xenon (Piano Climax).png;
#BACKGROUND:xenon (Piano Climax)-bg.png;
#LYRICSPATH:;
#CDTITLE:BEMANI game remix.png;
#MUSIC:xenon (Piano Climax).ogg;
#METERTYPE:DDR X;
#OFFSET:-12.188;
#SAMPLESTART:48.625;
#SAMPLELENGTH:12.000;
#SELECTABLE:YES;
#BPMS:0.000=158.000;
#STOPS:;
#BGCHANGES:;

//---------------dance-single - ----------------
#NOTES:
     dance-single:
     :
     Easy:
     5:
     0.239,0.260,0.000,0.162,0.000:
1000
0000
1000
0000
,
0010
0000
0010
0000
,
0100
0000
0100
0000
,
0001
0000
0001
0000
,
1000
0000
1000
0000
,
0100
0000
0100
0000
,
0010
0000
0010
0000
,
0001
0000
1000
0000
,
0001
0100
0000
0010
,
0000
0100
0000
0010
,
0100
0001
0000
1000
,
0002
0000
0000
0000
,
1003
0100
0000
1000
,
0000
0010
0000
0100
,
0010
0100
0000
0001
,
0000
1000
0000
0010
,
0200
0000
0320
0000
,
0230
0000
0320
0000
,
0130
0000
0000
0001
,
2000
0000
3002
0000
,
2003
0000
0000
3100
,
0020
0000
0230
0000
,
0310
0000
0000
0001
,
1000
0100
0010
0001
,
1000
0100
1000
0000
,
0010
0100
0010
0000
,
1000
0001
1000
0000
,
0001
0001
1000
1000
,
0001
0100
0001
0000
,
1000
0010
1000
0000
,
0100
0010
0100
0000
,
1000
1000
0001
0001
,
0100
0001
0100
0001
,
2000
0000
3100
0000
,
0010
0001
0010
0001
,
0200
0000
0310
0000
,
1000
0100
1000
0100
,
0020
0000
0031
0000
,
0100
0010
0100
0001
,
2000
0000
0000
0000
,
3001
0001
1000
1000
,
0001
0010
0100
1000
,
0001
0001
1000
1000
,
0001
0100
0010
1000
,
0010
0100
0010
0100
,
0001
0010
0100
1000
,
0010
0100
0010
0100
,
0001
1000
0200
0000
,
1300
0000
0001
0000
,
1000
0000
0001
0000
,
0010
0000
0000
0000
,
0100
0000
1000
0000
,
0010
0000
0000
0000
,
0100
0000
0001
0000
,
0010
0000
0000
0000
,
0001
1000
0100
0010
,
0002
0000
0000
0000
,
0003
0000
0000
0000
;

//---------------dance-single - ----------------
#NOTES:
     dance-single:
     :
     Hard:
     12:
     0.578,0.663,0.071,0.101,0.440: // measure 1
1000
0000
0000
1000
0001
0000
0000
0010
,  // measure 2
0001
0010
0000
0001
1000
0000
0000
0000
,  // measure 3
0100
0000
0000
0100
0010
0000
0000
0001
,  // measure 4
1000
0001
0000
1000
0100
0000
0000
0000
,  // measure 5
0010
0000
0000
0010
0001
0000
0000
0100
,  // measure 6
0010
0100
0000
0001
1000
0000
0000
0000
,  // measure 7
0100
0000
0000
0100
1000
0000
0000
0010
,  // measure 8
0100
0010
0000
1000
0001
0000
0000
1000
,  // measure 9
0001
0000
0000
0001
0000
0000
1000
0000
0010
0000
0000
0100
0000
0000
0001
0000
,  // measure 10
1000
0000
0000
1000
0000
0000
0001
0000
0010
0000
0000
0010
0000
0000
0001
0000
,  // measure 11
1000
0000
0000
0010
0000
0000
0100
0000
0001
0000
0000
0100
0000
0000
0010
0000
,  // measure 12
1000
0001
1000
0000
0001
1000
0000
0001
0000
0001
0000
0001
1000
0000
0100
0000
,  // measure 13
0010
0000
0000
0010
0000
0000
0001
0000
0100
0000
0000
0010
0000
0000
0100
0000
,  // measure 14
0001
0000
0000
0001
0000
0000
1000
0000
0100
0000
0000
0100
0000
0000
1000
0000
,  // measure 15
0001
0000
0000
0001
0000
0000
0010
0000
0100
0000
0000
1000
0000
0000
0001
0000
,  // measure 16
0100
0010
0100
0000
0001
1000
0001
0000
,  // measure 17
0201
0310
1020
0130
,  // measure 18
1002
0000
0000
0000
0013
0000
0000
0000
2001
0000
0000
0000
0000
0000
3001
1000
,  // measure 19
0002
1000
0000
1003
,  // measure 20
0010
0100
0010
0000
0100
0010
0000
0100
0000
0100
0000
0100
0010
0000
1000
0000
,  // measure 21
0002
0010
0000
0013
,  // measure 22
0200
0000
1300
0000
0002
0000
1003
0001
,  // measure 23
2000
0010
0000
0010
,  // measure 24
3010
1100
0101
0110
,  // measure 25
0100
0000
0000
0001
1000
0000
0100
0000
0010
0000
0000
0100
1000
0000
0001
0000
,  // measure 26
0100
0000
0000
0001
1000
0000
0100
0000
0010
0000
0000
0001
0100
0000
0100
0000
,  // measure 27
0001
0000
0000
0010
0100
0000
1000
0000
0001
0000
0000
0100
0010
0000
0100
0000
,  // measure 28
0001
1000
0001
0000
1000
0001
0000
1000
0000
1000
0000
1000
0001
0000
0100
0000
,  // measure 29
0010
0000
0000
1000
0100
0000
0010
0000
0100
0000
0000
1000
0010
0000
0100
0000
,  // measure 30
0010
0000
0000
0100
0001
0000
0010
0000
0001
0000
0000
0100
0010
0000
0010
0000
,  // measure 31
1000
0000
0000
0100
0010
0000
0001
0000
0100
0000
0000
0010
1000
0000
0001
0000
,  // measure 32
1000
0100
1000
0000
0010
0100
0010
0100
,  // measure 33
0001
1000
0000
1000
0001
0000
0001
0000
0001
0000
0000
0100
0010
0000
0010
0000
,  // measure 34
1000
0001
0010
0100
1000
0001
0010
0100
,  // measure 35
1000
0001
0000
0001
1000
0000
1000
0000
1000
0000
0000
0010
0100
0010
0100
0010
,  // measure 36
1000
0100
0010
0001
0010
0100
1000
0001
,  // measure 37
0100
0001
0000
0001
1000
0000
1000
0000
1000
0010
0000
0010
0100
0000
0001
0000
,  // measure 38
1000
0001
0100
0010
1000
0010
0100
0001
,  // measure 39
1000
0100
0000
0100
1000
0000
1000
0000
1000
0010
0000
0010
0100
0010
0100
0010
,  // measure 40
0100
0001
1000
0001
,  // measure 41
1000
0001
0000
0001
1000
0000
0100
0000
0010
0001
0000
0001
1000
0010
1000
0001
,  // measure 42
0010
0100
1000
0010
0001
0010
1000
1000
,  // measure 43
0001
1000
0000
1000
0100
0010
0001
0100
0001
0100
0000
0100
0001
0000
1000
0000
,  // measure 44
0010
0100
0001
0010
1000
0010
0001
0001
,  // measure 45
1000
0100
0000
0100
0010
0001
0010
0001
1000
0001
0000
0001
0100
0000
0010
0000
,  // measure 46
0100
0000
0001
0010
0001
0000
0100
0000
0010
0100
0010
0000
1000
0000
1000
0000
,  // measure 47
0001
0100
0000
0100
0010
1000
0100
1000
0100
1000
0000
1000
0001
0000
0010
0000
,  // measure 48
0001
0000
1000
0010
1000
0000
0100
0000
0010
0001
0010
0000
0001
0000
0001
0000
,  // measure 49
1000
0010
0000
1000
0000
0010
0000
1000
,  // measure 50
0001
0000
0010
0000
0000
0000
0100
0000
0000
0000
1000
0000
0000
0000
0001
0010
,  // measure 51
0001
1000
0000
0001
0000
1000
0000
0010
,  // measure 52
0100
0010
0000
1000
0000
0100
0000
0010
,  // measure 53
0001
0010
0000
0001
0000
0100
0000
0010
,  // measure 54
1000
0001
0000
0010
0000
0100
0000
0010
,  // measure 55
0001
0100
0000
0010
0000
1000
0000
0010
,  // measure 56
0100
0001
0010
0000
0100
0000
1000
0000
,  // measure 57
0020
0000
0000
0000
,  // measure 58
0030
0000
0000
0000
;

//---------------dance-single - ----------------
#NOTES:
     dance-single:
     :
     Medium:
     8:
     0.458,0.577,0.000,0.344,0.071:
2000
0000
3002
0000
,
0203
0000
0000
0000
0302
0000
0000
1000
,
1003
0000
0000
0001
,
0020
0000
0032
0000
,
2003
0000
3000
0001
,
2000
0000
3200
0000
,
0320
0000
0030
0001
,
1000
1000
0010
0010
,
0100
0001
0010
0000
0001
1000
0001
0000
,
0010
0100
1000
0000
0010
0100
0010
0000
,
1000
0000
0001
0010
0100
0000
1000
0100
,
0010
0010
0100
0100
,
1000
0000
0001
0100
0010
0000
1000
0100
,
1000
0000
0100
1000
0001
0000
0100
0010
,
0100
0000
0001
1000
0100
0000
0010
0001
,
0010
0010
0100
0100
,
2000
3001
0200
0310
,
2000
0000
0000
0000
3100
0000
0000
0000
0020
0000
0000
0000
0031
0000
1000
0001
,
2000
0001
3000
0010
,
0200
0310
2000
3001
,
0200
0010
0300
0001
,
2000
3100
0020
0130
,
2000
0001
3000
0010
,
0100
0001
0010
0100
,
1000
0000
0001
1000
0100
0000
0010
0100
,
0010
0000
0001
0100
0010
0000
1000
0001
,
0010
0000
0100
0010
0100
0000
1000
0010
,
0100
0000
0100
0000
0001
0000
0001
1000
,
0001
0000
0010
0100
1000
0000
0010
0100
,
0010
0000
1000
0100
0010
0000
0001
0100
,
0001
0000
0100
0010
1000
0000
0100
1000
,
0010
0000
0010
0000
1000
0000
1000
0001
,
1000
0000
0100
0010
0001
0000
0001
0010
,
0100
0100
1000
1000
0010
0010
0100
0100
,
0001
0000
0010
0100
1000
0000
0010
0100
,
0001
0001
1000
1000
0100
0100
0010
0010
,
0100
0000
1000
0010
0100
0000
0001
0010
,
0100
0100
1000
1000
0010
0010
1000
1000
,
0001
0000
0000
0000
0010
0000
0100
0000
1000
0000
0000
0000
0001
1000
0001
1000
,
0002
0000
0000
0003
,
0100
0000
0010
0000
0100
0000
0010
0000
1000
0010
1000
0000
0100
0000
0010
0000
,
0001
0000
1000
0000
0010
0000
1000
0000
0010
1000
0010
0000
0100
0000
0000
0000
,
0001
0000
0010
0000
0001
0000
0010
0000
0100
1000
0100
0000
1000
0000
0001
0000
,
0100
0000
0001
0000
0100
0000
0001
0000
1000
0100
1000
0000
0001
0000
0000
0000
,
1000
0000
0100
0000
1000
0000
0100
0000
1000
0001
1000
0000
0001
0000
0100
0000
,
0010
0000
0100
0010
0100
0000
0001
0000
1000
0100
1000
0000
0001
0000
0000
0000
,
0010
0000
0100
0000
0010
0000
0100
0000
1000
0010
1000
0000
0100
0000
0010
0000
,
0001
0000
1000
0010
1000
0000
0010
0000
0100
0010
0100
0000
0001
0000
1000
0000
,
0002
0000
0203
0000
,
0302
0000
0000
0000
0000
0000
0000
0000
2003
0000
0000
0000
0000
0000
3001
1000
,
0002
0000
0000
1003
,
0020
0000
0230
0000
,
0320
0000
0000
0130
,
0002
0000
2003
0000
,
3200
0000
0000
1300
,
0001
0010
0100
1000
,
0020
0000
0000
0000
,
0030
0000
0000
0000
;

//---------------dance-double - ----------------
#NOTES:
     dance-double:
     :
     Easy:
     5:
     0.243,0.255,0.000,0.223,0.000:
00020000
00000000
00000000
00000000
,
20030000
00000000
00000000
00000000
,
30001000
00000000
00000000
00000000
,
00020000
00000000
00000000
00000000
,
00030200
00000000
00000000
00000000
,
00000310
00000000
00000001
00000000
,
00000010
00000000
00000000
00000000
,
00000002
00000000
00001000
00000000
,
00001003
00000000
00000100
00000000
,
00010000
00000000
00001000
00000000
,
00100000
00000000
01000000
00000000
,
10000000
00010000
10000000
00010000
,
10000000
00000000
00100000
00000000
,
01000000
00000000
00001000
00000000
,
00010000
00000000
00000100
00000000
,
00000010
00000100
00000010
00000100
,
00000020
00000000
00000032
00000000
,
00002003
00000000
00003200
00000000
,
00010300
00000000
00000000
00100000
,
02000000
00000000
23000000
00000000
,
30020000
00000000
00000000
10030000
,
00002000
00000000
02003000
00000000
,
03001000
00000000
00000000
00010000
,
00010000
00000001
00000010
00000100
,
00001000
00000010
00010000
00000000
,
00001000
00010000
00001000
00000000
,
00100000
01000000
10000000
01000000
,
00100000
00100000
00100000
00000000
,
00001000
00010000
00001000
00000000
,
00010000
00000010
00000100
00000000
,
00000001
00001000
00000010
00000100
,
00000001
00000001
00000001
00000000
,
00010000
00001000
00010000
00001000
,
02000000
00000000
03100000
00000000
,
10000000
00100000
10000000
00100000
,
20000000
00000000
30001000
00000000
,
00010000
00001000
00010000
00001000
,
00000200
00000000
00000310
00000000
,
00000001
00000100
00000001
00000100
,
00000020
00000000
00000000
00000000
,
00010030
00001000
00010000
00001000
,
00100000
01000000
10000000
01000000
,
00100000
00001000
00100000
00001000
,
00010000
00000010
00000100
00000001
,
00000100
00000010
00000100
00000010
,
00000100
00000001
00000010
00000100
,
00010000
00001000
00010000
00001000
,
00100000
01000000
20000000
00000000
,
30010000
00000000
00100000
00000000
,
01000000
00000000
00100000
00000000
,
00002000
00000000
00000000
00000000
,
00013000
00000000
00000010
00000000
,
00000200
00000000
00000000
00000001
,
00000301
00000000
00001000
00000000
,
00000200
00000000
00000000
00010000
,
00010300
00001000
00100000
01000000
,
10000000
00000000
00000000
00000000
;

//---------------dance-double - ----------------
#NOTES:
     dance-double:
     :
     Medium:
     9:
     0.461,0.567,0.000,0.334,0.071:
20000000
00000000
32000000
00000000
,
23000000
00000000
00000000
00000000
30002000
00000000
00000000
00010000
,
00013000
00000000
00000000
00000010
,
00000200
00000000
00000302
00000000
,
00002003
00000000
00003000
00000100
,
00000020
00000000
00000032
00000000
,
00020003
00000000
00030000
00001000
,
10000000
10000000
00010000
00010000
,
00100000
01000000
10000000
00000000
00010000
10000000
00010000
00000000
,
00100000
00010000
10000000
00000000
00100000
01000000
00100000
00000000
,
10000000
00000000
00010000
00100000
01000000
00000000
00100000
00001000
,
00010000
00010000
00000010
00000010
,
00001000
00000000
00000100
00000010
00000001
00000000
00001000
00000010
,
00001000
00000000
00000001
00000010
00000100
00000000
00010000
00000010
,
00010000
00000000
00001000
01000000
00100000
00000000
10000000
00100000
,
10000000
10000000
01000000
01000000
,
00200000
00310000
00002000
00013000
,
00000020
00000000
00000000
00000000
00000130
00000000
00000000
00000000
00000002
00000000
00000000
00000000
00000003
00000000
00001000
00000001
,
00002000
00000001
00003000
00000100
,
00002000
00013000
02000000
03100000
,
00020000
10000000
00030000
10000000
,
00200000
01300000
00002000
01003000
,
00020000
00001000
00030000
00000100
,
00000010
00000001
00000100
00000010
,
00001000
00000000
00000100
00000010
00000001
00000000
00000100
00000010
,
00000100
00000000
00000001
00010000
00000100
00000000
00010000
00001000
,
00100000
01000000
10000000
00100000
10000000
00100000
01000000
00100000
,
01000000
00000000
01000000
00000000
00010000
00000000
00010000
10000000
,
00010000
00000000
00100000
01000000
10000000
00000000
00100000
01000000
,
00001000
00000000
00010000
00001000
00010000
00000000
00000100
00000010
,
00000001
00000100
00000001
00000100
00000010
00010000
00000100
00010000
,
00001000
00000000
00001000
00000000
10000000
00000000
10000000
00010000
,
10000000
00000000
01000000
00100000
00010000
00000000
00010000
10000000
,
00100000
00100000
01000000
01000000
00010000
00010000
00001000
00001000
,
00000100
00000000
00000010
00000001
00000100
00000000
00000010
00001000
,
00010000
00010000
01000000
01000000
00100000
00100000
10000000
10000000
,
01000000
00000000
00100000
01000000
10000000
00000000
00010000
00100000
,
00001000
00001000
00010000
00010000
00000010
00000010
00000100
00000100
,
00000001
00000000
00000000
00000000
00000010
00000000
00000100
00000000
00001000
00000000
00000000
00000000
00010000
00001000
00010000
00001000
,
00020000
00000000
00000000
00030000
,
00001000
00000000
01000000
00000000
00001000
00000000
01000000
00000000
00100000
01000000
00100000
00000000
10000000
00000000
01000000
00000000
,
00100000
00000000
00001000
00000000
00100000
00000000
00001000
00000000
00010000
00001000
00010000
00000000
00000100
00000000
00000000
00000000
,
00000010
00000000
00000001
00000000
00000010
00000000
00000001
00000000
00001000
00000010
00001000
00000000
00000001
00000000
00010000
00000000
,
00001000
00000000
00010000
00000000
00001000
00000000
00100000
00000000
01000000
10000000
01000000
00000000
00100000
00000000
00000000
00000000
,
10000000
00000000
01000000
00000000
10000000
00000000
01000000
00000000
10000000
00010000
10000000
00000000
00010000
00000000
01000000
00000000
,
00100000
00000000
01000000
00100000
01000000
00000000
00001000
00000000
00010000
00001000
00010000
00000000
00000010
00000000
00000000
00000000
,
00000100
00000000
00000001
00000000
00000100
00000000
00000001
00000000
00010000
00000100
00010000
00000000
00001000
00000000
00100000
00000000
,
01000000
00000000
10000000
00100000
10000000
00000000
00100000
00000000
01000000
00100000
01000000
00000000
00001000
00000000
00010000
00000000
,
00002000
00000000
00023000
00000000
,
00030020
00000000
00000000
00000000
00000000
00000000
00000000
00000000
00000230
00000000
00000000
00000000
00000300
00000000
00000001
00001000
,
00000002
00000000
00000000
00001003
,
00000020
00000000
00020030
00000000
,
00032000
00000000
00000000
01003000
,
00200000
00000000
20300000
00000000
,
32000000
00000000
00000000
03100000
,
00010000
00100000
01000000
10000000
,
00001000
00000000
00000000
00000000
;

//---------------dance-double - ----------------
#NOTES:
     dance-double:
     :
     Hard:
     12:
     0.578,0.692,0.081,0.243,0.435:
20000000
00000000
30020000
00000000
,
02030000
00000000
00000000
00000000
00000000
00000000
00000000
00000000
03002000
00000000
00000000
00000000
00000000
00000000
00013000
00001000
,
00020000
00000000
00000000
00030010
,
00002000
00000000
00003002
00000000
,
00000023
00000000
00000000
00000130
,
00020000
00000000
00032000
00000000
,
00203000
00000000
00000000
01300000
,
20000000
00000000
00000000
00000000
30020000
00000000
00000000
10030000
,
00100000
00000000
00000000
00100000
00000000
00000000
01000000
00000000
00010000
00000000
00000000
10000000
00000000
00000000
01000000
00000000
,
00100000
00000000
00000000
00001000
00000000
00000000
00010000
00000000
00000010
00000000
00000000
00000010
00000000
00000000
00001000
00000000
,
00000001
00000000
00000000
00000010
00000000
00000000
00000100
00000000
00010000
00000000
00000000
00001000
00000000
00000000
00100000
00000000
,
00010000
10000000
00010000
00000000
10000000
00010000
00000000
10000000
00000000
10000000
00000000
00010000
10000000
00000000
01000000
00000000
,
00100000
00000000
00000000
01000000
00000000
00000000
10000000
00000000
00001000
00000000
00000000
00100000
00000000
00000000
00010000
00000000
,
00001000
00000000
00000000
00001000
00000000
00000000
00000010
00000000
00000100
00000000
00000000
00000001
00000000
00000000
00000010
00000000
,
00000001
00000000
00000000
00000001
00000000
00000000
00000010
00000000
00000100
00000000
00000000
00001000
00000000
00000000
00010000
00000000
,
01000000
00100000
01000000
00000000
00010000
10000000
00010000
00000000
,
20010000
31000000
00102000
00013000
,
00000120
00000000
00000000
00000000
00001030
00000000
00000000
00000000
00101002
00000000
00000000
00000000
00000000
00000000
00001003
00000100
,
00002000
00000100
00000000
00003100
,
00010000
00001000
00010000
00000000
00001000
00010000
00000000
00001000
00000000
00001000
00000000
00001000
00010000
00000000
00000100
00000000
,
00000020
00000031
00000200
00000310
,
00020000
00000000
00031000
00000000
00200000
00000000
01300000
10000000
,
00020000
10000000
00000000
10030000
,
10010000
11000000
01001000
00011000
,
00010000
00000000
00000000
00010000
00000010
00000000
00010000
00000000
00000001
00000000
00000000
00000001
00000010
00000000
00000100
00000000
,
00000010
00000000
00000000
00000010
00000001
00000000
00010000
00000000
00000100
00000000
00000000
00000100
00010000
00000000
00001000
00000000
,
00100000
00000000
00000000
00100000
01000000
00000000
10000000
00000000
00100000
00000000
00000000
00100000
01000000
00000000
00010000
00000000
,
10000000
00010000
10000000
00000000
00010000
10000000
00000000
00010000
00000000
00010000
00000000
00010000
10000000
00000000
00010000
00000000
,
00100000
00000000
00000000
00100000
01000000
00000000
10000000
00000000
00001000
00000000
00000000
00001000
00010000
00000000
00000100
00000000
,
00000010
00000000
00000000
00000010
00000100
00000000
00001000
00000000
00000010
00000000
00000000
00000010
00000100
00000000
00000001
00000000
,
00000010
00000000
00000000
00000010
00000100
00000000
00010000
00000000
00001000
00000000
00000000
00001000
10000000
00000000
00100000
00000000
,
01000000
00010000
01000000
00000000
00010000
10000000
00010000
00000000
,
10000000
01000000
00000000
01000000
10000000
00000000
10000000
00000000
10000000
00000000
00000000
00010000
10000000
00000000
10000000
00000000
,
01000000
00100000
00010000
00001000
00000010
00000100
00000001
00001000
,
00000001
00000100
00000000
00000100
00000001
00000000
00000001
00000000
00000001
00000000
00000000
00000100
00000010
00000100
00000010
00000100
,
00000010
00001000
00000100
00010000
00001000
00100000
01000000
10000000
,
00010000
01000000
00000000
01000000
00010000
00000000
00010000
00000000
00010000
00000000
00000000
10000000
00010000
00000000
00100000
00000000
,
01000000
00100000
00001000
00010000
00000010
00000100
00000010
00010000
,
00000001
00000010
00000000
00000010
00000001
00000000
00000001
00000000
00000001
00000000
00000000
00000010
00000100
00000010
00000100
00000010
,
00000100
00001000
00010000
00001000
,
01000000
00010000
00000000
00010000
01000000
00000000
00010000
00000000
10000000
00000000
00000000
01000000
10000000
01000000
10000000
00100000
,
01000000
00010000
00100000
00001000
00010000
00000100
00000010
00000001
,
00001000
00000010
00000000
00000010
00001000
00000000
00000100
00000000
00000010
00000000
00000000
00000001
00001000
00000001
00001000
00000100
,
00010000
00001000
00100000
01000000
00100000
00001000
01000000
00100000
,
10000000
01000000
00000000
01000000
10000000
01000000
10000000
01000000
10000000
00000000
00000000
00100000
01000000
00100000
01000000
00010000
,
00100000
00000000
00001000
00010000
00001000
00000000
00010000
00000000
00000010
00001000
00000010
00000000
00000100
00000000
00000001
00000000
,
00001000
00000001
00000000
00000001
00001000
00000001
00001000
00000001
00001000
00000000
00000000
00000100
00010000
00000100
00010000
00001000
,
00010000
00000000
00001000
00010000
00001000
00000000
01000000
00000000
00100000
10000000
00100000
00000000
10000000
00000000
01000000
00000000
,
00100000
00010000
00000000
00100000
00000000
00010000
00000000
00100000
,
01000000
00000000
10000000
00000000
00000000
00000000
00001000
00000000
00000000
00000000
01000000
00000000
00000000
00000000
00001000
00010000
,
00001000
00010000
00000000
00000100
00000000
00000010
00000000
00000001
,
00001000
00000001
00000000
00001000
00000000
00000010
00000000
00010000
,
00001000
00010000
00000000
00001000
00000000
01000000
00000000
00100000
,
10000000
01000000
00000000
00100000
00000000
00010000
00000000
01000000
,
00001000
00010000
00000000
00000100
00000000
00000010
00000000
00000001
,
00001000
00000001
00000010
00000000
00000100
00000000
00010000
00000000
,
00002000
00000000
00000000
00000000
,
00003000
00000000
00000000
00000000
;

//---------------dance-single - ----------------
#NOTES:
     dance-single:
     :
     Beginner:
     2:
     0.087,0.142,0.000,0.000,0.000:
1000
0000
0000
0000
,
0000
0000
0000
0000
,
1000
0000
0000
0000
,
0000
0000
0000
0000
,
0001
0000
0000
0000
,
0000
0000
0000
0000
,
0001
0000
0000
0000
,
0000
0000
0000
0000
,
1000
0000
0000
0000
,
0010
0000
0000
0000
,
0100
0000
0000
0000
,
0000
0000
0000
0000
,
0010
0000
0000
0000
,
0100
0000
0000
0000
,
0001
0000
0000
0000
,
0000
0000
0000
0000
,
1000
0000
0000
0000
,
0010
0000
0000
0000
,
0100
0000
0000
0000
,
0000
0000
0000
0000
,
0001
0000
0000
0000
,
0010
0000
0000
0000
,
0100
0000
0000
0000
,
0000
0000
0000
0000
,
1000
0000
0001
0000
,
1000
0000
0001
0000
,
0100
0000
0000
0000
,
0100
0000
0000
0000
,
0001
0000
1000
0000
,
0001
0000
1000
0000
,
0100
0000
0000
0000
,
0100
0000
0000
0000
,
0010
0000
0000
0000
,
0010
0000
0001
0000
,
0010
0000
0000
0000
,
0010
0000
0100
0000
,
0010
0000
0000
0000
,
0010
0000
0001
0000
,
0010
0000
0000
0000
,
0010
0000
0000
0000
,
0100
0000
1000
0000
,
0100
0000
0000
0000
,
0100
0000
0010
0000
,
0100
0000
0000
0000
,
0100
0000
1000
0000
,
0100
0000
0000
0000
,
0100
0000
0010
0000
,
0100
0000
0000
0000
,
1000
0000
0000
0000
,
0010
0000
0000
0000
,
0100
0000
0000
0000
,
0001
0000
0000
0000
,
1000
0000
0000
0000
,
0010
0000
0000
0000
,
0100
0000
0000
0000
,
0001
0000
0000
0000
,
1000
0000
0000
0000
;
