#TITLE:伐折羅-vajra-;
#SUBTITLE:;
#ARTIST:DJ TOTTO VS 兎々;
#TITLETRANSLIT:vajra;
#SUBTITLETRANSLIT:;
#ARTISTTRANSLIT:DJ TOTTO VS TOTTO;
#CREDIT:DigiMindAxel;
#BANNER:vajra.png;
#BACKGROUND:vajra-bg.png;
#LYRICSPATH:;
#CDTITLE:REFLEC BEAT.png;
#METERTYPE:DDR X;
#MUSIC:vajra.ogg;
#OFFSET:-11.550;
#SAMPLESTART:24.001;
#SAMPLELENGTH:12.000;
#SELECTABLE:YES;
#BPMS:0.000=173.000,100.000=86.500,148.000=173.000;
#STOPS:;
#BGCHANGES:;

//---------------dance-single - ----------------
#NOTES:
     dance-single:
     :
     Easy:
     6:
     0.251,0.264,0.114,0.106,0.000:
1000
1000
0000
0000
,
0001
0001
0000
0000
,
1000
1000
0000
0000
,
0100
0100
0000
0000
,
0010
0010
0000
0000
,
0001
0001
0000
0000
,
1001
0000
0000
1000
0000
0000
1000
0000
,
0000
0001
0000
0000
0001
0000
0000
0000
,
1001
0000
0000
0000
,
1000
0100
1000
0100
,
1000
0001
1000
0001
,
1000
0100
1000
0100
,
0010
0001
0010
0000
,
0001
1000
0001
1000
,
0001
0100
0001
0100
,
0010
1000
0010
1000
,
0001
0000
0000
0000
,
1000
0100
0010
0001
,
1000
0001
1000
0001
,
0010
0100
1000
0001
,
0100
0010
0100
0010
,
0100
0001
0010
0100
,
1000
0001
1000
0100
,
0010
0001
0010
0001
,
0100
0100
0100
0000
,
0120
0000
2030
0000
,
3200
0000
0320
0000
,
0032
0000
2003
0000
,
3020
0000
0230
0000
,
0301
0001
1000
1000
,
0010
0010
0100
0100
,
0001
0010
0100
1000
,
0001
0010
0200
0000
,
1300
0000
0000
0000
,
1000
0000
0000
0000
,
1000
0001
1000
0001
,
2000
0000
3001
0000
,
1000
0010
0100
0010
,
1000
0010
0100
0001
,
0010
0100
1000
0100
,
0010
0001
1000
0010
,
0100
0001
0010
0001
,
0100
0001
0010
0001
,
1000
0010
0100
0001
,
1000
1000
1000
0000
,
0001
0010
0001
0010
,
0100
0010
0100
0010
,
0100
1000
0100
1000
,
0001
0100
0010
0100
,
0001
0001
1000
1000
,
0100
0010
0001
1000
,
0010
0010
0100
0100
,
0002
0000
0000
0000
,
1003
0000
0000
1001
0000
0000
0000
0000
,
0010
0000
0000
0110
0000
0000
0000
0000
,
0001
0000
0000
1001
0000
0000
0000
0000
,
0100
0000
0000
0110
0000
0000
0000
0000
,
1000
0001
0010
0100
,
1000
0000
0000
1001
0000
0000
0000
0000
,
0010
0000
0110
0000
,
1001
1001
1001
1001
,
0220
0000
0000
0000
,
0000
0000
0000
0000
,
0000
0000
0000
0000
,
0000
0000
0000
0000
,
0330
0000
0000
0000
;

//---------------dance-single - ----------------
#NOTES:
     dance-single:
     :
     Medium:
     10:
     0.456,0.450,0.244,0.448,0.004: // measure 1
1001
0001
0020
0000
,  // measure 2
0130
0100
2000
0000
,  // measure 3
3010
0010
0200
0000
,  // measure 4
0301
0001
0020
0000
,  // measure 5
0130
0100
2000
0000
,  // measure 6
3001
0001
0200
0000
,  // measure 7
0310
1000
0000
0010
1000
0000
0001
1000
,  // measure 8
0000
0001
1000
0000
0001
1000
0001
1000
,  // measure 9
0002
0000
2003
0000
,  // measure 10
3100
0010
0100
0000
1100
0000
0011
0000
,  // measure 11
0010
0100
0010
0000
0011
0000
1100
0000
,  // measure 12
1000
0001
1000
0000
1010
0000
0101
0000
,  // measure 13
0001
1000
0001
1000
0010
1000
0010
0000
,  // measure 14
0110
0000
0101
0000
0010
1000
0100
0000
,  // measure 15
0011
0000
1001
0000
1000
0010
0100
0000
,  // measure 16
0101
0000
1001
0000
0010
1000
0001
0000
,  // measure 17
0010
0000
0010
0000
0010
0000
0000
0011
0000
0000
0000
0000
0000
0000
0000
0000
,  // measure 18
1000
0010
0100
0000
0001
1000
0001
1000
,  // measure 19
0001
0010
0100
0000
1000
0001
1000
0001
,  // measure 20
1000
0100
0010
0000
0001
1000
0001
1000
,  // measure 21
0001
0100
0010
0000
0110
0000
0110
0000
,  // measure 22
0100
1000
0100
1000
0010
0100
0010
0000
,  // measure 23
0100
0001
0100
0001
1000
0100
1000
0000
,  // measure 24
0100
0010
0100
0010
0001
1000
0001
0000
,  // measure 25
0100
0010
0100
0010
2000
0000
0000
0000
,  // measure 26
3002
0023
0230
0320
,  // measure 27
0032
2003
3020
0230
,  // measure 28
0320
2030
3002
2003
,  // measure 29
3020
0230
0320
0230
,  // measure 30
0301
0001
1001
0000
1000
1000
1001
0000
,  // measure 31
0010
0010
0110
0000
0100
0100
0110
0000
,  // measure 32
0001
0001
0011
0000
1000
1000
1100
0000
,  // measure 33
0001
0001
0101
0000
2000
0000
3010
0000
,  // measure 34
2002
0000
0000
0000
0000
0000
0000
3003
,  // measure 35
0220
0000
0000
0000
0000
0000
0000
0330
,  // measure 36
1002
2003
3002
2003
,  // measure 37
3002
0000
1003
0000
,  // measure 38
0002
0100
0203
0320
,  // measure 39
2030
0001
3200
2300
,  // measure 40
3002
0000
1000
0000
1003
0001
0010
0100
,  // measure 41
1000
0000
1000
0000
0001
0000
0100
0010
,  // measure 42
2000
0000
0001
0000
3001
1000
0001
1000
,  // measure 43
0100
0010
1001
0001
,  // measure 44
2000
0000
0100
0000
3001
0100
0010
1000
,  // measure 45
0001
0001
1001
1001
,  // measure 46
0002
0100
2003
3200
,  // measure 47
0320
0001
0230
2300
,  // measure 48
3002
0000
1000
0000
0103
0001
0010
0100
,  // measure 49
1000
0000
1000
0000
0010
0000
0100
0010
,  // measure 50
0200
0000
0001
0000
0301
1000
0100
1000
,  // measure 51
0100
0000
0010
0000
0001
1000
0001
1000
,  // measure 52
0010
0010
0100
0100
,  // measure 53
1002
0000
2003
0000
,  // measure 54
3001
0001
0001
1000
0100
0010
0001
0000
,  // measure 55
0100
0100
0100
0010
1000
0001
0010
0000
,  // measure 56
0001
0001
0001
1000
0100
0010
0001
0000
,  // measure 57
0100
0100
0100
0010
1000
0001
0010
0000
,  // measure 58
0001
0001
0001
1000
0010
0100
0001
0000
,  // measure 59
1000
1000
1000
0001
0010
0100
1000
0000
,  // measure 60
0100
0010
0100
0010
0001
0100
0001
0100
,  // measure 61
0001
0010
1000
0010
0001
1000
0100
0010
,  // measure 62
0200
0000
0000
0000
,  // measure 63
0000
0000
0000
0000
,  // measure 64
0000
0000
0000
0000
,  // measure 65
0000
0000
0000
0000
,  // measure 66
0300
0000
0000
0000
;

//---------------dance-single - ----------------
#NOTES:
     dance-single:
     :
     Hard:
     14:
     0.641,0.767,0.317,0.130,0.391: // measure 1
0110
0000
0110
0000
1000
0001
0100
0000
,  // measure 2
0110
0000
0110
0000
0001
1000
0100
0000
,  // measure 3
1001
0000
1001
0000
0001
0010
0100
0000
,  // measure 4
0011
0000
0011
0000
1000
0010
0100
0000
,  // measure 5
1010
0000
1010
0000
0010
0100
0001
0000
,  // measure 6
0110
0000
0000
0000
0110
0000
0000
0000
1000
0000
0001
0000
0100
0000
0001
0100
,  // measure 7
0001
1001
0000
1000
1001
0000
0010
0110
,  // measure 8
0000
0100
0110
0000
0010
0001
0010
0100
,  // measure 9
2000
0000
3002
0000
,  // measure 10
1003
0000
0000
1000
0001
0000
0000
0001
0100
0000
0001
0000
0010
0000
0100
0000
,  // measure 11
1000
0000
0000
1000
0010
0000
0000
0010
0100
0000
0001
0000
0010
0000
0100
0000
,  // measure 12
0010
0000
0000
0010
0001
0000
0000
0001
1000
0000
0010
0000
0100
0000
0000
0001
,  // measure 13
1000
0000
0100
0000
0010
0000
0000
0001
1000
0000
0010
0000
0100
0000
0001
0000
,  // measure 14
1000
0000
0000
1000
0010
0000
0000
0010
0100
0000
0001
0000
1000
0000
0100
0000
,  // measure 15
0010
0000
0000
0010
0001
0000
0000
0001
1000
0000
0010
0000
0100
0000
0001
0000
,  // measure 16
0010
0000
0000
0010
0100
0000
0000
0100
1000
0000
0001
0000
0010
0000
0001
0000
,  // measure 17
1000
0000
1000
0000
1001
0000
0000
0010
0000
0010
0000
0000
0100
0000
0100
0000
,  // measure 18
0010
0000
1000
0001
1000
0000
0000
0100
0010
0000
0001
0000
0100
0000
1000
0000
,  // measure 19
0100
0000
0001
1000
0001
0000
0000
0010
0100
0000
1000
0000
0010
0000
0001
0000
,  // measure 20
0010
0000
1000
0001
1000
0000
0000
0001
0010
0000
0001
0000
0100
0000
0010
0000
,  // measure 21
1000
0000
0001
0010
0001
0000
1000
0000
0100
1000
0100
0000
1000
0001
1000
0000
,  // measure 22
0001
0000
0100
0010
0100
0000
0001
0100
0001
0000
0010
0000
0100
0000
1000
0000
,  // measure 23
0001
0000
1000
0010
1000
0000
0001
0010
0001
0000
1000
0000
0100
0000
0010
0000
,  // measure 24
0001
0000
0100
0010
0100
0000
0001
1000
0001
0000
0010
0000
0100
0000
1000
0000
,  // measure 25
0001
0000
0100
0001
0100
0000
0010
0100
0020
0000
0000
0000
0000
0000
0000
0000
,  // measure 26
0130
0000
0000
0001
0000
1000
0100
0000
0100
1000
0000
1000
0001
0000
0000
0010
0000
0010
0100
0000
0100
1000
0000
1000
,  // measure 27
0001
0000
0000
0100
0000
0100
0010
0000
0010
1000
0000
1000
0001
0000
0000
0010
0000
0010
0100
0000
0100
1000
0000
1000
,  // measure 28
0001
0000
0000
1000
0000
1000
0010
0000
0010
0100
0000
0100
0001
0000
0000
0010
0000
0010
0100
0000
0100
1000
0000
1000
,  // measure 29
0001
0000
0000
0100
0000
0100
0001
0000
0001
1000
0000
1000
0100
0000
0000
0010
0000
0010
0001
0000
0001
1000
0000
1000
,  // measure 30
0010
1010
0110
0000
0001
1001
1010
0000
,  // measure 31
0100
0110
0101
0000
1000
1001
0011
0000
,  // measure 32
0110
1100
1001
0000
1010
0110
1001
0000
,  // measure 33
0101
0110
1001
0000
2000
0000
3001
0000
,  // measure 34
0220
0000
0000
0000
0000
0000
0000
0330
,  // measure 35
2002
0000
0000
0000
0000
0000
0000
3003
,  // measure 36
0011
0100
1000
0010
0100
0001
1000
0100
,  // measure 37
0120
0000
0100
0130
,  // measure 38
1000
0100
1000
0001
0100
1000
0100
0001
,  // measure 39
0010
0100
0010
0001
0100
0010
0100
0001
,  // measure 40
1000
0001
0010
1000
0010
0001
1000
0100
,  // measure 41
0010
0001
0100
0000
0001
0001
1000
1000
,  // measure 42
0100
0000
0010
0000
0100
0000
1000
0001
1000
0000
0010
0000
0100
0000
0001
0000
,  // measure 43
1000
0000
0100
0000
0001
0000
0100
0000
1000
0000
0000
0010
0100
0000
0000
0100
,  // measure 44
0001
1000
0001
0100
0010
0100
0001
1000
,  // measure 45
0100
0000
0100
0000
1000
0000
1000
0000
0001
1000
0001
0000
1000
0000
1000
0000
,  // measure 46
0010
0100
0010
1000
0100
0001
0100
1000
,  // measure 47
0010
0001
0010
1000
0100
0010
0100
1000
,  // measure 48
0010
0000
0100
0000
0010
0000
1000
0001
1000
0000
0100
0000
0010
0000
0001
0000
,  // measure 49
1000
0010
0001
0010
1000
0000
0100
0010
,  // measure 50
0100
0000
1000
0000
0001
0000
0100
0001
0100
0000
0001
0000
1000
0000
0100
0000
,  // measure 51
0010
0000
0000
0010
0001
0000
0000
0001
0100
0000
0010
0000
1000
0000
0010
0000
,  // measure 52
1000
0000
0100
0000
0010
0000
0001
0000
1000
0100
1000
0000
0010
0100
0010
0000
,  // measure 53
1002
0000
2003
0000
,  // measure 54
3001
0010
0001
0010
0001
0000
1000
0010
0000
0010
0000
0010
0100
0000
0000
0000
,  // measure 55
0001
0100
0001
0100
0001
0000
1000
0100
1000
0000
0100
0000
0010
0000
0001
0000
,  // measure 56
0100
0001
0100
0001
0100
0000
0001
1000
0001
0000
0010
0000
0100
0000
1000
0000
,  // measure 57
0010
1000
0010
1000
0010
0000
1000
0001
1000
0000
0100
0000
0010
0001
0010
0000
,  // measure 58
0001
0100
0001
0100
0001
0000
1000
0100
1000
0000
0100
0000
0010
0000
0001
0000
,  // measure 59
0100
0010
0100
0010
0100
0000
0001
1000
0001
0000
1000
0000
0100
0000
0010
0000
,  // measure 60
0001
0100
0001
0100
0001
0000
1000
0000
0010
0100
0010
0000
1000
0000
0100
0000
,  // measure 61
0010
0001
0010
0000
0001
1000
0001
0000
1000
0010
1000
0000
0100
0010
0100
0000
,  // measure 62
2000
0000
0002
0000
,  // measure 63
0003
0000
0200
0000
,  // measure 64
0300
0000
0002
0000
,  // measure 65
0003
0000
0020
0000
,  // measure 66
3030
0000
0000
0000
;

//---------------dance-single - ----------------
#NOTES:
     dance-single:
     :
     Challenge:
     18:
     0.936,1.000,0.277,0.065,1.000:
1100
0000
0000
0000
1100
0000
0000
0000
0010
0100
0010
0100
0010
0100
0010
0000
,
0101
0000
0000
0000
0101
0000
0000
0000
1000
0001
1000
0001
1000
0001
1000
0000
,
0110
0000
0000
0000
0110
0000
0000
0000
0001
0010
0001
0010
0001
0010
0001
0000
,
1010
0000
0000
0000
1010
0000
0000
0000
0100
0010
0100
0010
0100
0010
0100
0000
,
1001
0000
0000
0000
1001
0000
0000
0000
1000
0010
1000
0010
1000
0010
1000
0000
,
0110
0000
0000
0000
0110
0000
0000
0000
0001
0100
0001
0100
0001
0100
0001
0000
,
1001
1100
0000
1100
1001
0000
0101
1001
,
0000
0000
1010
0000
1001
0000
0001
0100
0010
0000
0100
0000
0001
0000
0010
0000
,
0200
0000
0000
0000
0000
0000
0000
0000
1300
0001
0010
0100
1000
0100
0010
0001
,
1000
0000
0010
0100
0010
0000
1000
0100
1000
0100
1000
0000
0010
0000
0100
0000
,
0001
0000
1000
0100
1000
0000
0001
1000
0001
1000
0001
0000
0100
0000
0010
0000
,
1000
0000
0001
0010
0001
0000
0100
0010
0100
0010
0100
0000
0001
0000
1000
0010
,
0100
0000
0001
0000
0010
0001
0000
0001
1000
0000
0100
0000
0010
0000
0100
0000
,
1000
0000
0001
0100
0001
0000
1000
0100
1000
0100
0010
0100
0010
0000
0001
0000
,
1000
0000
0001
0100
0001
0000
0010
0100
0010
0100
1000
0100
1000
0000
0001
0000
,
1000
0000
0001
0010
0001
0000
0100
0001
0100
0001
1000
0100
1000
0100
0010
0001
,
0100
0000
0101
0000
1001
0000
0000
0110
0000
0110
0000
0000
1010
0000
1000
0000
,
0001
0000
0010
0100
1000
0000
0001
0100
0001
0100
0010
1000
0100
1000
0100
0000
,
0010
0000
0001
0100
0010
0000
1000
0001
1000
0001
0100
0001
0100
0001
0010
0000
,
0100
0000
1000
0010
1000
0000
0100
0010
0100
0010
0001
0100
0001
0100
0010
1000
,
0100
0000
0010
0000
0001
1000
0000
1000
0010
0000
0100
0000
0001
1000
0100
0000
,
0010
0000
0001
1000
0001
0000
0010
0001
0010
0100
0010
0001
1000
0010
0100
0010
,
1000
0000
0100
0010
0100
0000
1000
0100
0010
0100
1000
0001
0100
0010
0100
0001
,
0010
0100
1000
0001
0010
0100
1000
0001
0010
0100
0010
0100
0010
0001
0010
0001
,
0100
0000
0010
1000
0100
0000
0010
0001
2000
0000
0000
0000
0000
0000
0000
0000
,
3001
0000
0001
1000
0000
1000
0100
0010
0001
1000
0100
0010
0001
0000
0001
1000
0000
1000
0010
0100
0001
0100
0010
1000
,
0100
0000
0100
0010
0000
0010
0001
1000
0100
0010
0001
0100
0010
0000
0010
1000
0000
1000
0001
0010
0100
1000
0001
0100
,
0010
0000
0010
1000
0000
1000
0100
0010
0001
0100
0010
1000
0010
0000
0010
0100
0000
0100
0001
0010
0001
1000
0100
1000
,
0001
0000
0001
1000
0000
1000
0001
0100
0001
1000
0010
1000
0001
0010
0100
1000
0100
0010
0001
1000
0010
0100
0010
1000
,
0100
0000
0000
1100
0000
0000
0101
0000
0001
0010
0100
1000
0100
0000
0000
0110
0000
0100
0001
0010
0001
1000
0000
1000
,
0100
0000
0000
0110
0000
0010
0001
0100
0001
1000
0000
1000
0010
0000
0000
0110
0000
0100
0001
0010
0100
1000
0100
0010
,
0001
0000
0000
0101
0000
0100
0010
1000
0100
0010
0100
0010
0100
0000
0000
1100
0000
1000
0001
0010
0100
0010
0001
0010
,
0001
0000
0000
1001
0000
1000
0010
0100
0010
1000
0100
1000
0100
0010
0100
0010
0100
0010
0001
0010
0001
0010
0001
0010
,
0001
1000
0010
1000
0000
1000
0010
2000
0001
0000
0001
0000
0001
0000
3001
0000
,
1000
0001
0010
0001
0000
0001
0010
0002
1000
0000
1000
0000
1000
0000
1003
0000
,
0001
0000
1000
0000
0100
0000
1000
0000
0001
0000
1000
0000
0100
0000
1000
0000
0001
0000
0010
0000
0100
0000
1000
0000
0001
0000
0100
0000
0001
1000
0100
0010
,
0001
0010
0001
0100
0010
0100
0010
1000
0100
1000
0100
1000
0001
1000
0001
0010
0200
0000
0000
0000
0000
0000
0000
0000
2300
0000
0000
0000
0000
0000
0000
0000
,
3001
1000
0001
0000
1000
0100
1000
0000
0001
0000
0100
0000
0001
0000
1000
0000
,
0100
0010
0100
0000
1000
0010
1000
0000
0100
0000
0010
0000
0001
0000
0100
0000
,
0001
1000
0001
0000
1000
0100
1000
0010
0100
0000
0001
0000
1000
0000
0100
0000
,
0001
0100
1000
0001
0101
0000
1000
1000
,
0001
0100
0001
0000
1000
0100
0010
0001
0100
0000
0010
0000
0100
0000
0001
0000
,
1000
0100
1000
0000
0001
1000
0001
0000
0010
0000
0100
1000
0001
0010
0001
0010
,
0100
0000
1000
0000
0001
0000
0100
0000
0001
1000
0100
0000
0010
0000
0001
0000
,
1000
0000
1000
0000
0100
0000
0100
0000
0010
0001
1000
0000
0100
0010
0001
0000
,
1000
0010
1000
0000
0001
1000
0001
0000
0010
0000
0100
0000
0010
0000
0001
0000
,
1000
0001
1000
0000
0001
0010
0001
0000
1000
0000
0010
0000
0100
0000
0001
0000
,
1000
0100
1000
0000
0001
0100
0001
0010
0100
0000
0010
0000
0001
0000
1000
0000
,
0010
0100
0010
0000
1000
0001
1000
0000
0100
0000
0010
0000
0001
0000
1000
0000
,
0100
1000
0100
0000
0010
0001
0100
0010
0100
0000
0001
0000
0010
0000
0100
0000
,
1000
0010
0100
0000
0010
0100
0001
0000
1000
0100
1000
0100
0010
0001
0100
0010
,
0100
0000
0001
0000
1000
0000
0100
0000
0010
0001
0010
0100
1000
0001
0100
0001
,
2000
0000
0000
0000
0000
0000
0000
0000
3001
1000
0100
0000
0010
0000
0001
0000
,
1000
0010
1000
0010
1000
0000
0100
0001
0000
0100
0000
1000
0001
0000
0001
0000
,
0100
0010
0100
0010
0100
0000
0001
0100
0001
0100
1000
0100
1000
0100
0001
0000
,
0010
0100
0010
0100
0010
0000
0001
1000
0000
0010
0001
0010
1000
0100
0010
0000
,
0001
0100
0001
0100
0001
0000
1000
0010
0000
0001
0000
0010
1000
0100
0010
0000
,
0001
1000
0001
1000
0001
0000
1000
0000
0010
0100
0001
0100
0010
1000
0100
0010
,
0001
1000
0001
1000
0001
0000
0010
0100
0010
0100
1000
0100
1000
0001
0100
0001
,
0100
0010
0100
0010
0100
0001
0010
0001
0010
1000
0010
1000
0010
0001
1000
0001
,
1000
0100
0010
0000
0010
0001
1000
0000
1000
0001
0100
0000
0100
0010
1000
0100
,
0020
0000
0001
0001
,
0001
0000
0100
0100
,
0100
0000
1000
1000
,
1000
0000
0001
0001
,
0031
0000
0000
0000
;

//---------------dance-double - ----------------
#NOTES:
     dance-double:
     :
     Easy:
     6:
     0.265,0.344,0.179,0.122,0.000:
10000000
10000000
00000000
00000000
,
00010000
00010000
00000000
00000000
,
10000000
10000000
00000000
00000000
,
01000000
01000000
00000000
00000000
,
00100000
00100000
00000000
00000000
,
00001000
00001000
00000000
00000000
,
00011000
00000000
00000000
00010000
00000000
00000000
00010000
00000000
,
00000000
00000010
00000000
00000000
00000010
00000000
00000100
00000000
,
00000020
00000000
00000000
00000000
,
00000130
00000001
00000100
00000001
,
00010000
00000100
00010000
00000100
,
00010000
00001000
00010000
00001000
,
00100000
01000000
00100000
00000000
,
00010000
01000000
00010000
01000000
,
00001000
10000000
00001000
10000000
,
00010000
00001000
00010000
00001000
,
00000010
00000000
00000110
00000000
,
00001000
00000100
00000010
00000001
,
00001000
00000001
00001000
00000001
,
00000010
00000100
00010000
00001000
,
01000000
00100000
01000000
00100000
,
10000000
00100000
01000000
00001000
,
00010000
00001000
00010000
00000001
,
00000010
00000100
00000010
00000100
,
00010000
00010000
00020000
00000000
,
00032000
00000000
02003000
00000000
,
03200000
00000000
02300000
00000000
,
03002000
00000000
00023000
00000000
,
00030200
00000000
00000320
00000000
,
00010030
00011000
00010000
00011000
,
00100000
01100000
00100000
01100000
,
10000000
10010000
00010000
10010000
,
00001000
00011000
00020000
00000000
,
00031000
00000000
00000000
00000000
,
10000010
00000000
00000000
00000000
,
00000100
00000001
00000100
00000001
,
00020000
00000000
00031000
00000000
,
01000000
00010000
00100000
00010000
,
01000000
00010000
00100000
00001000
,
00010000
00000100
00000010
00000001
,
00001000
00000100
00010000
00000100
,
00001000
00000010
00000100
00000010
,
00010000
00001000
00100000
01000000
,
00100000
00001000
00010000
00000010
,
00000100
00000100
00000110
00000000
,
00000001
00000010
00000001
00010000
,
00001000
00010000
00001000
01000000
,
00100000
01000000
00100000
01000000
,
00001000
00010000
00000010
00010000
,
00000001
00000001
00001000
00001000
,
00000100
00000010
00000001
00010000
,
00001000
00001000
01000000
01000000
,
00200000
00000000
00000000
00000000
,
01300000
00000000
00000000
01100000
00000000
00000000
00000000
00000000
,
00001000
00000000
00000000
00011000
00000000
00000000
00000000
00000000
,
00000010
00000000
00000000
00000110
00000000
00000000
00000000
00000000
,
00010000
00000000
00000000
00011000
00000000
00000000
00000000
00000000
,
00001000
00000010
00000100
00000001
,
00010000
00000000
00000000
00011000
00000000
00000000
00000000
00000000
,
00100000
00000000
01100000
00000000
,
10010000
10001000
10001000
00011000
,
00022000
00000000
00000000
00000000
,
00000000
00000000
00000000
00000000
,
00000000
00000000
00000000
00000000
,
00000000
00000000
00000000
00000000
,
00033000
00000000
00000000
00000000
;

//---------------dance-double - ----------------
#NOTES:
     dance-double:
     :
     Medium:
     10:
     0.455,0.450,0.342,0.358,0.000:
10010000
10010000
00000000
00000000
,
01001000
01001000
00000000
00000000
,
00011000
00011000
00000000
00000000
,
00010010
00010010
00000000
00000000
,
00000110
00000110
00000000
00000000
,
00001001
00001001
00000000
00000000
,
00000100
00000010
00000000
00000100
00000010
00000000
00001000
00010000
,
00000000
00001000
00010000
00000000
00100000
01000000
00100000
01000000
,
20000000
00000000
30020000
00000000
,
10030000
01000000
00100000
00000000
00110000
00000000
10010000
00000000
,
10000000
00100000
01000000
00000000
01010000
00000000
10010000
00000000
,
00010000
01000000
00001000
00000000
00011000
00000000
00010010
00000000
,
00010000
00000001
00010000
00000001
00000010
00000100
00000010
00000000
,
00000110
00000000
00000101
00000000
00000001
00010000
00000010
00000000
,
00010010
00000000
00011000
00000000
00001000
00100000
01000000
00000000
,
11000000
00000000
10010000
00000000
00100000
01000000
00001000
00000000
,
00010000
00010000
00010000
00000000
00011000
00000000
00000000
00000000
,
00000100
00000010
00000001
00000000
00000010
00000100
00000010
00000100
,
00010000
00000010
00000100
00000000
00000001
00001000
00000001
00001000
,
00000010
00010000
00001000
00000000
00100000
01000000
00100000
01000000
,
10000000
00010000
01000000
00000000
01100000
00000000
01100000
00000000
,
00100000
01000000
00001000
00010000
00000010
00000100
00000010
00000000
,
00001000
00000010
00001000
00000010
00000100
00000001
00010000
00000000
,
00001000
00010000
00001000
00010000
00100000
01000000
10001000
00000000
,
00010000
00001000
00010000
00001000
02000000
00000000
00000000
00000000
,
03020000
00230000
02300000
03200000
,
00302000
00203000
00302000
00023000
,
00030020
00000230
00000320
00002030
,
00003002
00002003
00003002
00020003
,
00031000
00001000
01001000
00000000
01000000
01000000
01100000
00000000
,
10000000
10000000
11000000
00000000
00001000
00001000
00011000
00000000
,
00000010
00000010
00010010
00000000
00000100
00000100
00000110
00000000
,
00000001
00000001
00001001
00000000
00000100
00000000
00000100
00000000
,
00002002
00000000
00000000
00000000
00000000
00000000
00000000
00003003
,
00000220
00000000
00000000
00000000
00000000
00000000
00000000
00000330
,
00001001
00001000
00000100
00010000
00001000
01000000
00100000
10000000
,
02000000
00000000
03100000
00000000
,
20010000
00010000
30200000
02300000
,
03002000
00010000
00023000
00030020
,
00002030
00000000
00000001
00000000
00003001
00001000
00000100
00000010
,
00000100
00000000
00001000
00000000
00000100
00000000
00010000
00001000
,
02000000
00000000
00100000
00000000
03100000
10000000
00100000
10000000
,
00010000
00100000
00001000
00010000
,
00002000
00000000
00010000
00000000
00013000
00000100
00000010
00000001
,
00000100
00000100
00000110
00000110
,
00000020
00001000
00002030
00003002
,
00000203
00000010
00000320
00020030
,
00032000
00000000
00010000
00000000
00013000
00001000
01000000
00100000
,
01000000
00000000
01000000
00000000
01000000
00000000
01000000
00100000
,
20000000
00000000
00010000
00000000
30010000
10000000
00100000
10000000
,
00100000
00000000
01000000
00000000
00001000
00010000
00001000
00010000
,
00000010
00000010
00000100
00000100
,
00001002
00000000
00002003
00000000
,
00003001
00000001
00000001
00001000
00000100
00000010
00000001
00000000
,
00001000
00001000
00001000
00000100
00010000
00001000
01000000
00000000
,
00100000
00100000
00100000
10000000
01000000
00100000
00010000
00000000
,
00100000
00100000
00100000
00001000
00010000
00000010
00000100
00000000
,
00000001
00000001
00000001
00001000
00000010
00000100
00000001
00000000
,
00010000
00010000
00010000
00001000
00100000
01000000
10000000
00000000
,
01000000
00100000
01000000
00100000
00001000
00010000
00001000
00010000
,
00000010
00000100
00000001
00000100
00000010
00010000
00001000
00010000
,
00000020
00000000
00000000
00000000
,
00000000
00000000
00000000
00000000
,
00000000
00000000
00000000
00000000
,
00000000
00000000
00000000
00000000
,
00000030
00000000
00000000
00000000
;

//---------------dance-double - ----------------
#NOTES:
     dance-double:
     :
     Hard:
     13:
     0.648,0.767,0.269,0.122,0.431:
10010000
00000000
10010000
00000000
10000000
01000000
00100000
00001000
,
00010000
00000000
00011000
00000000
00001000
00000100
00000010
00000001
,
00001000
00000000
00001001
00000000
00000001
00000100
00000010
00010000
,
00001000
00000000
00011000
00000000
00010000
01000000
00100000
10000000
,
00010000
00000000
10010000
00000000
10000000
01000000
00100000
00001000
,
00010000
00000000
00000000
00000000
00011000
00000000
00000000
00000000
00001000
00000000
00000010
00000000
00000100
00000000
00000001
00001000
,
00000001
00001001
00000000
00001000
00001100
00000000
01000000
01001000
,
00000000
00100000
01100000
00000000
10000000
01000000
00100000
00010000
,
20000000
00000000
30020000
00000000
,
00130000
00000000
00000000
00100000
01000000
00000000
00000000
01000000
10000000
00000000
00001000
00000000
01000000
00000000
00100000
00000000
,
01000000
00000000
00000000
01000000
00001000
00000000
00000000
00001000
00010000
00000000
00000100
00000000
00000010
00000000
00000100
00000000
,
00010000
00000000
00000000
00010000
00000001
00000000
00000000
00000001
00001000
00000000
00000100
00000000
00010000
00000000
00000000
00010000
,
00001000
00000000
00100000
00000000
01000000
00000000
00000000
01000000
10000000
00000000
00010000
00000000
00100000
00000000
01000000
00000000
,
00100000
00000000
00000000
00100000
00001000
00000000
00000000
00001000
00010000
00000000
00000010
00000000
00000100
00000000
00000010
00000000
,
00010000
00000000
00000000
00010000
00000001
00000000
00000000
00000001
00001000
00000000
00000100
00000000
00000010
00000000
00000001
00000000
,
00000100
00000000
00000000
00000100
00000010
00000000
00000000
00000010
00010000
00000000
00001000
00000000
01000000
00000000
00100000
00000000
,
01000000
00000000
01000000
00000000
01100000
00000000
00000000
00100000
00000000
00100000
00000000
00000000
10000000
00000000
10000000
00000000
,
00010000
00000000
01000000
00010000
01000000
00000000
00000000
00001000
00010000
00000000
00000001
00000000
00000100
00000000
00001000
00000000
,
00000100
00000000
00000001
00001000
00000001
00000000
00000000
00000010
00000100
00000000
00010000
00000000
00000010
00000000
00000001
00000000
,
00000010
00000000
00010000
00001000
00010000
00000000
00000000
00001000
10000000
00000000
01000000
00000000
10000000
00000000
00100000
00000000
,
01000000
00000000
00001000
00010000
00001000
00000000
00010000
00000000
00000100
00000010
00000100
00000000
00001000
00000010
00001000
00000000
,
00000001
00000000
00001000
00000010
00001000
00000000
00000010
00010000
00000010
00000000
00010000
00000000
00001000
00000000
00100000
00000000
,
01000000
00000000
10000000
00100000
10000000
00000000
00100000
01000000
00100000
00000000
10000000
00000000
01000000
00000000
00100000
00000000
,
00001000
00000000
00010000
00001000
00010000
00000000
00000010
00000100
00000010
00000000
00000100
00000000
00000001
00000000
00000010
00000000
,
00000100
00000000
00010000
00000100
00010000
00000000
00001000
00010000
00002000
00000000
00000000
00000000
00000000
00000000
00000000
00000000
,
10003000
00000000
00000000
00100000
00000000
00100000
01000000
00000000
01000000
00100000
00000000
00100000
10000000
00000000
00000000
00001000
00000000
00001000
00010000
00000000
00010000
00000010
00000000
00000010
,
00000100
00000000
00000000
00000001
00000000
00000001
00001000
00000000
00001000
00000100
00000000
00000100
00010000
00000000
00000000
00001000
00000000
00001000
00100000
00000000
00100000
01000000
00000000
01000000
,
10000000
00000000
00000000
00100000
00000000
00100000
01000000
00000000
01000000
00001000
00000000
00001000
00010000
00000000
00000000
00000100
00000000
00000100
00000010
00000000
00000010
00000001
00000000
00000001
,
00001000
00000000
00000000
00000010
00000000
00000010
00010000
00000000
00010000
00001000
00000000
00001000
01000000
00000000
00000000
00100000
00000000
00100000
10000000
00000000
10000000
01000000
00000000
01000000
,
00100000
00101000
00011000
00000000
00000100
00000101
00000110
00000000
,
00010000
00011000
00101000
00000000
01000000
11000000
01100000
00000000
,
00011000
00010010
00011000
00000000
00000110
00000101
00000110
00000000
,
00011000
01001000
00011000
00000000
10000000
01000000
00100000
00010000
,
02200000
00000000
00000000
00000000
00000000
00000000
00000000
03300000
,
20020000
00000000
00000000
00000000
00000000
00000000
00000000
30030000
,
00010000
01000000
00010000
01000000
00001000
00010000
00001000
00010000
00000100
00000010
00000100
00000010
00000100
00000010
00000100
00000010
,
00000002
00000000
00001003
00000000
,
00000010
00000100
00000010
00001000
00000100
00000001
00000100
00001000
,
00000100
00000010
00000100
00010000
00001000
01000000
00100000
10000000
,
00010000
10000000
01000000
00010000
01000000
10000000
00001000
00010000
,
00001000
01000000
00100000
00000000
10000000
10000000
00010000
00010000
,
10000000
00000000
01000000
00000000
00100000
00000000
00001000
00100000
00001000
00000000
00010000
00000000
00000100
00000000
00000010
00000000
,
00000001
00000000
00000100
00000000
00001000
00000000
00000100
00000000
00000001
00000000
00001000
00000100
00001000
00000000
00000010
00000100
,
00000010
00000000
00001000
00000001
00000010
00000001
00010000
00001000
,
01000000
00000000
01000000
00000000
00100000
00000000
00100000
00000000
10000000
00010000
10000000
00000000
00010000
00000000
10000000
00000000
,
01000000
00100000
01000000
10000000
00100000
00010000
00100000
10000000
,
00001000
00100000
00001000
00010000
00000010
00000001
00000010
00010000
,
00001000
00000000
00100000
00000000
01000000
00000000
10000000
00010000
10000000
00000000
01000000
00000000
00100000
00000000
00001000
00000000
,
00010000
00000100
00000001
00000100
00010000
00000000
00000010
00000100
,
00000010
00000000
00001000
00000000
00000001
00000000
00000010
00000001
00000010
00000000
00000100
00000000
00010000
00000000
00001000
00000000
,
01000000
00000000
00100000
01000000
00100000
00000000
10000000
00100000
10000000
00000000
01000000
00000000
00100000
00000000
00010000
00000000
,
10000000
00000000
01000000
00000000
10000000
00000000
00001000
00000000
00010000
00001000
00010000
00000000
00000010
00000100
00000010
00000000
,
00001002
00000000
00002003
00000000
,
00003010
00000100
00000010
00000100
00000010
00000000
00000000
00001000
00000000
00001000
00000000
00000010
00000100
00000000
00000100
00000000
,
00000001
00001000
00000001
00001000
00000001
00000000
00010000
00001000
00000000
00001000
00000000
00001000
01000000
00000000
00000000
00000000
,
00100000
01000000
00100000
01000000
00100000
00000000
10000000
00000000
01000000
00000000
00100000
00000000
00010000
00000000
01000000
00000000
,
00001000
00010000
00001000
00010000
00001000
00000000
00010000
00001000
00010000
00000000
00000010
00000000
00000100
00000000
00000010
00000000
,
00001000
00000001
00001000
00000001
00001000
00000000
00000100
00000000
00010000
00001000
00010000
00000000
00001000
00000000
00100000
00000000
,
01000000
10000000
01000000
10000000
01000000
00000000
10000000
00010000
00000000
00010000
00000000
00010000
01000000
00000000
00000000
00000000
,
00001000
00010000
00001000
00010000
00001000
00000000
00010000
00000000
00000010
00000100
00000010
00000000
00000100
00000000
00000001
00000000
,
00001000
00000100
00001000
00000000
00000010
00000100
00000010
00000000
00010000
00001000
00010000
00000000
01000000
00100000
01000000
00000000
,
20010000
00000000
00020000
00000000
,
00030000
00000000
02000000
00000000
,
03000000
00000000
00020000
00000000
,
00030000
00000000
02000000
00000000
,
33000000
00000000
00000000
00000000
;

//---------------dance-double - ----------------
#NOTES:
     dance-double:
     :
     Challenge:
     18:
     0.943,1.000,0.277,0.049,1.000:
10010000
00000000
00000000
00000000
10010000
00000000
00000000
00000000
00100000
01000000
00100000
01000000
00100000
01000000
00100000
00000000
,
01001000
00000000
00000000
00000000
01001000
00000000
00000000
00000000
00010000
00001000
00010000
00001000
00010000
00001000
00010000
00000000
,
00010010
00000000
00000000
00000000
00010010
00000000
00000000
00000000
00000100
00000010
00000100
00000010
00000100
00000010
00000100
00000000
,
00001001
00000000
00000000
00000000
00001001
00000000
00000000
00000000
00000010
00000001
00000010
00000001
00000010
00000001
00000010
00000000
,
00001001
00000000
00000000
00000000
00001001
00000000
00000000
00000000
00000100
00010000
00000100
00010000
00000100
00010000
00000100
00000000
,
00011000
00000000
00000000
00000000
00011000
00000000
00000000
00000000
01000000
00100000
01000000
00100000
01000000
00100000
01000000
00000000
,
10010000
11000000
00000000
11000000
10010000
00000000
01010000
01001000
,
00000000
00000000
00011000
00000000
00010010
00000000
00000010
00000100
00000010
00000000
00001000
00000000
00000100
00000000
00000010
00000000
,
00000002
00000000
00000000
00000000
00000000
00000000
00000000
00000000
00001003
00000100
00000010
00000001
00001000
00000100
00000010
00000001
,
00001000
00000000
00000100
00010000
00000100
00000000
00010000
00001000
00010000
00001000
00010000
00000000
00001000
00000000
01000000
00000000
,
00100000
00000000
10000000
00100000
10000000
00000000
01000000
00100000
01000000
00100000
01000000
00000000
10000000
00000000
00010000
00000000
,
00100000
00000000
00001000
00010000
00001000
00000000
00010000
00000010
00010000
00000010
00010000
00000000
00000010
00000000
00001000
00000001
,
00001000
00000000
00000010
00000000
00000100
00000001
00000000
00000001
00010000
00000000
00001000
00000000
01000000
00000000
00001000
00000000
,
00010000
00000000
00001000
00010000
00001000
00000000
00100000
01000000
00100000
01000000
10000000
01000000
10000000
00000000
00010000
00000000
,
01000000
00000000
00001000
00010000
00001000
00000000
00010000
00000010
00010000
00000010
00000100
00000010
00000100
00000000
00000001
00000000
,
00000010
00000000
00000100
00001000
00000100
00000000
00010000
00001000
00010000
00001000
00100000
01000000
00100000
01000000
10000000
01000000
,
10000000
00000000
11000000
00000000
10010000
00000000
00000000
01010000
00000000
01010000
00000000
00000000
10010000
00000000
10000000
00000000
,
00001000
00000000
00010000
00000010
00000100
00000000
00000001
00000100
00000001
00000100
00000010
00001000
00000100
00001000
00000100
00000000
,
00000010
00000000
00000001
00000100
00000010
00000000
00010000
00000001
00010000
00000001
00010000
00000100
00010000
00000100
00010000
00000000
,
00001000
00000000
00100000
01000000
00100000
00000000
00010000
10000000
00010000
10000000
01000000
00100000
01000000
00100000
00001000
00010000
,
00001000
00000000
00010000
00000000
00000010
00000100
00000000
00000100
00000001
00000000
00000010
00000000
00000100
00010000
00001000
00000000
,
00010000
00000000
00001000
00010000
00001000
00000000
00100000
01000000
00100000
00001000
00100000
01000000
10000000
00100000
01000000
00100000
,
10000000
00000000
00001000
00100000
00001000
00000000
00010000
00000100
00000010
00000100
00010000
00000010
00000100
00000010
00010000
00000100
,
00000010
00000001
00000010
00000100
00010000
00001000
00100000
01000000
10000000
01000000
10000000
01000000
00100000
01000000
00100000
00001000
,
00010000
00000000
00000010
00000100
00000001
00000000
00000100
00000010
00002000
00000000
00000000
00000000
00000000
00000000
00000000
00000000
,
00003100
00000000
00000100
00001000
00000000
00001000
00000001
00000010
00000100
00010000
00001000
00100000
01000000
00000000
01000000
10000000
00000000
10000000
00100000
01000000
00001000
00010000
00000010
00000100
,
00000001
00000000
00000001
00001000
00000000
00001000
00000100
00010000
00001000
00100000
01000000
10000000
00010000
00000000
00010000
00100000
00000000
00100000
00010000
00001000
00000010
00000100
00000001
00000100
,
00000010
00000000
00000010
00000100
00000000
00000100
00000001
00000010
00000100
00010000
00001000
00100000
01000000
00000000
01000000
10000000
00000000
10000000
00010000
00100000
01000000
00100000
00010000
00100000
,
00001000
00000000
00001000
00010000
00000000
00010000
00000100
00000010
00000001
00001000
00000100
00001000
00000001
00000100
00001000
00000100
00000001
00000010
00000100
00010000
00001000
00100000
10000000
00100000
,
00010000
00000000
00000000
00110000
00000000
00000000
00101000
00000000
00001000
00010000
00000100
00000010
00000001
00000000
00000000
00000011
00000000
00000010
00000001
00000100
00000010
00010000
00000000
00010000
,
00001000
00000000
00000000
01001000
00000000
01000000
00100000
10000000
01000000
00100000
00000000
01000000
10000000
00000000
00000000
10001000
00000000
00001000
00010000
00001000
00010000
00000010
00000100
00000010
,
00000100
00000000
00000000
00000101
00000000
00000001
00000010
00000100
00000010
00000001
00000010
00000100
00010000
00000000
00000000
00011000
00000000
00001000
01000000
00100000
01000000
00001000
01000000
00100000
,
01000000
00000000
00000000
10010000
00000000
10000000
00100000
01000000
00100000
10000000
01000000
10000000
01000000
00100000
01000000
00100000
01000000
00100000
00001000
00100000
00001000
00100000
00001000
00100000
,
00001000
00010000
00000100
00000010
00000000
00000010
00000001
00001000
00000100
00001000
00000100
00001000
00000100
00001000
00000100
00001000
,
00000100
00010000
00001000
01000000
00000000
01000000
00010000
10000000
01000000
10000000
01000000
10000000
01000000
10000000
01000000
10000000
,
00010000
00000000
01000000
00000000
00100000
00000000
01000000
00000000
00010000
00000000
01000000
00000000
00100000
00000000
01000000
00000000
00001000
00000000
00010000
00000000
00001000
00000000
00010000
00000000
00000100
00000000
00000010
00000000
00000100
00000010
00000100
00000010
,
00000001
00000010
00000001
00000010
00000100
00000010
00000100
00010000
00001000
00010000
00001000
01000000
00100000
01000000
00100000
10000000
02000000
00000000
00000000
00000000
00000000
00000000
00000000
00000000
23000000
00000000
00000000
00000000
00000000
00000000
00000000
00000000
,
30010000
01000000
00010000
00000000
01000000
00100000
01000000
00000000
00001000
00000000
00010000
00000000
00001000
00000000
00010000
00000000
,
00000100
00000010
00000100
00000000
00001000
00000010
00001000
00000000
00000100
00000000
00000010
00000000
00000100
00000000
00010000
00000000
,
00001000
01000000
00001000
00000000
01000000
00100000
01000000
00010000
00100000
00000000
00010000
00000000
10000000
00000000
00100000
00000000
,
00010000
00100000
10000000
00001000
00011000
00000000
00010000
00010000
,
00001000
00010000
00001000
00000000
00010000
00000100
00000010
00000001
00001000
00000000
00000100
00000000
00001000
00000000
00000001
00000000
,
00010000
00001000
00010000
00000000
00001000
01000000
00001000
00000000
00100000
00000000
01000000
10000000
00001000
01000000
00001000
01000000
,
00001000
00000000
00010000
00000000
00000100
00000000
00000010
00000000
00000100
00010000
00001000
00000000
00010000
00000000
00001000
00000000
,
01000000
00000000
01000000
00000000
00100000
00000000
00100000
00000000
10000000
01000000
00100000
00000000
00001000
00010000
00000010
00000000
,
00000100
00000010
00000100
00000000
00000001
00001000
00000001
00000000
00000100
00000000
00001000
00000000
00000100
00000000
00000010
00000000
,
00010000
00000010
00010000
00000000
00001000
00010000
00001000
00000000
01000000
00000000
10000000
00000000
01000000
00000000
00100000
00000000
,
10000000
00001000
10000000
00000000
00001000
01000000
00001000
00010000
00001000
00000000
00010000
00000000
00000010
00000000
00000100
00000000
,
00000010
00000100
00000010
00000000
00001000
00000001
00001000
00000000
00000100
00000000
00000010
00000000
00000001
00000000
00010000
00000000
,
00001000
00010000
00001000
00000000
00100000
01000000
10000000
00100000
10000000
00000000
01000000
00000000
00100000
00000000
00001000
00000000
,
00010000
00000010
00000100
00000000
00000010
00000100
00000001
00000000
00001000
00000100
00001000
00000100
00000010
00000001
00000100
00000010
,
00000100
00000000
00000001
00000000
00010000
00000000
00001000
00000000
00010000
00001000
00100000
01000000
10000000
00010000
01000000
00010000
,
20000000
00000000
00000000
00000000
00000000
00000000
00000000
00000000
30010000
00100000
01000000
00000000
00100000
00000000
00001000
00000000
,
00010000
00000100
00010000
00000100
00010000
00000000
00000001
00000100
00000000
00001000
00000000
00000100
00000001
00000000
00000001
00000000
,
00010000
00001000
00010000
00001000
00010000
00000000
00001000
01000000
00001000
01000000
10000000
01000000
10000000
01000000
00001000
00000000
,
00010000
00001000
00010000
00001000
00010000
00000000
00000001
00001000
00000000
00000100
00000010
00000100
00001000
00000010
00010000
00000000
,
00001000
00010000
00001000
00010000
00001000
00000000
10000000
00100000
00000000
00010000
00000000
00100000
10000000
01000000
00100000
00000000
,
00001000
00010000
00001000
00010000
00001000
00000000
00010000
00000000
00000100
00000010
00000001
00000010
00000100
00000010
00000001
00010000
,
00001000
00010000
00001000
00010000
00001000
00000000
01000000
00100000
10000000
00100000
01000000
00001000
00010000
00001000
00010000
00000100
,
00001000
00000100
00000010
00000001
00000010
00000100
00001000
00000010
00010000
00001000
00010000
00001000
01000000
00100000
10000000
00100000
,
01000000
00001000
00010000
00000000
00000100
00000010
00000001
00000000
00000100
00000010
00010000
00000000
00001000
01000000
00100000
10000000
,
00002000
00000000
10000000
10000000
,
10000000
00000000
01000000
01000000
,
01000000
00000000
00100000
00100000
,
00100000
00000000
00010000
00010000
,
00013000
00000000
00000000
00000000
;

//---------------dance-single - ----------------
#NOTES:
     dance-single:
     :
     Beginner:
     4:
     0.157,0.248,0.269,0.000,0.000:
1001
0000
0000
0000
,
1001
0000
0000
0000
,
1001
0000
0000
0000
,
1001
0000
0000
0000
,
0110
0000
0000
0000
,
0110
0000
0000
0000
,
0110
0000
0000
0000
,
0000
0000
0010
0010
,
0110
0000
0000
0000
,
1000
0000
0100
0000
,
0010
0000
0100
0000
,
1000
0000
0100
0000
,
0010
0000
0010
0000
,
0001
0000
0100
0000
,
0010
0000
0100
0000
,
0001
0000
0100
0000
,
0010
0000
0000
0000
,
0110
0000
0100
0000
,
0001
0000
0010
0000
,
0100
0000
1000
0000
,
0001
0000
0001
0000
,
1001
0000
0100
0000
,
0110
0000
0010
0000
,
0110
0000
0100
0000
,
0110
0000
0000
0000
,
1001
0000
0001
0000
,
0001
0000
0001
0000
,
1000
0000
1000
0000
,
1000
0000
1000
0000
,
0110
0000
0110
0000
,
1001
0000
1001
0000
,
0110
0000
0110
0000
,
1001
0000
0001
0000
,
1001
0000
0000
0000
,
1000
0000
0000
0000
,
1000
0000
1000
0000
,
1001
0000
0000
0000
,
0010
0000
0100
0000
,
0010
0000
0100
0000
,
0010
0000
1000
0000
,
1000
0000
0000
0000
,
0001
0000
0010
0000
,
0001
0000
0010
0000
,
0001
0000
0001
0000
,
1001
0000
0000
0000
,
0100
0000
0010
0000
,
0100
0000
0010
0000
,
0100
0000
0001
0000
,
0001
0000
0000
0000
,
1000
0000
0100
0000
,
1000
0000
0100
0000
,
1000
0000
1000
0000
,
1001
0000
0000
0000
,
0110
0000
0000
0000
,
0110
0000
0000
0000
,
1001
0000
0000
0000
,
1001
0000
0000
0000
,
1001
0000
0000
0000
,
0110
0000
0000
0000
,
1001
0000
1001
0000
,
0001
1000
0001
1000
,
0010
0000
0000
0000
;
