#TITLE:satfinal;
#SUBTITLE:;
#ARTIST:RAM;
#TITLETRANSLIT:;
#SUBTITLETRANSLIT:;
#ARTISTTRANSLIT:;
#CREDIT:DigiMindAxel;
#BANNER:satfinal.png;
#BACKGROUND:satfinal-bg.png;
#LYRICSPATH:;
#CDTITLE:beatmania IIDX.png;
#MUSIC:satfinal.ogg;
#METERTYPE:DDR X;
#OFFSET:-12.560;
#SAMPLESTART:87.193;
#SAMPLELENGTH:12.000;
#SELECTABLE:YES;
#BPMS:0.000=180.000,128.000=90.000,144.000=180.000;
#STOPS:;
#BGCHANGES:;

//---------------dance-single - ----------------
#NOTES:
     dance-single:
     :
     Easy:
     5:
     0.214,0.264,0.069,0.147,0.000:
1000
0000
0000
0000
,
0001
0000
0000
0000
,
1000
0000
0000
0000
,
0001
0000
0000
0000
,
0010
0000
0000
0000
,
0100
0000
0000
0000
,
1000
0000
0000
0000
,
1000
0000
0000
0000
,
2001
0000
0000
0000
,
3002
0000
0000
0000
,
0203
0000
0000
0000
,
0302
0000
0000
0000
,
2003
0000
0000
0000
,
3020
0000
0000
0000
,
0230
0000
0000
0000
,
0301
0001
0001
0001
,
0001
1000
0001
0000
,
1000
0001
1000
0000
,
0010
0100
0010
0000
,
1000
0010
1000
0000
,
0001
0100
0001
0000
,
1000
0100
1000
0000
,
0001
0010
0001
0000
,
2002
0000
0000
3003
,
0010
0100
0010
0000
,
0010
1000
0010
1000
,
0001
0000
0001
0000
,
0001
1000
0100
1000
,
0100
0000
0100
0000
,
0100
0010
0100
1000
,
0002
0000
0000
0000
,
2003
0000
0000
0000
,
3001
0000
0001
0000
,
0010
0000
0100
0000
,
1000
0000
1000
0000
,
0001
0000
0001
0000
,
1001
0000
0000
0000
0000
0001
0000
0000
,
0001
0000
1000
0010
,
1000
0000
1000
0000
,
0001
0000
0001
1000
,
1001
0000
1000
0000
,
0001
0000
0000
0002
0000
0000
0000
0000
,
1003
1000
1000
1000
,
2002
0000
0000
3003
,
0010
0000
0000
0000
,
0010
0000
0000
0000
,
0010
0000
0000
0000
,
0010
0000
0000
0000
,
0100
0000
0000
0000
,
0100
0000
0000
0000
,
0100
0000
0000
0000
,
0110
0000
0000
0000
,
0001
0100
0001
0000
,
1000
0010
1000
0100
,
1000
0010
1000
0000
,
0001
0010
0001
0100
,
0001
0010
0001
0000
,
1000
0100
1000
0010
,
1000
0100
1000
0000
,
2002
0000
0000
3003
,
1000
0010
1000
0010
,
1000
0100
0010
0001
,
0100
0010
0100
0001
,
0100
0010
0100
0001
,
1000
0100
1000
0010
,
1000
0001
0010
0001
,
2000
0000
0000
0000
,
3000
0000
0000
1001
;

//---------------dance-single - ----------------
#NOTES:
     dance-single:
     :
     Hard:
     12:
     0.546,0.705,0.311,0.026,0.121:
1001
0000
0000
0000
0000
0101
0000
0000
,
0110
0000
0000
0000
0000
1000
0010
0100
,
0110
0000
0000
0000
0000
0011
0000
0000
,
1001
0000
0000
0000
0000
0100
1000
0010
,
0110
0000
0000
0000
0000
0101
0000
0000
,
1001
0000
0000
0000
0000
0100
0010
0001
,
0011
0000
0000
0000
0000
1001
0000
0000
,
0110
0000
0000
0000
0000
0010
0100
0001
,
1001
0000
1000
0000
1000
0010
0000
0010
,
0100
0100
0100
0001
,
1000
0000
1000
0000
1000
0100
0000
0100
,
0010
0010
0010
0001
,
1000
0000
1000
0000
1000
0010
0000
0010
,
0100
0100
0100
0001
,
0010
0000
0010
0000
0010
0001
0000
0001
,
1000
0000
0100
0010
0001
0010
0100
0000
,
1001
0000
1100
0000
0100
1000
0000
0001
,
0100
0000
0101
0000
0100
0001
0010
0100
,
0010
0000
0011
0000
0001
1000
0000
1000
,
0100
0000
1100
0000
1000
0001
0100
0010
,
1000
0000
1010
0000
1000
0001
0000
0001
,
0100
0000
0101
0000
0001
1000
0100
0010
,
0100
0000
1100
0000
1000
0001
0000
0001
,
0100
0000
0100
0000
0100
0010
0100
0001
,
0101
0000
1100
0000
1000
0001
0000
0001
,
1000
0100
0001
0100
1000
0001
0010
0100
,
0010
0000
0011
0000
1001
0000
1000
0001
,
0010
1000
0100
1000
0010
0001
1000
0100
,
0010
0000
0011
0000
0001
1000
0000
1000
,
0001
0010
1000
0010
0001
1000
0100
0010
,
0100
0000
0100
0000
0100
1000
0000
1000
,
0001
0010
0001
0010
0100
1000
0100
1000
,
1001
0000
0000
1000
0010
1000
0000
0001
0000
0000
0000
0001
1000
0001
1000
0100
,
1000
0000
0000
0001
0000
0001
1000
0000
0100
0010
0000
0010
0000
0100
0000
0000
,
1000
0100
1000
0001
0000
0001
0000
0100
0000
0100
0000
0010
0000
0010
0000
1000
,
0001
0000
1000
0001
0000
0001
0100
0010
1000
0100
1000
0001
0000
0001
1000
0000
,
1001
0000
1000
0001
0100
0001
0000
0010
,
0100
1000
0100
0010
0000
0110
0000
0001
,
1001
0000
0100
1000
0001
0000
0001
0010
,
0100
0000
0100
1000
0001
0020
0000
0000
,
0031
0000
1000
0001
0010
0001
0000
1000
,
0010
0100
0010
1000
0100
0001
0100
1000
,
0000
0001
0001
1000
1000
0001
0001
1000
,
0010
0100
0010
0100
0010
2000
0000
0000
,
3001
0000
0001
0000
0001
0100
0000
0100
,
0010
0000
0010
0000
0010
1000
0000
1000
,
0001
0000
0001
0000
0001
0010
0000
0010
,
0100
0000
0100
0000
0100
1000
0000
1000
,
0001
0000
0001
0000
0001
0100
0000
0100
,
0010
0000
0010
0000
0010
1000
0100
0010
,
0001
0000
0001
0000
0001
0100
0000
0100
,
0010
0000
0010
0000
0010
1000
0001
1000
,
1001
0000
1100
0000
1000
0001
0000
0001
,
1000
0100
0001
0100
0001
0100
1000
0001
,
0010
0000
0011
0000
0001
1000
0010
0001
,
0010
1000
0001
0100
0001
0010
1000
0010
,
0001
0000
1001
0000
1000
0100
0001
0100
,
1000
0001
0100
0010
0001
0010
0100
0001
,
1000
0000
1001
0000
0001
0010
0000
0010
,
0001
0100
0010
2000
0000
0000
0000
0000
,
3001
0001
1000
1000
0001
0100
0010
1000
,
0001
0000
0010
0000
0100
0000
0010
0001
0000
1000
0010
0000
1000
0000
1000
0000
,
0001
1000
0100
0001
1000
0010
0001
1000
,
0100
0000
0010
0000
0100
0000
1000
0001
0100
0000
0001
0000
0100
0000
0001
0000
,
1000
0100
0001
0100
0001
0100
1000
0010
,
0001
0010
0001
0010
1000
0100
0001
0100
,
1000
0001
0010
0000
0100
0000
1000
0000
,
1000
0100
1000
0001
0100
0001
1001
1000
;

//---------------dance-single - ----------------
#NOTES:
     dance-single:
     :
     Medium:
     8:
     0.403,0.381,0.242,0.078,0.035:
0001
0000
0100
0001
0000
0100
0001
0000
,
1000
0000
0010
1000
0000
0010
1000
0000
,
0001
0000
0010
0001
0000
0010
0001
0000
,
1000
0000
0100
1000
0000
0100
1000
0000
,
0001
0000
0100
0001
0000
0100
0001
0000
,
1000
0000
0010
1000
0000
0010
1000
0000
,
0001
0000
0010
0001
0000
0010
0001
0000
,
2002
0000
0000
3003
,
1001
0000
0001
0000
0100
0010
0000
0000
,
1000
0000
1000
0000
1000
0000
0010
0100
,
0010
0000
0010
0000
1000
0001
0000
0000
,
1000
0000
1000
0000
1000
0000
0100
0010
,
0100
0000
0100
0000
1000
0010
0000
0000
,
0100
0000
0100
0000
0100
0000
0001
1000
,
0001
0000
0001
0000
0010
0100
0000
0000
,
1000
1000
1000
1000
,
1001
0000
0001
0000
0001
0100
0001
1000
,
0100
0001
0100
1000
,
1001
0000
1000
0000
1000
0010
1000
0001
,
0010
1000
0010
0001
,
1001
0000
0001
0000
0001
0010
0001
1000
,
0100
0001
0100
1000
,
1001
0000
1000
0000
1000
0100
1000
0000
,
2002
0000
0000
3003
,
0101
0000
0001
0000
0001
1000
0000
0000
,
0100
0000
0010
0000
0001
1000
0100
1000
,
0001
0000
0001
0000
0001
1000
0000
0000
,
0100
0000
0010
0000
0001
1000
0010
1000
,
0001
0000
0001
0000
1000
0100
0000
0000
,
1000
0000
0100
0000
0010
0001
1000
0001
,
0010
0010
0010
0000
,
0001
0000
0001
0000
0001
1000
0001
0000
,
1001
0000
0000
1000
0100
0000
0000
0100
0000
0000
0000
1000
0001
0000
0000
0000
,
0010
0000
0000
0100
0000
0000
0000
0000
1000
0000
0000
0000
0010
0000
0000
0000
,
0100
0000
0000
0001
0000
0000
0000
0000
0000
0010
0000
0100
0000
0010
0000
0000
,
0001
0000
1000
0000
0010
0100
0010
0000
,
0110
0000
0000
0000
0000
0110
0000
0000
,
0100
0000
0001
1000
0000
0100
0000
1000
,
0001
0000
0011
0000
,
1001
0000
1000
0001
0000
0010
0000
0001
,
1000
0000
1010
0000
,
0101
0000
0000
0001
1000
0100
1000
0000
,
0010
0100
0001
0000
0001
0000
0001
0000
,
0200
0000
0000
0000
0000
0310
0000
0000
,
1100
1000
1000
0000
,
0110
0100
0100
0000
,
0011
0010
0010
0000
,
1001
0001
0001
0000
,
0101
0100
0100
0000
,
1010
0010
0010
0000
,
1001
1000
1000
0000
,
0001
0001
0001
0001
,
1001
0000
1000
0000
0001
0100
0001
0000
,
1000
0100
0010
0000
0001
0000
0010
0000
,
1001
0000
0001
0000
1000
0010
1000
0000
,
0001
0010
0100
0000
1000
0000
0100
0000
,
1001
0000
1000
0000
0001
0010
0001
0000
,
1000
0010
0100
0000
0001
0000
0100
0000
,
1001
0000
0001
0000
1000
0010
1000
0000
,
2002
0000
0000
3003
,
0010
1000
0010
0000
0010
0100
0010
0000
,
1000
0010
0100
0001
,
0100
0001
0100
0000
0100
0010
0100
0000
,
0001
0100
0010
1000
,
0001
1000
0001
0000
1000
0001
0100
0000
,
0010
1000
0000
0001
0010
0000
0100
1000
,
0002
0000
0000
0000
,
0203
0000
0300
1001
;

//---------------dance-single - ----------------
#NOTES:
     dance-single:
     :
     Beginner:
     2:
     0.083,0.117,0.052,0.000,0.000:
0001
0000
0000
0000
,
0000
0000
0000
0000
,
1000
0000
0000
0000
,
0000
0000
0000
0000
,
0001
0000
0000
0000
,
0000
0000
0000
0000
,
0001
0000
0000
0000
,
0001
0000
0000
0000
,
1000
0000
0000
0000
,
0000
0000
0000
0000
,
1000
0000
0000
0000
,
0000
0000
0000
0000
,
1000
0000
0000
0000
,
0001
0000
0000
0000
,
0001
0000
0000
0000
,
0001
0000
0000
0000
,
1001
0000
0000
0000
,
0001
0000
0000
0000
,
0100
0000
0000
0000
,
0100
0000
0000
0000
,
0001
0000
0000
0000
,
1000
0000
0000
0000
,
0010
0000
0000
0000
,
0010
0000
0000
0000
,
1000
0000
0000
0000
,
0001
0000
0000
0000
,
1000
0000
0000
0000
,
0001
0000
0000
0000
,
1000
0000
0000
0000
,
1000
0000
0000
0000
,
1000
0000
0000
0000
,
0000
0000
0000
0000
,
1001
0000
0000
0000
,
0001
0000
0000
0000
,
0001
0000
0000
0000
,
1000
0000
0000
0000
,
1000
0000
0000
0000
,
0001
0000
0000
0000
,
1000
0000
0000
0000
,
0000
0000
0000
0000
,
0001
0000
0000
0000
,
1000
0000
0000
0000
,
0001
0000
0000
0000
,
0001
0000
0000
0000
,
1001
0000
0000
0000
,
0001
0000
0000
0000
,
0001
0000
0000
0000
,
0001
0000
0000
0000
,
1000
0000
0000
0000
,
1000
0000
0000
0000
,
1000
0000
0000
0000
,
1000
0000
0000
0000
,
1001
0000
0000
0000
,
1000
0000
0000
0000
,
0001
0000
0000
0000
,
0001
0000
0000
0000
,
1000
0000
0000
0000
,
0010
0000
0000
0000
,
0010
0000
0000
0000
,
0100
0000
0000
0000
,
1001
0000
0000
0000
,
1000
0000
0000
0000
,
0001
0000
0000
0000
,
1000
0000
0000
0000
,
0100
0000
0000
0000
,
0010
0000
0000
0000
,
0001
0000
0000
0000
,
0000
0000
0000
1001
;

//---------------dance-double - ----------------
#NOTES:
     dance-double:
     :
     Easy:
     6:
     0.245,0.264,0.052,0.130,0.000:
10000000
00000000
10000000
00000000
,
01000000
00000000
01000000
00000000
,
00100000
00000000
00100000
00000000
,
00010000
00000000
00010000
00000000
,
00001000
00000000
00001000
00000000
,
00000010
00000000
00000010
00000000
,
00000100
00000000
00000100
00000000
,
00000002
00000000
00000000
00000000
,
00000203
00000000
00000000
00000000
,
00000320
00000000
00000000
00000000
,
00000230
00000000
00000000
00000000
,
00000320
00000000
00000000
00000000
,
00000230
00000000
00000000
00000000
,
00002300
00000000
00000000
00000000
,
00023000
00000000
00000000
00000000
,
00031000
00001000
00001000
00001000
,
00001000
00100000
01000000
00000000
,
10000000
00100000
10000000
00000000
,
01000000
00100000
01000000
00100000
,
00001000
00010000
00001000
00000000
,
00010000
00000100
00010000
00000000
,
00000010
00000100
00000010
00010000
,
00000100
00010000
00001000
00000000
,
00022000
00000000
00000000
00033000
,
00001000
01000000
00100000
00000000
,
10000000
00100000
01000000
00010000
,
00001000
00000100
00000010
00000000
,
00000001
00000010
00000001
00001000
,
00000001
00000000
00000001
00000000
,
00000001
00010000
00000100
00010000
,
00002000
00000000
00000000
00000000
,
00023000
00000000
00000000
00000000
,
00031000
00000000
00100000
00000000
,
01000000
00000000
00100000
00000000
,
00001000
00000000
00010000
00000000
,
00000010
00000000
00000100
00000100
,
00000110
00000000
00000000
00000000
00000000
00000100
00000000
00000000
,
00000100
00000000
00000001
00000100
,
00000010
00000000
00010000
00000000
,
00001000
00000000
00000000
00001000
00000000
00000000
00000000
00000000
,
00011000
00000000
00001000
00000000
,
00100000
00000000
01000000
10000000
,
01000000
00100000
00001000
00001000
,
00020000
00000000
00000000
00030000
,
00000100
00000010
00000100
00000000
,
00000010
00000100
00000010
00000000
,
00000001
00000010
00000001
00000000
,
00010000
00000100
00010000
00000000
,
00001000
00010000
00001000
00000000
,
01000000
00100000
01000000
00000000
,
00100000
01000000
00100000
00000000
,
10000000
10000000
10000000
00000000
,
10010000
10000000
00100000
00000000
,
10000000
00100000
10000000
00100000
,
01000000
00001000
00010000
00000000
,
00001000
00010000
00000100
00000010
,
00000001
00000010
00000001
00000000
,
00000100
00000010
00000100
00000001
,
00000010
00000100
00010000
00000000
,
00022000
00000000
00000000
00033000
,
00100000
01000000
00100000
01000000
,
10000000
01000000
00100000
00001000
,
00010000
00001000
00010000
00000010
,
00000100
00000001
00000100
00000010
,
00010000
00000100
00010000
00001000
,
00100000
01000000
10000000
00010000
,
00100000
00000000
00001000
00000000
,
00010000
00000000
00000000
00011000
;

//---------------dance-double - ----------------
#NOTES:
     dance-double:
     :
     Medium:
     8:
     0.428,0.469,0.337,0.069,0.035:
00000001
00000000
00010000
00000100
00000000
00010000
00000100
00000000
,
00001000
00000000
00000010
00000100
00000000
00000010
00000100
00000000
,
00000001
00000000
00001000
00000100
00000000
00001000
00000100
00000000
,
00010000
00000000
00001000
01000000
00000000
00001000
01000000
00000000
,
00100000
00000000
10000000
00100000
00000000
10000000
00100000
00000000
,
10000000
00000000
00001000
00100000
00000000
00001000
00100000
00000000
,
00001000
00000000
00010000
00000100
00000000
00010000
00000100
00000000
,
00002000
00000000
00000000
00000000
00000000
00000001
00003001
00000000
,
00001001
00000000
00000001
00000000
00000100
00000010
00000000
00000000
,
00001000
00000000
00001000
00000000
00001000
00000000
00000010
00000100
,
00000010
00000000
00000010
00000000
00010000
00001000
00000000
00000000
,
00010000
00000000
00010000
00000000
00010000
00000000
00001000
00100000
,
01000000
00000000
10000000
00000000
01000000
10000000
00000000
00000000
,
00001000
00000000
00001000
00000000
00001000
00000000
00010000
00000100
,
00000010
00000000
00000010
00000000
00000001
00001000
00000000
00000000
,
00000100
00000100
00000100
00000100
,
00001001
00000000
00000001
00000000
00000010
00000001
00001000
00000010
,
00001000
00000100
00010000
00001000
,
00001000
00000000
00001000
00000000
00100000
00010000
00100000
00001000
,
01000000
00100000
10000000
01000000
,
11000000
00000000
10000000
00000000
01000000
10000000
00010000
01000000
,
00010000
00100000
00001000
00001000
,
00011000
00000000
00010000
00000000
00000010
00001000
00000010
00000000
,
00002020
00000000
00000000
00003030
,
00001001
00000000
00000001
00000000
00000001
00001000
00000000
00000000
,
00000100
00000000
00000010
00000000
00000001
00010000
00000100
00010000
,
00000001
00000000
00000001
00000000
00000001
00001000
00000000
00000000
,
00000100
00000000
00010000
00000000
00001000
01000000
00010000
01000000
,
00001000
00000000
00001000
00000000
01000000
00100000
00000000
00000000
,
10000000
00000000
01000000
00000000
00100000
00001000
01000000
00001000
,
00100000
00100000
00100000
00000000
,
00001000
00000000
00000100
00000000
00000010
00000001
00001000
00000000
,
00001001
00000000
00000000
00000001
00000100
00000000
00000000
00000100
00000000
00000000
00000000
00000001
00010000
00000000
00000000
00000000
,
00001000
00000000
00000000
00100000
00000000
00000000
00000000
00000000
01000000
00000000
00000000
00000000
10000000
00000000
00000000
00000000
,
00010000
00000000
00000000
01000000
00000000
00000000
00000000
00000000
00000000
00001000
00000000
00010000
00000000
00001000
00000000
00000000
,
00010000
00000000
00000010
00000000
00001000
00000010
00000100
00000001
,
00001001
00000000
00000000
00000000
00000000
00001001
00000000
00000000
,
00001000
00000000
00000001
00001000
00000000
00000100
00000000
00001000
,
00000001
00000000
00001001
00000000
,
00010100
00000000
00010000
00000100
00000000
00001000
00000000
00000100
,
00010000
00000000
00011000
00000000
,
01100000
00000000
00000000
00100000
10000000
01000000
00100000
00000000
,
00001000
00010000
00000010
00000100
00000010
00000100
00000010
00000100
,
00000020
00000000
00000000
00000000
00000000
00000130
00000000
00000000
,
00000011
00000001
00000001
00000000
,
00000110
00000100
00000100
00000000
,
00001100
00001000
00001000
00000000
,
00011000
00010000
00010000
00000000
,
00101000
00001000
00001000
00000000
,
01100000
01000000
01000000
00000000
,
10010000
10000000
10000000
00000000
,
10010000
00010000
00010000
00010000
,
10010000
00000000
10010000
00000000
00010000
00100000
00010000
00000000
,
10000000
00100000
01000000
00000000
00001000
00000000
00010000
00000000
,
00010010
00000000
00000110
00000000
00000100
00000010
00000100
00000000
,
00000001
00000010
00000100
00000000
00010000
00000000
00001000
00000000
,
01001000
00000000
01001000
00000000
01000000
00100000
01000000
00000000
,
00010000
00100000
01000000
00000000
10000000
00000000
00001000
00000000
,
00101000
00000000
00011000
00000000
00000100
00000010
00000100
00000000
,
00000220
00000000
00000000
00000330
,
00001000
00000100
00001000
00000100
00001000
00000100
00001000
00000000
,
00001100
00011000
01100000
11000000
,
10000000
00010000
01000000
00010000
01000000
00010000
10000000
00000000
,
10100000
01100000
01001000
00011000
,
00010000
00001000
00010000
00000000
00000010
00000100
00000001
00000000
,
00000010
00000100
00000010
00000100
00010000
00001000
00010000
00001000
,
02000000
00000000
00000000
00000000
,
03020000
00000000
00030000
10010000
;

//---------------dance-double - ----------------
#NOTES:
     dance-double:
     :
     Hard:
     12:
     0.544,0.705,0.294,0.026,0.121: // measure 1
10010000
00000000
00000000
00000000
00000000
00110000
00000000
00000000
,  // measure 2
10010000
00000000
00000000
00000000
00000000
01000000
10000000
00001000
,  // measure 3
01001000
00000000
00000000
00000000
00000000
00011000
00000000
00000000
,  // measure 4
00010010
00000000
00000000
00000000
00000000
00000010
00000100
00000001
,  // measure 5
00001001
00000000
00000000
00000000
00000000
00010100
00000000
00000000
,  // measure 6
00011000
00000000
00000000
00000000
00000000
00001000
01000000
00100000
,  // measure 7
01100000
00000000
00000000
00000000
00000000
11000000
00000000
00000000
,  // measure 8
10010000
00000000
00000000
00000000
00000000
00100000
10000000
00001000
,  // measure 9
00011000
00000000
00010000
00000000
00000010
00000100
00000000
00000100
,  // measure 10
00000001
00000001
00000100
00000010
,  // measure 11
00010000
00000000
00010000
00000000
00001000
00100000
00000000
00100000
,  // measure 12
00010000
00010000
01000000
00100000
,  // measure 13
10000000
00000000
10000000
00000000
00010000
01000000
00000000
01000000
,  // measure 14
00001000
00001000
00010000
00000100
,  // measure 15
00000010
00000000
00000010
00000000
00000001
00001000
00000000
00001000
,  // measure 16
00000100
00000000
00001000
00000001
00001000
00000001
00000100
00000000
,  // measure 17
00000101
00000000
00001001
00000000
00001000
00000100
00000000
00000010
,  // measure 18
00000100
00000000
00001100
00000000
00001000
00000010
00000100
00000001
,  // measure 19
00010000
00000000
00011000
00000000
00001000
01000000
00000000
00100000
,  // measure 20
01000000
00000000
01100000
00000000
00100000
01000000
10000000
00010000
,  // measure 21
00100000
00000000
00101000
00000000
00001000
00010000
00000000
00001000
,  // measure 22
00000100
00000000
00001100
00000000
00001000
00000010
00000100
00000001
,  // measure 23
00010000
00000000
00011000
00000000
00001000
00100000
00000000
01000000
,  // measure 24
00100000
00000000
00100000
00000000
00100000
10000000
00100000
10000000
,  // measure 25
00010000
00000000
10010000
00000000
10000000
00010000
00000000
00010000
,  // measure 26
10000000
01000000
00100000
00001000
00010000
00000100
00000010
00000001
,  // measure 27
00001000
00000000
00001001
00000000
00000001
00001000
00000001
00001000
,  // measure 28
00000100
00010000
00001000
01000000
00100000
10000000
00100000
00010000
,  // measure 29
00100000
00000000
10010000
00000000
10000000
00010000
00000000
00010000
,  // measure 30
10000000
00100000
01000000
00001000
00010000
00000100
00000010
00000001
,  // measure 31
00001000
00000000
00001000
00000000
00001000
00000001
00000000
00000010
,  // measure 32
00000100
00010000
00001000
00100000
01000000
10000000
00010000
01000000
,  // measure 33
01010000
00000000
00000000
01000000
10000000
01000000
00000000
00100000
00000000
00000000
00000000
00010000
01000000
00010000
01000000
00001000
,  // measure 34
00010000
00000000
00000000
00000100
00000000
00000100
00001000
00000000
00000001
00000100
00000000
00000100
00000000
00000001
00000000
00000000
,  // measure 35
00001000
00000100
00000010
00000001
00000000
00000001
00000000
00000100
00000000
00000100
00000000
00000010
00000000
00000010
00000000
00010000
,  // measure 36
00000100
00000000
00010000
00001000
00000000
00001000
01000000
00001000
10000000
00100000
01000000
00001000
00000000
00001000
00010000
00000000
,  // measure 37
00011000
00000000
00010000
00000010
00000100
00000001
00000000
00000001
,  // measure 38
00001000
00000100
00010000
00001000
00000000
00011000
00000000
01000000
,  // measure 39
01010000
00000000
00010000
10000000
01000000
00000000
01000000
10000000
,  // measure 40
00001000
00000000
00001000
00010000
00000010
00000200
00000000
00000000
,  // measure 41
00000301
00000000
00001000
00000100
00000010
00000001
00000000
00000001
,  // measure 42
00010000
00000100
00010000
10001000
00100000
00010000
00100000
10000000
,  // measure 43
00000000
01000000
00100000
00010000
00001000
00000010
00000100
00000001
,  // measure 44
00000100
00001000
00000100
00000001
00010000
00002000
00000000
00000000
,  // measure 45
00013000
00000000
00010000
00000000
00000010
00000100
00000000
00000100
,  // measure 46
00000001
00000000
00000001
00000000
00000010
00000001
00000000
00000001
,  // measure 47
00010000
00000000
00010000
00000000
00001000
00100000
00000000
00100000
,  // measure 48
01000000
00000000
01000000
00000000
10000000
00100000
00000000
00100000
,  // measure 49
01000000
00000000
01000000
00000000
00001000
00010000
00000000
00010000
,  // measure 50
00000010
00000000
00000010
00000000
00001000
00000100
00000001
00000100
,  // measure 51
00001000
00000000
00001000
00000000
00000010
00010000
00000000
00010000
,  // measure 52
00001000
00000000
00001000
00000000
00001000
00100000
01000000
10000000
,  // measure 53
00100000
00000000
01100000
00000000
01000000
00100000
00000000
00100000
,  // measure 54
10000000
01000000
00100000
00001000
00010000
00000010
00000100
00000001
,  // measure 55
00001000
00000000
00001001
00000000
00000001
00001000
00000001
00000100
,  // measure 56
00000010
00010000
00001000
00100000
01000000
10000000
00100000
00010000
,  // measure 57
00100000
00000000
10010000
00000000
00100000
01000000
00000000
01000000
,  // measure 58
10000000
00100000
01000000
00001000
00010000
00000100
00000010
00000001
,  // measure 59
00001000
00000000
00001001
00000000
00000001
00000100
00000000
00000100
,  // measure 60
00000010
00010000
00001000
00020000
00000000
00000000
00000000
00000000
,  // measure 61
00031000
00001000
01000000
01000000
00100000
10000000
01000000
00100000
,  // measure 62
00010000
00000000
01000000
00000000
00001000
00000000
00010000
00000100
00000000
00000100
00010000
00000000
00000100
00000000
00000010
00000000
,  // measure 63
00000001
00000100
00001000
00000001
00000010
00001000
00000001
00000010
,  // measure 64
00000001
00000000
00000100
00000000
00000010
00000000
00010000
00000100
00010000
00000000
00001000
00000000
00100000
00000000
01000000
00000000
,  // measure 65
10000000
00010000
00100000
00010000
10000000
01000000
00010000
01000000
,  // measure 66
10000000
00100000
01000000
00001000
00100000
00010000
00001000
00000010
,  // measure 67
00000100
00000001
00010000
00000000
00000010
00000000
00000100
00000000
,  // measure 68
00000001
00000010
00000100
00010000
00001000
01000000
01001000
00001000
;
