#TITLE:penguin;
#SUBTITLE:;
#ARTIST:NAKATEK;
#TITLETRANSLIT:;
#SUBTITLETRANSLIT:;
#ARTISTTRANSLIT:;
#CREDIT:DigiMindAxel;
#BANNER:penguin.png;
#BACKGROUND:penguin-bg.png;
#LYRICSPATH:;
#CDTITLE:pop'n music.png;
#MUSIC:penguin.ogg;
#METERTYPE:DDR X;
#OFFSET:-10.758;
#SAMPLESTART:4.048;
#SAMPLELENGTH:12.000;
#SELECTABLE:YES;
#BPMS:0.000=143.000;
#STOPS:;
#BGCHANGES:;

//---------------dance-single - ----------------
#NOTES:
     dance-single:
     :
     Easy:
     2:
     0.090,0.160,0.047,0.038,0.000:
1000
0000
0000
0000
,
0100
0000
0000
0000
,
0010
0000
0000
0000
,
0001
0000
0000
0000
,
1001
0000
0000
0000
,
1000
0000
0100
0000
,
1000
0000
0000
0000
,
0000
0000
0000
0000
,
0110
0000
0000
0000
,
0000
0000
0000
0000
,
0001
0000
0100
0000
,
0001
0000
0000
0000
,
0010
0100
0010
0000
,
0001
0000
1000
0000
,
0200
0000
0000
0000
,
1300
0000
0010
0000
,
0100
0000
0001
0000
,
0001
0000
0000
0000
,
1000
0000
0000
0000
,
0001
0000
0000
0000
,
2000
0000
0000
0000
,
3001
0000
0000
0000
,
0100
0000
0000
0000
,
0010
0000
0000
0000
,
2000
0000
0000
0000
,
3001
0000
0000
0000
,
0000
0000
0000
0000
,
0001
0000
0000
0000
,
0000
0000
0000
0000
,
1000
0000
0000
0000
,
0100
0000
0000
0000
,
1000
0000
0000
0000
,
0010
0000
0000
0000
,
0110
0000
0000
0000
,
0000
0000
0000
0000
,
0100
0000
0000
0000
,
0000
0000
0000
0000
,
0001
0000
0000
0000
,
0010
0000
0000
0000
,
0100
0000
0000
0000
,
0010
0000
0000
0000
,
1001
0000
0000
0000
,
0001
0000
1000
0000
,
0001
0000
0000
0000
,
0000
0000
0000
0000
,
0110
0000
0000
0000
,
0000
0000
0000
0000
,
0100
0000
0000
0000
,
0010
0000
0000
0000
,
1000
0000
0000
0000
,
0001
0000
0010
0000
,
0100
0000
0000
0000
,
1000
0000
1000
0000
,
0001
0000
0001
0000
,
0200
0000
0000
0000
,
0000
0000
0000
0000
,
0000
0000
0000
0000
,
0300
0000
0000
0000
;

//---------------dance-single - ----------------
#NOTES:
     dance-single:
     :
     Medium:
     6:
     0.284,0.321,0.000,0.169,0.000:
1000
0100
0100
1000
,
0001
0010
0100
0100
,
0010
0000
0001
0000
2000
0000
0000
3010
,
0100
0000
0001
0001
,
1000
0001
0010
0000
,
0001
1000
0001
1000
0001
0000
0100
0000
,
0010
0000
0000
0010
0000
0010
0000
0100
,
0000
0100
0000
0010
0000
0000
0000
0000
,
1000
0100
0010
0000
,
0001
1000
0001
0001
,
1000
0100
1000
0100
2000
0000
0000
3010
,
0100
0001
1000
1000
,
0001
0010
0100
0000
,
0010
0001
0100
0010
,
1000
0000
1000
0000
0001
0010
0100
1000
,
0002
0000
0023
0000
,
0230
0000
2300
0000
,
3001
1000
0000
1000
0000
0001
0000
0001
,
0000
1000
0000
1000
0000
0001
0000
0001
,
0000
1000
0000
1000
0000
0001
0000
0001
,
0200
0000
0320
0000
,
1030
0001
0000
0001
0000
1000
0000
1000
,
0000
0010
0000
0010
0000
0100
0000
0100
,
0000
0010
0000
0010
0000
1000
0000
1000
,
0001
0010
0100
1000
,
0001
0100
0000
0100
0000
0001
0000
0001
,
0000
0010
0000
0100
0000
1000
0000
0000
,
0000
0001
0000
0001
0000
1000
0000
1000
,
0100
0010
0001
0000
,
0100
0010
0100
0000
0010
0100
0010
0000
,
1000
0100
0010
0000
,
0100
1000
0100
0000
0010
0100
0010
0000
,
0002
0000
0000
0000
,
1003
0000
0000
0010
0010
0000
0000
0000
,
1000
0000
0000
0000
0000
0001
0001
0000
,
0010
0000
0000
0100
0100
0000
0000
0000
,
1000
0000
0000
0000
,
0010
0100
0010
1000
,
0100
0010
0001
0000
,
1000
0000
0010
0000
0200
0000
0000
0310
,
0100
0000
0001
0001
,
1000
0100
0010
0000
,
0100
1000
0010
0100
,
0001
0000
0000
0001
0000
0001
0000
0010
,
0000
0010
0000
0100
0000
1000
0001
0000
,
0200
0000
0000
0000
,
0320
0000
0000
0000
,
0130
0000
0001
0000
0020
0000
0000
0031
,
1000
0000
0100
0100
,
1000
0010
0100
0001
,
1000
1000
0001
0001
,
0010
0000
0100
0000
1000
0001
0010
0100
,
2000
0000
3200
0000
,
0320
0000
0032
0000
,
0023
0000
0000
0000
,
0000
0000
0000
0000
,
0000
0000
0000
0000
,
0030
0000
0000
0000
;

//---------------dance-single - ----------------
#NOTES:
     dance-single:
     :
     Hard:
     9:
     0.473,0.455,0.169,0.235,0.000:
0001
0100
0001
0100
0001
0000
0001
1000
,
0100
0010
0100
0010
0001
0000
0001
0000
,
1000
0010
1000
0010
2000
0000
0000
3001
,
0010
0000
0010
0001
0100
0000
0100
0000
,
1001
0000
1001
0000
1100
0000
0100
1000
,
0001
0010
0100
1000
0001
0000
0010
0000
,
1100
0000
1000
0001
0000
0100
0000
1000
,
0000
0100
0000
0002
0000
0000
1003
0000
,
0201
0010
0310
1000
,
0002
0000
1000
0000
1003
0000
0001
0001
,
1000
0100
0010
0100
2000
0000
0000
3001
,
0100
0000
0100
0001
0010
0000
0010
0000
,
1001
1000
0001
0001
0100
0000
0001
1000
,
0100
0100
1000
1000
0010
0010
0100
0100
,
0002
0000
2003
0000
3001
0010
0100
1000
,
1002
0000
0203
0000
,
0320
0000
2030
0000
,
3001
1000
0100
0010
0100
1000
0001
0100
,
0000
0001
0010
0001
1000
0010
0100
0010
,
0000
1000
0100
0010
0001
1000
0100
1000
,
0020
0230
0302
1003
,
0001
1000
0000
0100
0000
0001
0100
1000
,
0001
1000
0000
0010
0000
0001
0010
1000
,
0001
1000
0000
0100
0000
0001
0100
1000
,
1001
0011
1100
1001
,
1000
0001
0000
0010
0000
1000
0000
0010
,
0000
0001
0000
0100
0000
0210
0000
0000
,
0301
1000
0000
0100
0000
0001
0000
0100
,
1000
0010
0100
0010
2000
0000
0000
0000
,
3001
0010
0001
0010
0100
0010
0100
1000
,
0001
0100
0010
0100
0001
0000
1000
0001
,
1000
0100
0001
0100
1000
0010
0001
0010
,
2000
0000
0001
3001
,
1000
0100
1000
0100
0010
0000
0010
0000
,
0001
0100
0001
0100
0020
0000
1030
0000
,
0001
0010
0100
0010
0002
0000
0000
0103
,
0010
0000
1000
0001
1000
0000
1000
0000
,
0010
1000
0010
1000
0001
0000
0001
0010
,
0100
1000
0100
0010
0001
0000
0001
0000
,
1000
0010
1000
0010
0200
0000
0000
0301
,
1000
0000
1000
0100
0010
0000
0010
0000
,
0101
0000
0101
0000
1001
0000
1000
0001
,
0010
1000
0010
0001
1000
0000
1000
0000
,
0110
0000
0001
1000
0000
0010
0000
0001
,
0000
0010
0000
2000
0000
0000
3001
0000
,
1100
0000
0100
0000
,
0100
0000
0000
0000
0100
0000
1000
1000
,
0001
0010
0100
0010
0002
0000
0000
1003
,
0010
0000
0010
0100
0001
0000
0001
0000
,
1001
1000
0001
0001
0010
0000
0001
1000
,
0100
0100
0010
0010
0100
0100
1000
1000
,
0002
0000
0203
0000
0310
1000
0010
0100
,
0001
1000
0100
0010
0001
0000
0001
0010
,
0100
0000
0100
1000
0010
0000
0010
0100
,
0001
1000
0001
1000
0001
0000
1000
0100
,
1000
0000
0000
0010
0100
0000
0001
1000
,
0002
0000
0000
0000
,
0003
0000
0000
0000
;

//---------------dance-double - ----------------
#NOTES:
     dance-double:
     :
     Medium:
     6:
     0.291,0.321,0.019,0.160,0.000:
10000000
00001000
00001000
00010000
,
00000001
00000010
00000100
00000100
,
00010000
00000000
00001000
00000000
00020000
00000000
00000000
00031000
,
00010000
00000000
00000000
00000000
00001000
00010000
00001000
00000000
,
10000000
01000000
00100000
00000000
,
00001000
01000000
00001000
01000000
00001000
00000000
10000000
00000000
,
00001000
00000000
00000000
10000000
00000000
01000000
00000000
00100000
,
00000000
00001000
00000000
00010000
00000000
00000000
00000000
00000000
,
00011000
00010000
00001000
00000000
,
00010000
00000001
00000100
00000100
,
00000001
00001000
00000001
00001000
00000002
00000000
00000000
00010003
,
00001000
10000000
00100000
00100000
,
10000000
01000000
00100000
00010000
,
00001000
00000010
00000100
00000001
,
00001000
00000000
00001000
00000000
00000001
00000010
00000100
00001000
,
00000020
00000000
00020030
00000000
,
00000000
00000000
00032000
00000000
,
10003000
00001000
00000000
00001000
00000000
00100000
00000000
00100000
,
00000000
00001000
00000000
00001000
00000000
00010000
00000000
00010000
,
00000000
00000100
00000000
00000100
00000000
00001000
00000000
00001000
,
00000002
00000000
00002003
00000000
,
00003001
00001000
00000000
00001000
00000000
00000100
00000000
00000100
,
00000000
00010000
00000000
00010000
00000000
00001000
00000000
00001000
,
00000000
01000000
00000000
01000000
00000000
00010000
00000000
00010000
,
10000000
01000000
00100000
00001000
,
00010000
00001000
00000000
00001000
00000000
00010000
00000000
00010000
,
00000000
00000001
00000000
00000010
00000000
00000100
00000000
00000000
,
00000000
00010000
00000000
00010000
00000000
00001000
00000000
00001000
,
10000000
01000000
00100000
00000000
,
00001000
00010000
00001000
00000000
00010000
00001000
00010000
00000000
,
00000001
00000100
00000010
00000100
,
00000001
00001000
00000001
00000000
00010000
00000100
00010000
00000000
,
00000200
00000000
00000000
00000000
,
00010300
00000000
00000000
00001000
00001000
00000000
00000000
00000000
,
10000000
00000000
00000000
00000000
00000000
00010000
00010000
00000000
,
00100000
00000000
00000000
00001000
00001000
00000000
00000000
00000000
,
00010000
00000000
00000000
00000000
,
00001000
00100000
00001000
10000000
,
01000000
00100000
00010000
00000000
,
01000000
00000000
00100000
00000000
02000000
00000000
00000000
03010000
,
10000000
00000000
00001000
00001000
,
00010000
00000001
00000010
00000100
,
00001000
01000000
00100000
10000000
,
00001000
00000000
00000000
00010000
00000000
00010000
00000000
00000010
,
00000000
00000100
00000000
00000001
00000000
00010000
00001000
00000000
,
00020000
00000000
00000000
00000000
,
00030200
00000000
00000000
00000000
,
00010300
00000000
00001000
00000000
20000000
00000000
00000000
30100000
,
01000000
00000000
00000000
00000000
00010000
10000000
00010000
00000000
,
10010000
10000000
00010000
00100000
,
00001000
00001000
00010000
00010000
,
00000001
00000000
00001000
00000000
00000001
00000010
00000100
00001000
,
00020000
00000000
02030000
00000000
,
03200000
00000000
20300000
00000000
,
30002000
00000000
00000000
00000000
,
00000000
00000000
00000000
00000000
,
00000000
00000000
00000000
00000000
,
00003000
00000000
00000000
00000000
;

//---------------dance-double - ----------------
#NOTES:
     dance-double:
     :
     Hard:
     9:
     0.437,0.455,0.160,0.225,0.000: // measure 1
10000000
01000000
10000000
01000000
10000000
00000000
01000000
10000000
,  // measure 2
00001000
00100000
00010000
00100000
00002000
00000000
00013000
00000000
,  // measure 3
00000001
00000100
00000001
00000100
00000002
00000000
00000000
00001003
,  // measure 4
00000100
00000000
00010000
00000010
00000100
00000000
00000100
00000000
,  // measure 5
00000110
00000000
00000110
00000000
00001001
00000000
00000001
00000010
,  // measure 6
00000100
00010000
00100000
01000000
10000000
00000000
00010000
00000000
,  // measure 7
10010000
00000000
10000000
00001000
00000000
00100000
00000000
01000000
,  // measure 8
00000000
00100000
00000000
00002000
00000000
00000000
00013000
00000000
,  // measure 9
00011000
00000000
00000000
00000000
,  // measure 10
00000000
00000000
00000000
00000000
00000000
00000000
00010000
00010000
,  // measure 11
00000001
00000100
00001000
00000100
00000002
00000000
00000000
00010003
,  // measure 12
00001000
00000000
00010000
00001000
01000000
00000000
01000000
00000000
,  // measure 13
00010000
00010000
10000000
10000000
01000000
00000000
00100000
00001000
,  // measure 14
00010000
00010000
00000100
00000100
00000010
00000010
00000001
00000001
,  // measure 15
00000200
00000000
00000320
00000000
00010030
00001000
01000000
00100000
,  // measure 16
20000000
00000000
30200000
00000000
,  // measure 17
02300000
00000000
03002000
00000000
,  // measure 18
00013000
00001000
00010000
00001000
00010000
00000010
00010000
00000010
,  // measure 19
00000000
00000100
00000010
00000100
00000010
00010000
00001000
00010000
,  // measure 20
00000000
00001000
10000000
00001000
10000000
00001000
01000000
00001000
,  // measure 21
02000000
03200000
02300000
03010000
,  // measure 22
10000000
00001000
00000000
00100000
00000000
01000000
00100000
00001000
,  // measure 23
00010000
00001000
00000000
01000000
00000000
00100000
01000000
00001000
,  // measure 24
00010000
00001000
00000000
00010000
00000000
00000010
00000100
00000001
,  // measure 25
00000100
00000110
00001001
00001001
,  // measure 26
00000001
00010000
00000000
00000100
00000000
00000010
00000000
00000100
,  // measure 27
00000000
00010000
00000000
00000001
00000000
00010002
00000000
00000000
,  // measure 28
00010003
00000010
00000000
00000100
00000000
00000010
00000000
00010000
,  // measure 29
00001000
01000000
00100000
10000000
02000000
00000000
00000000
00000000
,  // measure 30
13000000
00010000
10000000
00010000
00100000
00010000
00100000
00010000
,  // measure 31
10000000
00100000
00010000
00100000
10000000
00000000
00100000
01000000
,  // measure 32
00001000
00010000
00001000
01000000
00001000
00010000
00000010
00000100
,  // measure 33
00000002
00000000
00001000
00001003
,  // measure 34
00001001
00000000
00000000
00000010
00000010
00000000
00000010
00000000
,  // measure 35
00002000
00000000
00000000
00000000
00000000
00000001
00003001
00000000
,  // measure 36
00010000
00000000
00000000
00001000
00001000
00000000
00001000
00000000
,  // measure 37
01100000
00000000
00000000
00000000
00000000
00100000
01000000
00100000
,  // measure 38
10000000
01000000
00010000
01000000
10000000
00000000
01000000
00100000
,  // measure 39
00001000
00100000
01000000
00001000
00010000
00000000
00000010
00000000
,  // measure 40
00001000
00000010
00000001
00000010
00002000
00000000
00000000
00000001
,  // measure 41
00003001
00000000
00000100
00000010
00010000
00000000
00010000
00000000
,  // measure 42
00011000
00000000
00011000
00000000
01100000
00000000
00100000
10000000
,  // measure 43
01000000
00010000
01000000
10000000
00100000
00000000
00100000
00000000
,  // measure 44
01100000
00000000
10000000
00001000
00000000
00100000
00000000
01000000
,  // measure 45
00000000
00100000
00000000
00002000
00000000
00000000
10003000
00000000
,  // measure 46
10001000
00000000
00001000
00000000
,  // measure 47
00001000
00000000
00000000
00000000
00001000
00000000
00010000
00010000
,  // measure 48
00000010
00000100
00000001
00000100
00000020
00000000
00000000
00010000
,  // measure 49
00010030
00000000
00000001
00000010
00000100
00000000
00000100
00000000
,  // measure 50
00001000
00001000
00000001
00000001
00000010
00000000
00000001
00010000
,  // measure 51
00001000
00001000
01000000
01000000
00100000
00100000
10000000
10000000
,  // measure 52
00002000
00000000
00023000
00000000
00031000
10000000
01000000
00100000
,  // measure 53
01000000
10000000
00001000
01000000
00001000
00000000
00010000
00000100
,  // measure 54
00010000
00000000
00000010
00000100
00000010
00000000
00000100
00000001
,  // measure 55
00010000
00000000
00000000
00000000
,  // measure 56
00000000
00000000
00000000
00000000
,  // measure 57
00022000
00000000
00000000
00000000
,  // measure 58
00033000
00000000
00000000
00000000
;

//---------------dance-double - ----------------
#NOTES:
     dance-double:
     :
     Easy:
     2:
     0.094,0.214,0.056,0.056,0.000:
10000000
00000000
00000000
00000000
,
01000000
00000000
00000000
00000000
,
00100000
00000000
00000000
00000000
,
00010000
00000000
00000000
00000000
,
10010000
00000000
00000000
00000000
,
00100000
00000000
01000000
00000000
,
00100000
00000000
00000000
00000000
,
00000000
00000000
00000000
00000000
,
00011000
00000000
00000000
00000000
,
00000000
00000000
00000000
00000000
,
00010000
00000000
00001000
00000000
,
00010000
00000000
00000000
00000000
,
00000100
00010000
00000100
00000000
,
00002000
00000000
00003002
00000000
,
00002003
00000000
00000000
00000000
,
00003001
00000000
00010000
00000000
,
00010000
00000000
00000100
00000000
,
00000100
00000000
00000000
00000000
,
00010000
00000000
00000000
00000000
,
00001000
00000000
00000000
00000000
,
20000000
00000000
00000000
00000000
,
30001000
00000000
00000000
00000000
,
01000000
00000000
00000000
00000000
,
00100000
00000000
00000000
00000000
,
02000000
00000000
00000000
00000000
,
03100000
00000000
00000000
00000000
,
00000000
00000000
00000000
00000000
,
01100000
00000000
00000000
00000000
,
00000000
00000000
00000000
00000000
,
10010000
00000000
00000000
00000000
,
10000000
00000000
00000000
00000000
,
00100000
00000000
00000000
00000000
,
01000000
00000000
00000000
00000000
,
00011000
00000000
00000000
00000000
,
00000000
00000000
00000000
00000000
,
00010000
00000000
00000000
00000000
,
00000000
00000000
00000000
00000000
,
00001000
00000000
00000000
00000000
,
00010000
00000000
00000000
00000000
,
00000010
00000000
00000000
00000000
,
00000100
00000000
00000000
00000000
,
00000001
00000000
00000000
00000000
,
00001000
00000000
00000001
00000000
,
00001000
00000000
00000000
00000000
,
00000000
00000000
00000000
00000000
,
00011000
00000000
00000000
00000000
,
00000000
00000000
00000000
00000000
,
00001000
00000000
00000000
00000000
,
00100000
00000000
00000000
00000000
,
01000000
00000000
00000000
00000000
,
10000000
00000000
00010000
00000000
,
10000000
00000000
00000000
00000000
,
00001000
00000000
00001000
00000000
,
00010000
00000000
00010000
00000000
,
00000002
00000000
00000000
00000000
,
00000000
00000000
00000000
00000000
,
00000000
00000000
00000000
00000000
,
00000003
00000000
00000000
00000000
;

//---------------dance-single - ----------------
#NOTES:
     dance-single:
     :
     Beginner:
     1:
     0.066,0.127,0.094,0.000,0.000:
0001
0000
0000
0000
,
0000
0000
0000
0000
,
1000
0000
0000
0000
,
0000
0000
0000
0000
,
1001
0000
0000
0000
,
0010
0000
0000
0000
,
0110
0000
0000
0000
,
0000
0000
0000
0000
,
1001
0000
0000
0000
,
0000
0000
0000
0000
,
1000
0000
0000
0000
,
0000
0000
0000
0000
,
0010
0000
0000
0000
,
0100
0000
0100
0000
,
0100
0000
0000
0000
,
0110
0000
0000
0000
,
0000
0000
0000
0000
,
1001
0000
0000
0000
,
0001
0000
0000
0000
,
0010
0000
0000
0000
,
0001
0000
0000
0000
,
1000
0000
0000
0000
,
0100
0000
0000
0000
,
1000
0000
0000
0000
,
1001
0000
0000
0000
,
0010
0000
0000
0000
,
0000
0000
0000
0000
,
0110
0000
0000
0000
,
0000
0000
0000
0000
,
0100
0000
0000
0000
,
0010
0000
0000
0000
,
0100
0000
0000
0000
,
0000
0000
0000
0000
,
0001
0000
0000
0000
,
0000
0000
0000
0000
,
0010
0000
0000
0000
,
0000
0000
0000
0000
,
0001
0000
0000
0000
,
0000
0000
0000
0000
,
1000
0000
0000
0000
,
0000
0000
0000
0000
,
1001
0000
0000
0000
,
0010
0000
0000
0000
,
0110
0000
0000
0000
,
0000
0000
0000
0000
,
0100
0000
0000
0000
,
0000
0000
0000
0000
,
1000
0000
0000
0000
,
0000
0000
0000
0000
,
0100
0000
0000
0000
,
1000
0000
0000
0000
,
0001
0000
0000
0000
,
1001
0000
0000
0000
,
0000
0000
0000
0000
,
0010
0000
0000
0000
;
