#TITLE:moon_child;
#SUBTITLE:;
#ARTIST:少年ラジオ;
#TITLETRANSLIT:;
#SUBTITLETRANSLIT:;
#ARTISTTRANSLIT:SHOUNEN RADIO;
#CREDIT:DigiMindAxel;
#BANNER:moon_child.png;
#BACKGROUND:moon_child-bg.png;
#LYRICSPATH:;
#CDTITLE:beatmania IIDX.png;
#MUSIC:moon_child.ogg;
#METERTYPE:DDR X;
#OFFSET:-15.135;
#SAMPLESTART:53.772;
#SAMPLELENGTH:12.000;
#SELECTABLE:YES;
#BPMS:0.000=159.950,175.000=79.975,183.000=159.950,247.000=155.000;
#STOPS:;
#BGCHANGES:-40.000=moon_child.avi=1.000=1=1=0,
99999=-nosongbg-=1.000=0=0=0 // don't automatically add -songbackground-
;

//---------------dance-single - ----------------
#NOTES:
     dance-single:
     :
     Easy:
     5:
     0.202,0.255,0.085,0.155,0.000:
2000
0000
0000
0000
,
0000
0000
0000
0000
,
3002
0000
0000
0000
,
0000
0000
0000
0000
,
1003
1000
1000
1000
,
0001
0001
0001
0001
,
1000
1000
1000
1000
,
0010
0110
0000
1001
,
1000
0100
0010
0100
,
2000
0000
0000
3000
,
0001
0010
0100
0010
,
0002
0000
0000
0003
,
1000
0010
0100
0010
,
2000
0000
0000
3000
,
0001
0100
0010
0100
,
0002
0000
0000
0003
,
0000
0000
0000
0000
,
1000
0000
0001
0000
,
1000
0000
0010
0000
,
0100
0000
0010
0000
,
1000
0000
0010
2000
,
0000
3001
0000
0100
,
0010
0100
0000
0001
,
1000
0001
0000
1000
,
1000
0001
0001
0010
,
0100
1000
1001
1000
,
1000
1000
1000
0001
,
0001
0001
0001
0100
,
0100
0100
0100
0020
,
0000
0000
0000
1030
,
0100
1000
0100
0010
,
0001
0010
0001
0010
,
0100
1000
0010
0200
,
0000
0000
0300
2002
,
0000
0000
0000
3003
,
0010
0100
0010
0220
,
0000
0000
0000
0330
,
0001
1000
0001
0200
,
0000
0000
0000
0320
,
0000
0000
0000
1030
,
0000
0100
0000
0010
,
0000
0001
0000
1001
,
0000
0000
0000
0000
,
0000
0000
0000
1000
,
0000
0000
0000
0000
,
0000
0000
0000
1001
,
0000
0010
0000
0100
,
0000
0010
0000
0100
,
0000
1000
0000
0010
,
0000
1000
0000
0010
,
0000
0000
0000
0000
,
0000
0000
0000
1001
,
0000
1001
0000
1001
,
0000
1001
0000
0001
,
1000
0100
0010
0001
,
0001
0010
0100
1000
,
0010
0100
0010
2000
,
0000
3001
0100
0001
,
0001
1000
1000
0100
,
0010
0001
1000
0010
,
0010
1000
1000
0010
,
0100
0001
0010
0002
,
0000
0000
0000
2003
,
0000
0000
0000
3002
,
0000
0000
0000
2003
,
0000
0000
0000
3000
;

//---------------dance-single - ----------------
#NOTES:
     dance-single:
     :
     Hard:
     9:
     0.433,0.434,0.373,0.085,0.027:
1001
0000
1000
0000
,
1000
0000
1000
0000
,
1001
0000
0001
0000
,
0001
0000
0001
0001
,
0010
0100
1000
0010
,
0001
0010
1000
0100
,
0010
0001
0100
0001
,
0100
0010
0100
0000
0001
1000
1001
0000
,
0100
0001
1000
0100
1000
0001
0100
0001
,
1000
1001
0001
1001
,
0010
1000
0100
0010
0100
1000
0010
0100
,
0001
1001
1000
1001
,
0100
1000
0010
0100
0010
1000
0100
1000
,
0010
0110
0100
0110
,
0010
0001
0100
0010
0100
0001
0010
0100
,
1000
1001
0002
0000
,
0000
0000
0003
1000
,
1000
0001
0010
0100
0000
1000
0001
0000
,
0100
0000
0010
0000
0100
0001
0100
0000
,
0001
1000
0100
0010
0000
0001
1000
0000
,
0010
0000
0100
0000
0010
1000
0010
0000
,
1000
0100
0010
0000
0001
0000
0100
0000
,
0001
0010
0100
0000
1000
0000
0010
0000
,
1000
0100
0010
0000
0001
0000
0100
0000
,
0110
0000
0001
0000
1001
0000
1000
0100
,
0010
0001
1000
0100
0010
0000
1000
0100
,
0010
0100
1000
0100
0010
0100
1000
0001
,
0100
0001
1000
0001
0100
0001
0010
0100
,
1000
0100
0010
0001
0100
0010
2000
0000
,
0000
3010
0100
0010
1000
0100
0010
0000
,
0001
0010
0100
1000
0001
0000
1001
0000
,
1000
0100
0010
0001
1000
0000
1001
0000
,
1010
0000
0011
0000
1100
0000
0001
0100
,
0001
1000
0000
1001
0000
0000
1001
0001
,
0000
0110
0100
0000
1010
0000
1001
0000
,
0001
1000
0100
0010
0001
0000
1001
1000
,
0000
0110
0010
0000
0101
0000
1001
0000
,
0010
0000
0001
0000
0010
0000
0100
0000
1000
0000
0000
0000
0010
0100
0010
0100
,
0010
0000
0200
0000
0000
0000
0301
0000
1000
0000
0000
0000
0100
0010
0100
0010
,
0100
0020
0000
0031
1000
0000
0001
0000
,
0100
1000
0010
0101
,
1010
0011
1100
2002
,
0000
0000
0000
0000
,
3003
0000
0000
0000
0110
0000
0000
0000
0110
0000
0000
0000
1000
0000
0000
1000
,
0000
0000
1000
0000
0000
0000
0010
0000
0000
0010
0000
0000
0010
0000
0000
0100
,
0000
0100
0001
0001
1000
1000
0001
0000
,
1000
0100
0001
0000
0100
0000
1001
0000
,
0001
0100
1000
0000
0100
0000
1001
0000
,
1000
0010
0001
0000
0010
1000
0001
0000
,
0010
0100
1000
0000
1001
0000
1001
0000
,
0010
1000
0100
0001
,
0010
1000
0100
1001
,
0101
0110
1010
1001
,
1100
0000
0110
0000
0011
0000
0100
1000
,
0010
0000
1000
0100
0010
0001
0100
0010
,
0100
0001
0010
0100
1000
0000
0001
0010
,
1000
0010
0001
1000
0100
0010
0002
0000
,
0000
1003
0001
0010
0100
1000
0001
0000
,
0101
0000
0110
0000
1010
0000
1000
0010
,
0001
0010
1000
0100
0010
0001
1000
0100
,
1000
0001
1000
0100
1000
0001
0010
1000
,
0010
0001
1000
1000
0001
0001
2000
0000
,
0000
0000
0000
3002
,
0000
0000
0000
0203
,
0000
0000
0000
0320
,
0000
0000
0000
0030
;

//---------------dance-single - ----------------
#NOTES:
     dance-single:
     :
     Beginner:
     2:
     0.088,0.144,0.078,0.000,0.000:
0000
0000
0000
0000
,
0000
0000
0000
0000
,
0000
0000
0000
0000
,
0000
0000
0000
0000
,
1000
0000
0000
0000
,
0001
0000
0000
0000
,
1000
0000
0000
0000
,
0001
0000
0000
0000
,
0110
0000
0100
0000
,
0100
0000
0000
0000
,
1000
0000
1000
0000
,
1000
0000
0000
0000
,
0001
0000
0001
0000
,
0001
0000
0000
0000
,
1000
0000
1000
0000
,
1000
0000
0000
0000
,
0000
0000
0000
0010
,
0000
0000
0000
0000
,
0000
0000
0000
0010
,
0000
0000
0000
0000
,
0000
0000
0000
0100
,
0000
0000
0000
0100
,
0000
0000
0000
0010
,
0000
0000
0000
0010
,
0000
0000
0000
1000
,
0000
0000
0000
1001
,
0000
0001
0000
0010
,
0000
0001
0000
0010
,
0000
0100
0000
1000
,
0000
0000
0000
0010
,
0000
0100
0000
0010
,
0000
0100
0000
0001
,
0000
0001
0000
0001
,
0000
0000
0000
1001
,
0000
0000
0000
0000
,
0000
0000
0000
1001
,
0000
0000
0000
0000
,
0000
0000
0000
1000
,
0000
0000
0000
0001
,
0000
0000
0000
0100
,
0000
0000
0000
0100
,
0000
0000
0000
0110
,
0000
0000
0000
0000
,
0000
0000
0000
0001
,
0000
0000
0000
0000
,
0000
0000
0000
1000
,
0000
0000
0000
0000
,
0001
0000
0000
0000
,
1000
0000
0000
0000
,
0000
0000
0000
1001
,
0000
0000
0000
0000
,
0000
0000
0000
0110
,
0000
0010
0000
1001
,
0000
0001
0000
1001
,
0000
0010
0000
0100
,
0000
1000
0000
0100
,
0000
1000
0000
0100
,
0000
0000
0000
1000
,
0000
0001
0000
1000
,
0000
0001
0000
0100
,
0000
0001
0000
0100
,
0000
0001
0000
1001
;

//---------------dance-single - ----------------
#NOTES:
     dance-single:
     :
     Challenge:
     13:
     0.599,0.715,0.140,0.085,0.423:
1000
0100
1000
0100
,
0010
0001
0010
0001
,
1000
0010
1000
0010
,
1000
0001
1000
0001
,
0100
0010
0100
0010
0100
0010
0100
0010
,
1000
0100
1000
0100
1000
0100
1000
0100
,
0001
0100
0001
0100
0001
0100
0001
0100
,
1000
0000
0001
0000
1001
0000
0000
0000
0001
0100
0001
0000
1001
0000
0000
0000
,
1000
0000
0001
0010
0001
0000
0010
0100
0010
0000
0100
1000
0100
0000
1000
0000
,
0001
0100
1000
0100
0010
1000
0001
0000
,
1000
0000
0100
1000
0100
0000
0010
0100
0010
0000
0001
0010
0001
0000
1000
0000
,
0001
0100
1000
0100
0010
1000
0001
0000
,
0010
0000
0001
0010
0001
0000
0010
0100
0010
0000
0100
1000
0100
0000
1000
0000
,
0001
0100
1000
0100
0010
1000
0001
0000
,
1000
0000
0001
0100
0001
0000
0100
0010
0100
0000
0010
1000
0010
0000
1000
0000
,
0001
0010
1000
0010
0001
0000
0000
0000
,
0000
0000
2002
0000
0000
3003
1000
0000
,
0001
0010
0100
0010
0001
0100
0001
0000
,
0010
0000
0100
0000
1000
0100
0001
0000
,
0100
1000
0001
0100
0001
1000
0100
0000
,
0010
0000
0001
1000
0100
1000
0001
0000
,
1000
0010
0001
0000
0010
1000
0001
0010
,
0001
0010
0100
1000
0001
0000
0100
0000
,
1000
0100
0001
0000
0100
0010
0100
0000
,
0101
0000
1000
0000
1001
0000
0010
0100
,
0100
0000
0001
0000
0010
0000
0100
0000
1000
0000
0001
1000
0001
0000
1000
0010
,
1000
0000
0001
0100
0001
0000
1000
0100
1000
0000
0100
0000
0010
0000
0001
1000
,
0001
0000
1000
0100
1000
0000
0010
0100
0010
0000
1000
0000
0001
0000
0100
0001
,
0100
0000
0001
1000
0001
0000
1000
0100
1000
0000
0100
0000
0010
0000
0000
0000
,
0001
0000
0100
0001
1000
0000
0100
0000
0010
0000
0001
0000
1000
0000
0000
0000
,
0010
0100
0010
0100
0010
0000
1000
0100
0010
0000
0001
0000
1000
0000
1000
0000
,
0100
0010
0100
0010
0100
0000
1000
0010
0100
0000
0001
0000
1000
0100
1000
0100
,
1000
0001
1000
0001
1000
0100
1000
0100
1000
0100
0010
0000
0001
0000
0001
0000
,
0100
0000
0010
0000
0000
0000
0110
0000
0000
0000
0000
0000
0100
0010
0100
0000
,
0100
0000
0001
1000
0001
0000
0001
0000
1000
0100
1000
0000
1000
0000
0001
0000
,
0010
0000
1000
0000
0010
0000
0001
0000
1000
0000
0100
0000
0010
0001
0010
0000
,
0010
0000
0001
1000
0001
0000
0001
0000
1000
0010
1000
0000
1000
0000
0001
0000
,
0100
0000
0010
0000
1000
0000
0010
0000
0100
0000
0001
0000
0010
0100
0010
0100
,
0010
0000
0002
0000
0000
0000
1003
0000
0100
0000
0010
0000
0001
1000
0001
1000
,
0001
0000
0000
0200
0000
0000
0000
0000
0000
0301
0000
0000
1000
0000
0000
0100
0000
0000
0010
0000
0001
0000
0010
0000
,
0001
0100
0010
0100
0010
1000
0100
1000
0100
0010
0000
0000
,
0110
0011
1100
2002
,
0000
0000
0000
0000
,
3003
0000
0000
0000
1000
0001
1000
0000
0001
0000
0001
0000
1000
0000
0100
0010
,
0001
0000
1000
0000
1000
0000
0100
0010
0001
0000
1000
0000
1000
0000
0010
0100
,
0001
0000
0100
0000
1000
0000
0100
0000
0001
0010
0100
1000
0001
0000
0000
0000
,
0100
0010
1000
0000
0010
0000
0010
0000
,
1000
0010
0100
0000
0001
0000
0001
0000
,
0010
0100
1000
0000
0010
0001
0010
0000
,
1000
0000
0100
0000
0010
0000
0001
0000
1000
0001
1000
0001
1000
0000
0000
0001
,
0010
0000
0000
0010
0100
0000
0000
0100
1000
0000
0000
1000
0010
0000
0000
0010
,
0100
0000
0000
0100
0001
0000
0000
0001
1000
0000
0000
0000
1001
0000
0000
0000
,
1100
1001
0101
1001
,
0011
0000
1001
0000
1010
0000
0010
0100
,
0010
0000
1000
0100
1000
0100
1000
0001
0010
0001
0010
0000
0001
0100
0010
0000
,
1000
0001
1000
0000
0010
0100
0001
0000
1000
0001
1000
0000
0100
0010
0100
0010
,
0001
0100
0001
0100
0010
1000
0010
1000
0001
0010
0001
0010
0200
0000
0000
0000
,
0000
0000
1300
0001
1000
0000
0001
1000
0001
0000
0010
0000
0100
0000
1000
0010
,
1000
0000
0100
0010
0100
0000
1000
0001
1000
0000
0010
0000
0100
0010
0100
0010
,
1000
0100
1000
0100
0010
0001
0010
0001
1000
0010
1000
0000
0010
0100
0010
0100
,
0001
0010
0001
0010
0100
1000
0100
1000
0001
0100
0001
0100
0010
0000
1000
0100
,
1000
0100
0010
0001
0100
0000
0100
0000
0001
0000
0001
0000
0200
0000
0000
0000
,
0000
0000
0000
0320
,
0000
0000
0000
0000
1000
1000
2030
0000
,
0000
0000
0000
3200
,
0000
0000
0000
0300
;

//---------------dance-single - ----------------
#NOTES:
     dance-single:
     :
     Medium:
     7:
     0.336,0.383,0.225,0.093,0.000:
2000
0000
0001
0000
,
0001
0000
3001
0000
,
0200
0000
0010
0000
,
0010
0000
0310
0010
,
1000
0001
1000
0001
,
0010
0100
0010
0100
,
1000
0010
1000
0010
,
1000
1000
0001
0001
,
1001
0000
1000
0000
0001
0100
0010
0000
,
0100
0100
0010
0010
,
0100
0000
0010
0000
1000
0010
1000
0000
,
0010
0010
0100
0100
,
0001
0000
0100
0000
0001
0010
0001
0000
,
0100
0100
0010
0010
,
1000
0000
0010
0000
1000
0100
1000
0000
,
0010
0100
0020
0000
,
0000
0000
0030
1000
,
0100
0010
0001
0100
,
0010
0100
0010
0100
,
0001
0010
0100
1000
,
0010
0100
0010
1000
,
0100
0010
0001
1000
,
0001
0010
0100
1000
,
0001
1000
0100
0010
,
0010
0000
0001
0000
1000
0000
0001
1000
,
0001
0000
0010
0000
1001
0000
1000
0010
,
1000
0000
0010
1000
0010
0000
0100
0001
,
0100
0000
0001
0100
0001
0000
1000
0100
,
1000
0000
0001
0010
0001
0000
2000
0000
,
0000
0000
3001
0000
1000
0001
1000
0000
,
0100
0010
0100
0000
0100
0000
1001
0000
,
0010
0100
0010
0000
0010
0000
1001
0000
,
0010
0000
0100
0000
1000
0000
0010
0010
,
0000
1000
0000
1001
0000
0000
0011
0000
,
0000
0101
0000
0000
0010
0000
1001
0000
,
0100
0010
0001
1100
,
0000
1010
0000
0000
0100
0000
1001
0000
,
0010
0100
1000
0010
,
1000
0010
0000
0000
1000
0000
0001
0000
,
0100
0001
0000
0000
0010
0000
0100
0000
,
1000
0010
0100
0011
,
0011
1100
1100
2002
,
0000
0000
0000
0000
,
3003
1001
1001
0100
,
0100
0100
0010
0010
,
0010
0000
0001
0010
0100
1000
0010
0000
,
0100
0010
0100
1001
,
0010
0100
0010
1001
,
0100
0010
0100
0001
,
0010
0100
1001
0100
,
0010
0001
0010
0100
,
1000
0100
0010
0101
,
0101
1010
1010
0110
,
0110
1001
1001
0020
,
0000
0000
0031
0100
0001
0000
0100
0010
,
0100
0000
0010
1000
0010
0000
1000
0100
,
0010
0000
0100
0010
0001
1000
0002
0000
,
0000
0000
1003
0000
0001
0000
0100
0001
,
0010
0000
0100
1000
0010
0000
0100
0010
,
0100
0010
1000
0100
1000
0000
0001
0100
,
0010
0000
0100
0010
0100
0000
0010
1000
,
0100
0000
1000
0001
1000
0001
0020
0000
,
0000
0000
0000
0230
,
0000
0000
0000
0320
,
0000
0000
0000
0230
,
0000
0000
0000
0300
;

//---------------dance-double - ----------------
#NOTES:
     dance-double:
     :
     Easy:
     5:
     0.214,0.255,0.109,0.163,0.000:
20000000
00000000
00000000
00000000
,
00000000
00000000
00000000
00000000
,
30020000
00000000
00000000
00000000
,
00000000
00000000
00000000
00000000
,
10030000
01000000
10000000
01000000
,
00100000
00010000
00100000
00010000
,
01000000
00100000
01000000
00100000
,
00100000
01100000
00000000
10010000
,
10000000
00100000
01000000
00001000
,
00020000
00000000
00000000
00030000
,
00000100
00000010
00000001
00001000
,
00000200
00000000
00000000
00000300
,
00010000
00001000
00100000
01000000
,
20000000
00000000
00000000
30000000
,
01000000
00100000
00001000
00010000
,
00000020
00000000
00000000
00000030
,
00000000
00000000
00000000
00000000
,
00001000
00000000
00000100
00000000
,
00001000
00000000
00000100
00000000
,
00000010
00000000
00000001
00000000
,
00000100
00000000
00000001
00020000
,
00000000
00031000
00000000
01000000
,
00100000
01000000
00100000
20000000
,
00000000
30010000
00000000
10000000
,
10000000
01000000
01000000
10000000
,
00100000
01000000
01100000
00100000
,
00100000
00100000
00100000
10000000
,
10000000
10000000
10000000
00001000
,
00001000
00001000
00001000
00020000
,
00000000
00000000
00000000
00030001
,
00000010
00000001
00000010
00000100
,
00001000
00000100
00001000
00000010
,
00010000
00000010
00010000
00002000
,
00000000
00000000
00003000
00022000
,
00000000
00000000
00000000
00033000
,
01000000
00100000
01000000
02200000
,
00000000
00000000
00000000
03300000
,
00010000
10000000
00010000
10020000
,
00000000
00000000
00000000
20030000
,
00000000
00000000
00000000
30001000
,
00000000
00010000
00000000
00000010
,
00000010
00000010
00000010
00001001
,
00000000
00000000
00000000
00000000
,
00000000
00001000
00001000
00001001
,
00000000
00000010
00000000
00000100
,
00000000
00010000
00000000
00011000
,
00000000
00001000
00000000
00001000
,
00000000
01000000
00000000
01000000
,
00000000
00010000
00000000
00100000
,
00000000
01000000
00000000
10010000
,
00000000
00000000
00000000
00000000
,
00000000
00000000
00000000
01100000
,
00000000
01100000
00000000
01100000
,
00000000
01100000
00000000
00010000
,
10000000
01000000
00100000
00010000
,
00010000
10000000
10000000
00100000
,
01000000
00001000
00010000
00000020
,
00000000
00000130
00000010
00001000
,
00001000
00000001
00000001
00010000
,
00000010
00010000
00001000
00100000
,
01000000
10000000
10000000
00100000
,
01000000
00010000
00100000
00002000
,
00000000
00000000
00000000
00023000
,
00000000
00000000
00000000
00032000
,
00000000
00000000
00000000
00023000
,
00000000
00000000
00000000
00030000
;

//---------------dance-double - ----------------
#NOTES:
     dance-double:
     :
     Medium:
     8:
     0.365,0.383,0.365,0.093,0.000:
20000000
00000000
00100000
00000000
,
00100000
00000000
30100000
00000000
,
02000000
00000000
00010000
00000000
,
00010000
00000000
03010000
10010000
,
10000000
01000000
10000000
01000000
,
00100000
00001000
00100000
00001000
,
00010000
00001000
00010000
00001000
,
00000100
00000100
00000010
00000010
,
00000110
00000000
00000101
00000000
00000100
00000001
00000010
00000000
,
00000100
00001100
00010000
00011000
,
01100000
00000000
10100000
00000000
10000000
01000000
00100000
00000000
,
00010000
00011000
00000010
00000110
,
00000101
00000000
00001001
00000000
00001000
00000100
00010000
00000000
,
00001000
00011000
01000000
01010000
,
10010000
00000000
11000000
00000000
01000000
10000000
00100000
00000000
,
01000000
01100000
00200000
00000000
,
00000000
00000000
00300000
10000000
,
00010000
00100000
01000000
10000000
,
01000000
00100000
00001000
00010000
,
00000010
00010000
00001000
00010000
,
00000100
00000010
00000001
00000100
,
00000010
00000100
00000010
00000000
00001000
00000000
00010000
00000000
,
00100000
01000000
00100000
00000000
00010000
00000000
10000000
00000000
,
00100000
01000000
00100000
00000000
10000000
00000000
00010000
00000000
,
00010000
00000000
10000000
00000000
10000000
00000000
00100000
01000000
,
00100000
01000000
00010000
00000000
10010000
00000000
10000000
01000000
,
00100000
00000000
00001000
01000000
00001000
00000000
00010000
00000010
,
00000100
00000000
00000001
00000010
00000001
00000000
00010000
00001000
,
00010000
00000000
00001000
00100000
01000000
00000000
20000000
00000000
,
00000000
00000000
30010000
00000000
01000000
00100000
01000000
00000000
,
00010000
10000000
00001000
00000000
00001000
00000000
00011000
00000000
,
00000100
00000010
00000100
00000000
00000100
00000000
00001001
00000000
,
00001001
00000000
00001001
00000000
00001001
00000000
00000001
00000001
,
00000100
00000010
00000000
00000110
00000000
00000000
00010010
00000000
,
00000000
00011000
00000000
00000000
00001000
00000000
01001000
00000000
,
00100000
01000000
10000000
11000000
,
00000000
10001000
00000000
00000000
00001000
00000000
00011000
00000000
,
00010000
00000000
00000010
00000000
00000100
00000000
00000001
00001000
,
00000001
00001000
00000000
00000000
00000100
00000000
00010000
00001000
,
00010000
00001000
00000000
00000000
10000000
00000000
00100000
00000000
,
01000000
00010000
10000000
11000000
,
11000000
00110000
00110000
02200000
,
00000000
00000000
00000000
00000000
,
03300000
01100000
01100000
01000000
,
10000000
00100000
01000000
00001000
,
00010000
00000000
00000010
00000100
00000010
00001000
00000100
00000000
,
00001000
00001000
00001000
00001001
,
00000010
00000010
00000010
00000110
,
00010000
00010000
00001000
00001000
,
01000000
00100000
01100000
01000000
,
10000000
00100000
01000000
00001000
,
00010000
00000010
00000100
00000101
,
00000101
00001010
00001010
00001001
,
00001001
00000110
00000110
00000020
,
00000000
00000000
00000130
00000001
00000100
00000000
00000001
00000010
,
00000100
00000000
00010000
00001000
00010000
00000000
00001000
00100000
,
01000000
00000000
10000000
00100000
01000000
00010000
20000000
00000000
,
00000000
00000000
30010000
00000000
10000000
00000000
00010000
00100000
,
01000000
00000000
00100000
00001000
00010000
00000000
00000100
00000010
,
00000100
00000010
00000001
00000100
00000001
00000000
00000010
00000100
,
00000010
00000100
00010000
00001000
01000000
00000000
00100000
01000000
,
00010000
00000000
01000000
00100000
01000000
00100000
20000000
00000000
,
00000000
00000000
00000000
30002000
,
00000000
00000000
00000000
02003000
,
00000000
00000000
00000000
03020000
,
00000000
00000000
00000000
00030000
;

//---------------dance-double - ----------------
#NOTES:
     dance-double:
     :
     Hard:
     10:
     0.438,0.434,0.342,0.117,0.027:
20010000
00000000
01000000
00000000
,
30002000
00000000
01000000
00000000
,
00023000
00000000
00000100
00000000
,
00030020
00000000
00000100
00000130
,
00000001
00001000
00000010
00000001
,
00001000
00000001
00000010
00001000
,
00000001
00000100
00000010
00010000
,
00001000
00010000
00001000
00000000
00100000
01000000
01100000
00000000
,
10000000
01000000
00100000
10000000
00100000
01000000
10000000
00001000
,
01000000
01001000
00010000
00011000
,
00000001
00000010
00000100
00000001
00000100
00000010
00000001
00010000
,
00000100
00010100
00001000
00011000
,
10001000
01000000
00010000
10000000
00010000
01000000
10000000
00001000
,
00010000
00011000
00000010
00000110
,
00001000
00000100
00000001
00001000
00000001
00000100
00001000
00000010
,
00000100
00000110
00000002
00000000
,
00000000
00000000
00000003
00010000
,
00010000
00000100
00000010
00000001
00000000
00000001
00001000
00000000
,
00000100
00000000
00010000
00000000
00001000
00010000
00001000
00000000
,
01000000
00100000
10000000
01000000
00000000
01000000
00100000
00000000
,
00001000
00000000
00010000
00000000
00001000
00010000
00001000
00000000
,
00010000
00000100
00000010
00000000
00000001
00000000
00000001
00000000
,
00000100
00000010
00001000
00000000
00000100
00000000
00000100
00000000
,
00010000
00001000
00100000
00000000
01000000
00000000
01000000
00000000
,
10010000
00000000
01000000
00000000
10010000
00000000
10000000
01000000
,
00100000
00010000
10000000
01000000
00100000
00000000
00001000
00010000
,
00000010
00000100
00000001
00000010
00000001
00010000
00001000
00010000
,
00000010
00000100
00000001
00000010
00000001
00010000
00001000
00010000
,
00000010
00000100
00000001
00000010
00000001
00010000
00002000
00000000
,
00000000
00103000
01000000
10000000
00010000
10000000
01000000
00000000
,
10000000
01000000
00010000
01000000
10000000
00000000
10010000
00000000
,
00010000
00100000
10000000
00100000
00010000
00000000
10000000
01000000
,
00100000
01000000
10000000
00100000
00010000
00100000
01000000
00001000
,
00010000
00000010
00000000
00000110
00000000
00000000
00000110
00000100
,
00000000
00001001
00000001
00000000
00000110
00000000
00010010
00000000
,
00010000
00001000
00100000
01000000
10000000
00000000
01100000
00100000
,
00000000
10010000
10000000
00000000
01100000
00000000
01001000
00000000
,
00001000
00000000
00010000
00000000
00000100
00000000
00000010
00000000
00000001
00000000
00000000
00000000
00000100
00000001
00000100
00000001
,
00000100
00000000
00000002
00000000
00000000
00000000
00000013
00000000
00000100
00000000
00000000
00000000
00010000
00001000
00010000
00001000
,
00010000
00002000
00000000
01003000
00100000
01000000
00010000
00000000
,
00100000
01000000
10000000
10100000
,
01100000
01001000
00011000
00020200
,
00000000
00000000
00000000
00000000
,
00030300
00000000
00000000
00000000
00010001
00000000
00000000
00000000
00010001
00000000
00000000
00000000
00000010
00000000
00000000
00000010
,
00000000
00000000
00000010
00000000
00000000
00000000
00000001
00000000
00000000
00000001
00000000
00000000
00000001
00000000
00000000
00010000
,
00000000
00010000
00001000
00001000
00100000
00100000
01000000
00000000
,
10000000
00100000
01000000
00000000
00001000
00000000
00011000
00000000
,
00000100
00000010
00000001
00000000
00000100
00000000
00000110
00000000
,
00000010
00000001
00000100
00000000
00000001
00000010
00000100
00000000
,
00010000
00001000
00100000
00000000
01100000
00000000
01100000
00000000
,
10000000
01000000
00010000
00000100
,
00000001
00000100
00010000
11000000
,
11000000
10010000
10010000
00101000
,
00101000
00000000
00010001
00000000
00010001
00000000
00000001
00010000
,
00000001
00000000
00001000
00000100
00000001
00000100
00001000
00000001
,
00010000
00000100
00000001
00000100
00010000
00000000
00001000
00100000
,
10000000
00100000
00001000
00010000
00001000
00100000
02000000
00000000
,
00000000
13000000
00010000
10000000
01000000
00100000
00001000
00000000
,
00011000
00000000
00010010
00000000
00000110
00000000
00000001
00000001
,
00000001
00000010
00000100
00001000
00000001
00000010
00001000
00000010
,
00000001
00010000
00000100
00010000
00001000
00100000
10000000
00100000
,
00001000
01000000
00100000
00100000
10000000
10000000
00002000
00000000
,
00000000
00000000
00000000
00023000
,
00000000
00000000
00000000
00030200
,
00000000
00000000
00000000
00000320
,
00000000
00000000
00000000
00000030
;

//---------------dance-double - ----------------
#NOTES:
     dance-double:
     :
     Challenge:
     13:
     0.607,0.715,0.132,0.132,0.416: // measure 1
10000000
00010000
10000000
00010000
,  // measure 2
10000000
00100000
10000000
00100000
,  // measure 3
01000000
00001000
01000000
00001000
,  // measure 4
00010000
00001000
00010000
00010000
,  // measure 5
00000010
00000100
00000010
00000100
00000010
00000100
00000010
00000100
,  // measure 6
00000001
00000010
00000001
00000010
00000001
00000010
00000001
00000010
,  // measure 7
00001000
00000010
00001000
00000010
00001000
00000010
00001000
00000010
,  // measure 8
00000001
00000000
00001000
00000000
00001001
00000000
00000000
00000000
00000100
00000010
00000100
00000000
00000110
00000000
00000000
00000000
,  // measure 9
00001000
00000000
00000001
00000010
00000001
00000000
00000010
00000100
00000010
00000000
00000100
00010000
00000100
00000000
00010000
00000000
,  // measure 10
00001000
00100000
01000000
00100000
00010000
10000000
00100000
00000000
,  // measure 11
10000000
00000000
01000000
00100000
01000000
00000000
10000000
00010000
10000000
00000000
00001000
00100000
00001000
00000000
00010000
00000000
,  // measure 12
00000010
00000100
00000010
00010000
00000100
00000010
00000001
00000000
,  // measure 13
00001000
00000000
00000001
00000010
00000001
00000000
00000100
00000010
00000100
00000000
00000001
00001000
00000001
00000000
00001000
00000000
,  // measure 14
00010000
01000000
00100000
01000000
00001000
10000000
01000000
00000000
,  // measure 15
10000000
00000000
00100000
01000000
00100000
00000000
01000000
00010000
01000000
00000000
00001000
00010000
00001000
00000000
00010000
00000000
,  // measure 16
00000100
00000010
00000100
00010000
00000002
00000000
00000000
00000000
,  // measure 17
00000000
00001003
00000000
00000001
,  // measure 18
00001000
00000100
00000001
00000100
00001000
00000010
00010000
00000000
,  // measure 19
00001000
00000000
00100000
00000000
01000000
10000000
00010000
00000000
,  // measure 20
10000000
00100000
00010000
00100000
10000000
01000000
00100000
00000000
,  // measure 21
00001000
00000000
00010000
00000100
00000010
00000100
00100000
00000000
,  // measure 22
00000010
00000100
00000001
00000000
00001000
00000010
00000001
00000010
,  // measure 23
00001000
00000001
00010000
00001000
00100000
00000000
01000000
00000000
,  // measure 24
10000000
00010000
00100000
00000000
00001000
00010000
00001000
00000000
,  // measure 25
00011000
00000000
00010000
00000000
00010010
00000000
00001000
00000001
,  // measure 26
00000010
00000000
00000100
00000000
00001000
00000000
00000001
00000000
00000010
00000000
00000100
00000010
00000100
00000000
00010000
00000100
,  // measure 27
00010000
00000000
00001000
00010000
00001000
00000000
01000000
00100000
01000000
00000000
00100000
00000000
10000000
00000000
01000000
10000000
,  // measure 28
01000000
00000000
10000000
00010000
10000000
00000000
00001000
01000000
00001000
00000000
00010000
00000000
00000100
00000000
00000010
00000001
,  // measure 29
00000010
00000000
00000100
00000010
00000100
00000000
00010000
00000010
00010000
00000000
00001000
00000000
00100000
00000000
00000000
00000000
,  // measure 30
01000000
00000000
10000000
01000000
00100000
00000000
00001000
00000000
00010000
00000000
00000010
00000000
00000100
00000000
00000000
00000000
,  // measure 31
00000001
00001000
00000001
00001000
00000001
00000000
00000010
00000100
00010000
00000000
00001000
00000000
00100000
00000000
01000000
00000000
,  // measure 32
10000000
00100000
10000000
00100000
10000000
00000000
01000000
00100000
00010000
00000000
00001000
00000000
00010000
00000010
00010000
00000010
,  // measure 33
00000100
00000010
00000100
00000010
00010000
00000010
00010000
00000010
00010000
00000100
00000010
00000000
00000001
00000000
00000001
00000000
,  // measure 34
00001000
00000000
00000001
00000000
00000000
00000000
00001001
00000000
00000000
00000000
00000000
00000000
00000100
00001000
00000100
00000000
,  // measure 35
00000100
00000000
00010000
00001000
00010000
00000000
00010000
00000000
00001000
01000000
00001000
00000000
00001000
00000000
10000000
00000000
,  // measure 36
01000000
00000000
00010000
00000000
01000000
00000000
10000000
00000000
00100000
00000000
01000000
00000000
00001000
01000000
00001000
00000000
,  // measure 37
00001000
00000000
00010000
00001000
00010000
00000000
00010000
00000000
00000010
00000100
00000010
00000000
00000010
00000000
00001000
00000000
,  // measure 38
00000100
00000000
00000001
00000000
00000100
00000000
00001000
00000000
00000001
00000000
00000010
00000000
00000100
00010000
00000100
00010000
,  // measure 39
00000100
00000000
00020000
00000000
00000000
00000000
00031000
00000000
00100000
00000000
01000000
00000000
10000000
00100000
10000000
00100000
,  // measure 40
10000000
00000000
00000000
00002000
00000000
00000000
00000000
00000000
00000000
00103000
00000000
00000000
01000000
00000000
00000000
10000000
00000000
00000000
00100000
00000000
10000000
00000000
00100000
00000000
,  // measure 41
10000000
00001000
00010000
00001000
00010000
00000100
00000010
00000100
00000010
00000001
00000000
00000000
,  // measure 42
00001001
00000101
00010010
00022000
,  // measure 43
00000000
00000000
00000000
00000000
,  // measure 44
00033000
00000000
00000000
00000000
00010000
00001000
00010000
00000000
00001000
00000000
00001000
00000000
00100000
00000000
01000000
10000000
,  // measure 45
00100000
10000000
01000000
00000000
01000000
00000000
00100000
00001000
00010000
00001000
00100000
00000000
00100000
00000000
00001000
00010000
,  // measure 46
00000010
00000000
00000100
00000001
00000010
00000000
00000100
00001000
00000001
00000010
00000001
00000010
00000100
00000000
00000000
00000000
,  // measure 47
00010000
00001000
00100000
01000000
10000000
00000000
10000000
00000000
,  // measure 48
00100000
01000000
00001000
00010000
00001000
00000000
00001000
00000000
,  // measure 49
00010000
00000010
00000100
00000001
00001000
00000100
00000010
00000001
,  // measure 50
00001000
00000000
00000100
00000000
00000010
00000000
00000001
00000000
00010000
00000010
00010000
00000010
00020000
00000000
00000000
00000000
,  // measure 51
00030002
00000023
00000230
00020300
,  // measure 52
00032000
02003000
03100000
11000000
,  // measure 53
10010000
11000000
10010000
00101000
,  // measure 54
00011000
00000000
00101000
00000000
00011000
00000000
00010000
00001000
,  // measure 55
00010000
00000000
00000010
00001000
00000010
00001000
00000010
00000100
00000001
00000100
00000001
00000000
00000010
00000100
00001000
00000100
,  // measure 56
00000010
00000100
00010000
00000000
00001000
00100000
01000000
00000000
10000000
01000000
00100000
00000000
00010000
10000000
00010000
10000000
,  // measure 57
00100000
10000000
00100000
10000000
00001000
00010000
00001000
00010000
00000100
00000010
00000001
00000010
00000200
00000000
00000000
00000000
,  // measure 58
00000000
00000000
00001300
00000001
00001000
00000000
00000001
00000010
00000001
00000000
00000010
00000000
00000100
00000000
00010000
00000010
,  // measure 59
00010000
00000000
00001000
00010000
00001000
00000000
01000000
00100000
01000000
00000000
00100000
00000000
10000000
01000000
00100000
01000000
,  // measure 60
10000000
01000000
00100000
00001000
01000000
00001000
01000000
00001000
00010000
00001000
00010000
00000000
00000001
00000100
00000010
00000100
,  // measure 61
00000001
00000100
00000010
00000100
00000001
00000010
00000100
00000010
00000100
00010000
00001000
00010000
00001000
00000000
00100000
01000000
,  // measure 62
10000000
01000000
00100000
00010000
01000000
00000000
01000000
00000000
00001000
00000000
00001000
00000000
00020000
00000000
00000000
00000000
,  // measure 63
00000000
00000000
00000000
00030002
,  // measure 64
00000000
00000000
00000000
00000000
00000010
00000010
00000023
00000000
,  // measure 65
00000000
00000000
00000000
00000230
,  // measure 66
00000000
00000000
00000000
00000300
;
