#TITLE:licca;
#SUBTITLE:;
#ARTIST:Qrispy Joybox;
#TITLETRANSLIT:;
#SUBTITLETRANSLIT:;
#ARTISTTRANSLIT:;
#CREDIT:DigiMindAxel;
#BANNER:licca.png;
#BACKGROUND:licca-bg.png;
#LYRICSPATH:;
#CDTITLE:REFLEC BEAT.png;
#MUSIC:licca.ogg;
#METERTYPE:DDR X;
#OFFSET:-5.605;
#SAMPLESTART:59.172;
#SAMPLELENGTH:12.000;
#SELECTABLE:YES;
#BPMS:0.000=196.000,144.000=98.000,160.000=196.000;
#STOPS:;
#BGCHANGES:;

//---------------dance-single - ----------------
#NOTES:
     dance-single:
     :
     Easy:
     6:
     0.306,0.354,0.153,0.063,0.000:
2001
0000
0000
0000
3001
0000
0000
1000
,
0000
1000
0000
0000
0010
0000
0000
0000
,
0210
0000
0000
0000
0310
0000
0000
1000
,
0000
1000
0000
0000
0010
0000
0000
0000
,
1001
0000
0000
0000
,
0001
0000
0000
0000
,
1001
0000
0000
0000
,
1000
0000
0000
0000
,
0110
0000
0000
0000
,
0010
0000
0000
0000
,
0110
0000
0000
0000
,
0100
0000
0000
0000
,
1001
0000
0001
0000
0000
1000
0000
0001
,
0000
0000
0000
0000
,
0110
0000
0100
0000
0000
0010
0000
0100
,
0000
0000
0000
0000
,
1001
0000
0001
0000
0000
1000
0000
0001
,
0000
0000
0000
0000
,
0110
0000
0100
0000
0000
0010
0000
0100
,
0000
0000
0000
0000
,
0001
0100
0001
0100
,
0001
1000
0001
0000
,
1000
0100
1000
0100
,
1000
0001
1000
0000
,
0010
0100
0010
0100
,
0001
0100
0001
0000
,
0100
0010
0100
0010
,
1000
0010
1000
0000
,
0001
0000
1000
0000
0000
0001
0000
0001
,
0000
0000
0000
0000
,
1000
0000
0001
0000
0000
1000
0000
1000
,
0000
0000
0000
0000
,
0100
0000
0010
0000
0000
0100
0000
0100
,
0000
0000
0000
0000
,
0010
0000
0100
0000
0000
0010
0000
0010
,
0000
0000
0000
0000
,
1001
0000
1000
0000
,
0100
0000
0010
0000
,
0001
1000
0001
1000
,
0100
0000
0000
0000
,
1001
1000
0001
1000
,
0100
1000
0001
0000
,
0100
0001
0010
0001
,
0100
0010
0100
0000
,
0001
0010
0100
0010
,
0001
0010
0100
1000
,
0001
1000
0100
1000
,
0001
1000
0100
0000
,
1000
0010
0100
0010
,
1000
0010
0100
0010
,
1000
0100
0010
0001
,
0010
0100
1000
0001
,
0100
0001
1000
0001
,
0100
0001
1000
0001
,
0200
0000
0000
0000
,
0000
0000
0000
0000
,
0310
0100
0001
1000
,
0200
0000
0000
1300
,
0010
0100
0001
0100
,
0020
0000
0000
1030
,
0001
0010
0100
0010
,
0001
0010
0100
1000
,
0010
0100
0010
1000
,
0010
0100
0010
0000
,
1000
0001
0010
0001
,
1000
0001
0010
0001
,
1000
0100
0010
0001
,
0010
0100
1000
0010
,
0100
0001
1000
0010
,
0100
0001
1000
0001
,
0220
0000
0000
0000
,
0000
0000
0330
0000
,
0110
0000
0100
0000
0000
0001
0000
1000
,
0000
0000
0100
1000
,
1001
0000
0001
0000
0000
0100
0000
0010
,
0000
0000
0100
0010
,
0110
0000
0100
0000
0000
0001
0000
1000
,
0000
0000
0010
0100
,
1001
0000
0001
0000
0000
1000
0000
0001
;

//---------------dance-single - ----------------
#NOTES:
     dance-single:
     :
     Medium:
     10:
     0.521,0.496,0.556,0.287,0.000:
1001
0000
1000
0000
0100
0000
1000
0001
,
0000
0001
1000
0000
0100
1000
0100
1000
,
0001
0000
0010
0000
0001
0000
1000
0001
,
0000
0001
1000
0000
0010
0000
0100
0000
,
2002
0000
0000
3003
,
2200
0000
0000
3300
,
2002
0000
0000
3003
,
0022
0000
0000
0033
,
0220
0000
0000
0330
,
2002
0000
0000
3003
,
0220
0000
0000
0330
,
2002
0000
0000
3003
,
1010
0000
1010
0000
0000
1001
0000
1001
,
0000
0010
0100
0010
,
0110
0000
0110
0000
0000
0101
0000
0101
,
0000
0001
1000
0001
,
1001
0000
1001
0000
0000
1100
0000
1100
,
0000
0100
0010
0100
,
0110
0000
0110
0000
0000
0011
0000
0011
,
0000
0002
0000
0000
,
1003
0100
1000
0000
0100
0000
0010
0001
,
0010
0001
1000
1001
,
0001
0100
0001
0000
0100
0000
0010
1000
,
0010
1000
1002
0000
,
0103
0010
0100
0000
0001
0000
0100
0010
,
0100
0001
1000
1001
,
1000
0100
1000
0000
0001
0000
1000
0100
,
1000
0001
2001
0000
,
3001
0000
0101
0000
0000
0110
0000
0110
,
0000
0100
0010
1000
,
1001
0000
1001
0000
0000
0110
0000
0110
,
0000
0100
0010
0001
,
0011
0000
0011
0000
0000
1001
0000
1001
,
0000
0010
0100
1000
,
1100
0000
1100
0000
0000
1001
0000
1001
,
0000
0000
0000
0000
,
2001
0000
3200
0000
,
2300
0000
3200
0000
,
2300
3020
0230
0302
,
2003
0000
0000
3000
,
0001
0100
0001
0000
1000
0010
1000
0000
,
0100
0010
0100
0010
0001
0000
1000
0000
,
0010
0100
0010
0000
1000
0001
1000
0000
,
0001
0010
0001
0010
0100
0000
1000
0000
,
0001
0010
0001
0000
1000
0100
1000
0000
,
0010
0100
0010
0100
0001
0000
0010
0000
,
0011
0001
1000
0001
,
1000
0100
0010
0001
1000
0000
0000
0000
,
0001
0100
0001
0000
1000
0010
1000
0000
,
0100
0010
0100
0010
0001
0000
1000
0000
,
0100
1000
0100
0000
1000
0001
1000
0000
,
0010
0100
0010
0100
0001
0000
1000
0000
,
0001
0010
0001
0000
0100
0010
0100
0000
,
0001
1000
0001
0000
1000
0010
1000
0010
,
0200
0000
0000
0000
,
0000
0000
0000
0000
,
0310
0100
0010
0000
1000
0001
1000
0001
,
0200
0000
0000
0301
,
1000
0100
1000
0000
0001
0010
0001
0010
,
0200
0000
0000
0310
,
0001
0100
0001
0000
0100
0010
0100
0000
,
0010
1000
0010
0000
1000
0001
1000
0001
,
0010
0001
0100
0010
,
1000
0100
1000
0100
0010
0000
0000
0000
,
0001
1000
0001
0000
1000
0100
1000
0000
,
0001
1000
0001
1000
0100
0000
0010
0000
,
0001
0010
0001
0000
0010
0100
0010
0000
,
0100
1000
0100
1000
0001
0000
1000
0000
,
0001
0100
0001
0000
0100
0010
0100
0000
,
0010
1000
0010
0000
1000
0001
1000
0001
,
0020
0000
0000
0000
,
0000
0000
0030
0000
,
0011
0000
0011
0000
0000
1001
0000
1001
,
0000
0001
1000
0100
,
1100
0000
1100
0000
0000
1001
0000
1001
,
0000
1000
0001
0100
,
0101
0000
0101
0000
0000
1001
0000
1001
,
0000
0001
1000
0010
,
1010
0000
1010
0000
0000
1001
0000
1001
;

//---------------dance-single - ----------------
#NOTES:
     dance-single:
     :
     Hard:
     13:
     0.621,0.602,0.592,0.305,0.027: // measure 1
1001
0000
0100
0000
1000
0000
0002
1000
,  // measure 2
0000
1003
0000
0000
0011
0000
0011
0000
,  // measure 3
1001
0000
0001
0000
0100
0000
0020
1000
,  // measure 4
0000
1030
0000
0000
0001
0000
1000
0000
,  // measure 5
2002
0000
0000
3003
,  // measure 6
0022
0000
0000
0033
,  // measure 7
2002
0000
0000
3003
,  // measure 8
2100
0000
0000
0000
0000
0000
3010
0000
0100
0000
0010
0000
,  // measure 9
0220
0000
0000
0330
,  // measure 10
2002
0000
0000
3003
,  // measure 11
0220
0000
0000
0330
,  // measure 12
1002
0000
0000
0000
0000
0000
1003
0001
1000
0001
1000
0001
,  // measure 13
1000
0000
1100
0000
0000
1001
0000
1001
,  // measure 14
0000
0001
0100
0001
1000
0000
1000
0000
,  // measure 15
1100
0000
1100
0000
0000
1001
0000
1001
,  // measure 16
0000
1000
0001
0010
0001
0000
0000
0000
,  // measure 17
1001
0000
1001
0000
0000
0011
0000
0011
,  // measure 18
0000
0001
0010
0100
0010
0000
0010
0000
,  // measure 19
1001
0000
1001
0000
0000
1010
0000
1010
,  // measure 20
0000
2000
0000
0000
0000
3002
0000
0000
,  // measure 21
1003
0100
1000
0100
0010
0000
0100
1000
,  // measure 22
0100
1000
0001
0100
0001
1000
0001
0000
,  // measure 23
1000
0010
1000
0010
0100
0000
0001
0010
,  // measure 24
0001
0010
0100
0000
2001
0000
0000
0000
,  // measure 25
3010
0100
0010
0100
0001
0000
0010
0100
,  // measure 26
0010
0001
0100
0010
0100
0001
1000
0000
,  // measure 27
0001
0010
0001
0010
0100
0000
0010
0001
,  // measure 28
1000
0010
1000
0001
0020
0000
0000
0000
,  // measure 29
0031
0000
1001
0000
0000
1100
0000
1100
,  // measure 30
0000
1000
0001
0010
0100
0000
0100
0000
,  // measure 31
1001
0000
1001
0000
0000
0101
0000
0101
,  // measure 32
0000
0001
1000
0100
0010
0000
0000
0000
,  // measure 33
0110
0000
0110
0000
0000
0101
0000
0101
,  // measure 34
0000
0001
1000
0100
1000
0000
1000
0000
,  // measure 35
1100
0000
1100
0000
0000
0101
0000
0101
,  // measure 36
0000
0000
0100
0000
,  // measure 37
1002
0000
0023
0000
,  // measure 38
0230
0000
2300
0000
,  // measure 39
3002
0023
0032
2003
,  // measure 40
0002
0000
0000
3003
,  // measure 41
0100
0010
0100
1000
0100
0001
0100
1000
,  // measure 42
0010
0100
0010
1000
0010
0000
1000
0001
,  // measure 43
0100
0010
0100
0001
0100
1000
0100
0001
,  // measure 44
0010
0100
0010
0001
1000
0000
0001
1000
,  // measure 45
0100
0010
0100
1000
0010
0001
0010
1000
,  // measure 46
0100
0001
0100
1000
0001
0010
0100
0000
,  // measure 47
1000
0001
0010
0001
0010
0001
0010
0001
,  // measure 48
0010
0100
1000
0100
0020
0000
0000
0000
,  // measure 49
0130
0010
0100
1000
0010
0001
0010
1000
,  // measure 50
0001
0010
0001
0100
0010
0000
1000
0001
,  // measure 51
0010
0100
0010
0001
0100
1000
0100
0001
,  // measure 52
0010
0100
0010
0001
1000
0000
0001
1000
,  // measure 53
0100
0010
0100
1000
0010
0001
0010
1000
,  // measure 54
0100
0001
0100
1000
0001
0100
0010
1000
,  // measure 55
0200
0000
0000
0000
,  // measure 56
0000
0000
0300
0000
,  // measure 57
0010
0100
0010
0001
0100
1000
0100
0001
,  // measure 58
0020
0000
0001
0000
0000
0000
0031
1000
,  // measure 59
0001
0100
0010
1000
0100
0001
0100
1000
,  // measure 60
0020
0000
1000
0000
0000
0000
1030
0001
,  // measure 61
1000
0010
0100
0001
0010
1000
0010
0001
,  // measure 62
0100
1000
0100
0001
0010
0100
1000
0000
,  // measure 63
0001
1000
0010
1000
0010
1000
0010
1000
,  // measure 64
0010
0100
0001
1000
0100
0000
0000
0000
,  // measure 65
0010
0100
0010
0001
0010
1000
0010
0001
,  // measure 66
1001
0000
0110
0000
1001
0000
0001
1000
,  // measure 67
0100
0010
0100
1000
0010
0001
0010
1000
,  // measure 68
1100
0011
1001
0000
,  // measure 69
0010
0100
0010
0001
0100
1000
0100
0001
,  // measure 70
0010
1000
0010
0001
1000
0100
0010
0001
,  // measure 71
0200
0000
0000
0000
,  // measure 72
0000
0000
0300
0000
,  // measure 73
1001
0000
1001
0000
0000
1010
0000
1010
,  // measure 74
0000
1000
0001
0010
0100
0000
0100
0000
,  // measure 75
0110
0000
0110
0000
0000
1010
0000
1010
,  // measure 76
0000
1000
0001
0010
0100
0000
0000
0000
,  // measure 77
1001
0000
1001
0000
0000
0011
0000
0011
,  // measure 78
0000
0001
1000
0010
0100
0000
0100
0000
,  // measure 79
0110
0000
0110
0000
0000
1001
0000
1001
;

//---------------dance-single - ----------------
#NOTES:
     dance-single:
     :
     Challenge:
     15:
     0.730,0.708,0.431,0.215,0.238: // measure 1
1002
0000
1003
0100
1000
0100
2000
0001
,  // measure 2
0000
0000
0000
3001
0000
0000
1000
0000
0000
0000
0000
0000
0010
0000
0100
0000
0010
0000
0100
0000
0010
0000
0100
0000
,  // measure 3
0002
0000
1003
0010
1000
0010
2000
0001
,  // measure 4
0000
3001
1000
0000
0100
1000
0001
0100
,  // measure 5
0001
1000
1000
1000
1000
0000
0100
0010
,  // measure 6
0001
0010
0100
1000
0100
0000
0000
0000
,  // measure 7
1000
0001
0001
0001
0001
0000
0100
0010
,  // measure 8
1000
0000
0000
0010
0000
0000
0100
0000
0000
0001
0000
0000
1000
0000
0000
0000
1000
0000
0000
0000
0001
0000
0000
0000
,  // measure 9
0001
1000
1000
1000
1000
0000
0100
0010
,  // measure 10
0001
0010
0100
1000
0100
0000
0000
0000
,  // measure 11
1000
0001
0001
0001
0001
0000
0100
0010
,  // measure 12
1000
0000
0000
0010
0000
0000
0100
0000
0000
0001
0000
0000
1000
0000
0100
0000
1000
0000
0100
0000
0010
0000
0100
0000
,  // measure 13
0010
0000
0110
0000
0001
0101
0000
0101
,  // measure 14
0000
0000
0000
0000
0000
0000
1000
0000
0000
0001
0000
0000
1000
0000
0000
0000
0000
0000
0001
0000
0000
0000
0000
0000
1000
0000
0000
0000
0100
0000
0000
0000
1000
0000
0000
0000
0010
0000
0000
0000
0100
0000
0000
0000
0010
0000
0000
0000
,  // measure 15
0100
0000
0110
0000
0001
0101
0000
0101
,  // measure 16
0000
0000
1000
0001
1000
0000
0100
0000
0010
0000
0000
0000
0000
0000
0000
0000
,  // measure 17
0110
0000
0110
0000
1000
1010
0000
1010
,  // measure 18
0000
0000
0000
0000
0000
0000
0001
0000
0000
1000
0000
0000
0001
0000
0000
0000
0000
0000
1000
0000
0000
0000
0000
0000
0001
0000
0000
0000
0010
0000
0000
0000
0001
0000
0000
0000
0100
0000
0000
0000
0010
0000
0000
0000
0100
0000
0000
0000
,  // measure 19
0010
0000
0110
0000
1000
1010
0000
1010
,  // measure 20
0000
0000
0000
2000
0000
0000
0000
0000
0000
0000
0000
0000
3010
0000
0100
0000
0010
0000
0100
0000
0010
0000
0100
0000
,  // measure 21
0010
1000
0100
0001
0100
0000
1000
0001
,  // measure 22
0100
0000
0000
1000
0000
0000
0100
0000
0000
0001
0000
0000
1000
0000
0000
0100
0000
0000
1000
0000
0100
0000
0010
0000
,  // measure 23
0001
1000
0010
0001
0010
0000
1000
0001
,  // measure 24
0010
0000
0000
1000
0000
0000
0010
0000
0000
0001
0000
0000
2000
0000
0000
0000
0000
0000
3001
0000
0010
0000
0100
0000
,  // measure 25
1000
0001
0100
1000
0100
0000
0001
1000
,  // measure 26
0100
0000
0000
0001
0000
0000
0100
0000
0000
1000
0000
0000
0001
0000
0000
0100
0000
0000
0001
0000
0100
0000
0010
0000
,  // measure 27
1000
0001
0010
1000
0010
0000
0001
1000
,  // measure 28
0010
0001
0010
1000
0002
0000
0000
0000
,  // measure 29
1003
0000
1100
0000
0010
0110
0000
0110
,  // measure 30
0000
0000
0000
0000
0000
0000
0001
0000
0000
1000
0000
0000
0001
0000
0000
0000
0000
0000
1000
0000
0000
0000
0000
0000
0001
0000
0000
0000
0100
0000
0000
0000
0010
0000
0000
0000
1000
0000
0000
0000
0010
0000
0000
0000
0100
0000
0000
0000
,  // measure 31
0001
0000
0101
0000
0010
0110
0000
0110
,  // measure 32
0000
0000
1000
0001
1000
0000
0100
0000
0010
0000
0000
0000
0000
0000
0000
0000
,  // measure 33
1001
0000
1001
0000
0010
0011
0000
0011
,  // measure 34
0000
0000
0000
0000
0000
0000
1000
0000
0000
0001
0000
0000
1000
0000
0000
0000
0000
0000
0001
0000
0000
0000
0000
0000
1000
0000
0000
0000
0010
0000
0000
0000
0100
0000
0000
0000
0001
0000
0000
0000
0100
0000
0000
0000
0010
0000
0000
0000
,  // measure 35
1000
0000
1001
0000
0010
1010
0000
1010
,  // measure 36
0000
0000
0100
0000
,  // measure 37
2001
0000
3200
0000
,  // measure 38
2300
0000
3002
0000
,  // measure 39
0023
0230
2300
3002
,  // measure 40
2000
0000
0000
3003
,  // measure 41
1000
1000
0010
0100
0001
0001
0010
0100
,  // measure 42
1000
0010
0001
0010
1000
0000
0001
1000
,  // measure 43
0001
0001
0010
0100
1000
1000
0001
0010
,  // measure 44
0001
1000
0010
0001
0010
0000
1000
0001
,  // measure 45
1000
0010
0001
0010
1000
0100
0001
0100
,  // measure 46
1000
0010
0001
0010
1000
0100
0010
0001
,  // measure 47
1000
0100
0100
0100
0100
0100
0100
0100
,  // measure 48
1100
0011
0210
0000
,  // measure 49
0301
0001
0100
0010
1000
1000
0010
0100
,  // measure 50
0001
0010
1000
0010
0001
0000
1000
0001
,  // measure 51
1000
1000
0100
0010
0001
0001
1000
0100
,  // measure 52
1000
0010
0001
0010
1000
0000
0001
1000
,  // measure 53
0001
0010
1000
0010
0001
0100
1000
0100
,  // measure 54
0001
0010
1000
0010
0001
1000
0100
0010
,  // measure 55
0002
0000
0000
0000
,  // measure 56
0000
0000
2003
0000
,  // measure 57
3001
0100
1000
0001
0010
1000
0001
0010
,  // measure 58
0200
0000
1000
0000
0000
0000
1300
0001
,  // measure 59
1000
0100
0001
1000
0010
0001
1000
0100
,  // measure 60
0020
0000
0001
0000
0000
0000
0031
1000
,  // measure 61
0001
0010
1000
0010
0001
0100
1000
0100
,  // measure 62
0001
0010
1000
0010
0001
0100
0010
1000
,  // measure 63
0001
0100
0100
0100
0100
0100
0100
0100
,  // measure 64
0001
0010
0100
0010
0001
0000
0000
0000
,  // measure 65
1001
1000
0001
0100
0010
0010
1000
0001
,  // measure 66
0100
1000
0001
0010
1000
0000
0001
0000
,  // measure 67
1001
0001
1000
0100
1000
1000
0001
1000
,  // measure 68
0100
0001
1000
0010
0001
0000
1000
0000
,  // measure 69
1001
0001
1000
0100
0001
0100
1000
0010
,  // measure 70
0001
0010
1000
0100
0001
0100
1000
0010
,  // measure 71
0220
0000
0000
0000
,  // measure 72
0000
0000
0330
0000
,  // measure 73
0110
0000
0110
0000
0001
0101
0000
0101
,  // measure 74
0000
0000
0000
0000
0000
0000
1000
0000
0000
0001
0000
0000
0100
0000
0000
0000
0000
0000
0001
0000
0000
0000
0000
0000
0100
0000
0000
0000
0010
0000
0000
0000
1000
0000
0000
0000
0100
0000
0000
0000
0010
0000
0000
0000
0001
0000
0000
0000
,  // measure 75
1000
0000
1100
0000
0010
0110
0000
0110
,  // measure 76
0000
0000
0001
1000
0100
0000
1000
0000
2000
0000
0000
0000
0000
0000
0000
0000
,  // measure 77
3001
0000
0011
0000
0100
0110
0000
0110
,  // measure 78
0000
0000
0000
0000
0000
0000
1000
0000
0000
0001
0000
0000
0100
0000
0000
0000
0000
0000
0001
0000
0000
0000
0000
0000
1000
0000
0000
0000
0100
0000
0000
0000
0010
0000
0000
0000
0001
0000
0000
0000
0010
0000
0000
0000
0100
0000
0000
0000
,  // measure 79
1000
0000
1100
0000
0001
0101
0000
0101
;

//---------------dance-double - ----------------
#NOTES:
     dance-double:
     :
     Medium:
     10:
     0.517,0.496,0.548,0.278,0.000:
10010000
00000000
10000000
00000000
01000000
00000000
00100000
00001000
,
00000000
00001000
00100000
00000000
00001000
00010000
00001000
00010000
,
00000001
00000000
00000100
00000000
00000010
00000000
00010000
00001000
,
00000000
00001000
00010000
00000000
00100000
00000000
01000000
00000000
,
22000000
00000000
00000000
33000000
,
00220000
00000000
00000000
00330000
,
00022000
00000000
00000000
00033000
,
00002020
00000000
00000000
00003030
,
00000202
00000000
00000000
00000303
,
00022000
00000000
00000000
00033000
,
02200000
00000000
00000000
03300000
,
20020000
00000000
00000000
30030000
,
01100000
00000000
01100000
00000000
00000000
01001000
00000000
01001000
,
00000000
00001000
00010000
00000010
,
00000110
00000000
00000110
00000000
00000000
00001010
00000000
00001010
,
00000000
00010000
00001000
10000000
,
10010000
00000000
10010000
00000000
00000000
00110000
00000000
00110000
,
00000000
00001000
00010000
00000010
,
00000110
00000000
00000110
00000000
00000000
00000011
00000000
00000011
,
00000000
00000002
00000000
00000000
00000000
00000000
00000000
00000000
,
00010003
00001000
00010000
00000000
00000001
00000000
00000100
00000010
,
00000100
00000001
00010000
00011000
,
00001000
00010000
00001000
00000000
10000000
00000000
01000000
00100000
,
01000000
10000000
10020000
00000000
,
01030000
00100000
01000000
00000000
00001000
00000000
00010000
00001000
,
00010000
00000010
00000100
00000001
,
00000100
00000010
00000100
00000000
00000001
00000000
00010000
00001000
,
00010000
00001000
00012000
00000000
,
10003000
00000000
10001000
00000000
00000000
01100000
00000000
01100000
,
00000000
00001000
00010000
00000001
,
00010001
00000000
00010001
00000000
00000000
00000110
00000000
00000110
,
00000000
00010000
00001000
10000000
,
10001000
00000000
10001000
00000000
00000000
01100000
00000000
01100000
,
00000000
00001000
00010000
00000001
,
00010001
00000000
00010001
00000000
00000000
00000110
00000000
00000110
,
00000000
00000000
00000000
00000000
,
00001002
00000000
00000203
00000000
,
00000320
00000000
00020030
00000000
,
00000000
00032000
00203000
02300000
,
23000000
00000000
00000000
30000000
,
01000000
00100000
01000000
00000000
10000000
00100000
10000000
00000000
,
01000000
00100000
01000000
00100000
00001000
00000000
00001000
00000000
,
00010000
00001000
00010000
00000000
00000010
00000100
00000010
00000000
,
00000100
00000001
00000100
00000001
00010000
00000000
00010000
00000000
,
00001000
00010000
00001000
00000000
01000000
00100000
01000000
00000000
,
00100000
10000000
00100000
10000000
00001000
00000000
00001000
00000000
,
00011000
00010000
00000010
00000100
,
00000001
00000010
00000100
00010000
00001000
00000000
00000000
00000000
,
01000000
00100000
01000000
00000000
00001000
00100000
00001000
00000000
,
00100000
01000000
00100000
01000000
10000000
00000000
10000000
00000000
,
00100000
01000000
00100000
00000000
01000000
00001000
01000000
00000000
,
00100000
10000000
00100000
10000000
00001000
00000000
00001000
00000000
,
00010000
00001000
00010000
00000000
00000100
00010000
00000100
00000000
,
00001000
00000001
00001000
00000000
00000100
00010000
00000100
00010000
,
00002000
00000000
00000000
00000000
,
00000000
00000000
00000000
00000000
,
01003000
00100000
01000000
00000000
00010000
00100000
01000000
10000000
,
00002000
00000000
00000000
00013000
,
00000010
00000100
00000010
00000000
00001000
00000100
00000010
00000001
,
00020000
00000000
00000000
00031000
,
00100000
01000000
00100000
00000000
00010000
10000000
00010000
00000000
,
10000000
01000000
10000000
00000000
01000000
10000000
01000000
10000000
,
00001000
00010000
00000010
00000100
,
00000001
00000010
00000001
00000010
00000100
00000000
00000000
00000000
,
00010000
00000010
00010000
00000000
00000010
00000100
00000010
00000000
,
00010000
00000010
00010000
00000010
00000100
00000000
00000001
00000000
,
00010000
00001000
00010000
00000000
00001000
00100000
00001000
00000000
,
00100000
01000000
00100000
01000000
10000000
00000000
00010000
00000000
,
00100000
00001000
00100000
00000000
00001000
00010000
00001000
00000000
,
00010000
00000100
00010000
00000000
00000100
00000010
00000100
00000010
,
00000002
00000000
00000000
00000000
,
00000000
00000003
00000000
00000000
,
00001001
00000000
00001001
00000000
00000000
00000110
00000000
00000110
,
00000000
00010000
00001000
10000000
,
10010000
00000000
10010000
00000000
00000000
01100000
00000000
01100000
,
00000000
00001000
00010000
00000001
,
00000101
00000000
00000101
00000000
00000000
00001001
00000000
00001001
,
00000000
00010000
00001000
10000000
,
11000000
00000000
11000000
00000000
00000000
10010000
00000000
10010000
;

//---------------dance-double - ----------------
#NOTES:
     dance-double:
     :
     Hard:
     13:
     0.622,0.602,0.592,0.305,0.027:
00001001
00000000
00000001
00000000
00001000
00000000
00000200
00010000
,
00000000
00010300
00000000
00000000
00011000
00000000
00011000
00000000
,
10001000
00000000
10000000
00000000
00010000
00000000
00200000
00001000
,
00000000
00301000
00000000
00000000
00010000
00000000
00000001
00000000
,
00000202
00000000
00000000
00000303
,
00022000
00000000
00000000
00033000
,
22000000
00000000
00000000
33000000
,
00012000
00000000
00000000
00000000
00000000
00000000
00013000
00000000
00010000
00000000
00010000
00000000
,
00022000
00000000
00000000
00033000
,
00020200
00000000
00000000
00030300
,
02002000
00000000
00000000
03003000
,
00012000
00000000
00000000
00000000
00000000
00000000
00013000
00001000
00010000
00001000
00010000
00001000
,
00010000
00000000
00011000
00000000
00000000
00001010
00000000
00001010
,
00000000
00000010
00001000
00000001
00010000
00000000
00010000
00000000
,
00011000
00000000
00011000
00000000
00000000
01001000
00000000
01001000
,
00000000
01000000
00001000
00010000
00001000
00000000
00000000
00000000
,
00011000
00000000
00011000
00000000
00000000
00000110
00000000
00000110
,
00000000
00000100
00000001
00010000
00001000
00000000
00001000
00000000
,
00011000
00000000
00011000
00000000
00000000
01100000
00000000
01100000
,
00000000
20000000
00000000
00000000
00000000
30020000
00000000
00000000
,
10030000
01000000
10000000
01000000
00100000
00000000
00001000
00010000
,
00000010
00000100
00000010
00010000
00000010
00000100
00000010
00000000
,
00000100
00000001
00000100
00000001
00010000
00000000
00001000
00100000
,
01000000
00100000
00001000
00000000
00012000
00000000
00000000
00000000
,
00013000
00000100
00010000
00000100
00001000
00000000
00000010
00000100
,
00000010
00010000
00000010
00000100
00000010
00010000
00001000
00000000
,
00100000
00010000
00100000
00010000
10000000
00000000
00010000
00100000
,
00001000
00010000
00001000
00100000
00002000
00000000
00000000
00000000
,
00013000
00000000
00011000
00000000
00000000
00000110
00000000
00000110
,
00000000
00000100
00000001
00000010
00000100
00000000
00000100
00000000
,
00011000
00000000
00011000
00000000
00000000
01100000
00000000
01100000
,
00000000
00010000
00000010
00000100
00001000
00000000
00000000
00000000
,
00011000
00000000
00011000
00000000
00000000
00000110
00000000
00000110
,
00000000
00000010
00000001
00010000
00001000
00000000
00001000
00000000
,
00011000
00000000
00011000
00000000
00000000
01100000
00000000
01100000
,
00000000
00000000
00001000
00000000
,
00021000
00000000
00030200
00000000
,
00000320
00000000
00000032
00000000
,
00020003
00032000
00023000
00032000
,
02000000
00000000
00000000
03003000
,
10000000
00100000
10000000
00001000
00100000
01000000
00100000
00001000
,
10000000
00100000
01000000
00001000
00010000
00000000
00000001
00001000
,
00000001
00000010
00000001
00010000
00000100
00000010
00000100
00010000
,
00000001
00000010
00000100
00010000
00001000
00000000
10000000
00010000
,
10000000
01000000
00010000
01000000
10000000
00100000
00010000
00100000
,
10000000
01000000
00001000
01000000
10000000
00100000
01000000
00001000
,
00010000
00000001
00001000
00000001
00001000
00000001
00001000
00000001
,
00001000
00000100
00000010
00000001
00020000
00000000
00000000
00000000
,
00031000
00100000
00001000
10000000
01000000
00001000
01000000
10000000
,
00001000
00010000
00001000
01000000
00100000
00000000
10000000
00001000
,
00010000
00000100
00010000
00000001
00000100
00010000
00000100
00000001
,
00010000
00000100
00000010
00000001
00010000
00000000
00001000
00010000
,
00000001
00000100
00001000
00000100
00000001
00000010
00001000
00000010
,
00000001
00000100
00010000
00000100
00000001
00000010
00000100
00010000
,
00002000
00000000
00000000
00000000
,
00000000
00000000
00003000
00000000
,
00000100
00000010
00000100
00010000
00000100
00000010
00000100
00010000
,
00000002
00000000
00010000
00000000
00000000
00000000
00010003
00001000
,
00100000
01000000
00100000
00001000
00100000
01000000
00100000
00001000
,
00020000
00000000
00001000
00000000
00000000
00000000
00031000
00010000
,
00000001
00000100
00000010
00001000
00000100
00000001
00000100
00001000
,
00000010
00000001
00000010
00001000
00000001
00000100
00000010
00010000
,
00001000
10000000
00010000
10000000
00010000
10000000
00010000
10000000
,
00010000
00100000
01000000
10000000
00001000
00000000
00000000
00000000
,
00010000
00000001
00001000
00000100
00001000
00000001
00001000
00000010
,
00010010
00011000
00101000
00100000
,
00001000
10000000
01000000
10000000
00010000
10000000
01000000
10000000
,
10001000
00011000
00010100
00000000
,
00001000
01000000
10000000
01000000
00001000
00010000
00000100
00000001
,
00000100
00010000
00001000
01000000
00100000
10000000
00001000
00010000
,
00002000
00000000
00000000
00000000
,
00000000
00000000
00003000
00000000
,
00011000
00000000
00011000
00000000
00000000
00010001
00000000
00010001
,
00000000
00000001
00000010
00000100
00010000
00000000
00010000
00000000
,
00011000
00000000
00011000
00000000
00000000
10001000
00000000
10001000
,
00000000
10000000
00100000
01000000
00001000
00000000
00000000
00000000
,
00011000
00000000
00011000
00000000
00000000
00010001
00000000
00010001
,
00000000
00000001
00000100
00000010
00010000
00000000
00010000
00000000
,
00011000
00000000
00011000
00000000
00000000
10001000
00000000
10001000
;

//---------------dance-double - ----------------
#NOTES:
     dance-double:
     :
     Easy:
     6:
     0.304,0.354,0.162,0.045,0.000:
10010000
00000000
10000000
00000000
00010000
00000000
00000000
01000000
,
00000000
01000000
00000000
00000000
00010000
00000000
00100000
00000000
,
00001000
00000000
00010000
00000000
00001000
00000000
00000000
00010000
,
00000000
00010000
00000000
00000000
00001000
00000000
00010000
00000000
,
00000100
00000000
00000000
00000000
,
00001000
00000000
00000000
00000000
,
00000001
00000000
00000000
00000000
,
00000010
00000000
00000000
00000000
,
00001001
00000000
00000000
00000000
,
00000001
00000000
00000000
00000000
,
00001001
00000000
00000000
00000000
,
00001000
00000000
00000000
00000000
,
00001001
00000000
00000001
00000000
00000000
00001000
00000000
00001000
,
00000000
00000000
00000000
00000000
,
00011000
00000000
00001000
00000000
00000000
00010000
00000000
00010000
,
00000000
00000000
00000000
00000000
,
10010000
00000000
10000000
00000000
00000000
00010000
00000000
00010000
,
00000000
00000000
00000000
00000000
,
00011000
00000000
00010000
00000000
00000000
00001000
00000000
00001000
,
00000000
00000000
00000000
00000000
,
10000000
01000000
10000000
01000000
,
10000000
00010000
10000000
00000000
,
00100000
01000000
00100000
01000000
,
00100000
10000000
00100000
00000000
,
10000000
00010000
10000000
00010000
,
10000000
00010000
00100000
00000000
,
00010000
01000000
00010000
01000000
,
00001000
00010000
00001000
00000000
,
00011000
00000000
00010000
00000000
00000000
00001000
00000000
00001000
,
00000000
00000000
00000000
00000000
,
00001001
00000000
00000001
00000000
00000000
00001000
00000000
00001000
,
00000000
00000000
00000000
00000000
,
00011000
00000000
00001000
00000000
00000000
00010000
00000000
00010000
,
00000000
00000000
00000000
00000000
,
10010000
00000000
10000000
00000000
00000000
00010000
00000000
00010000
,
00000000
00000000
00000000
00000000
,
10010000
00000000
10000000
00000000
,
01000000
00000000
00100000
00000000
,
00001000
00010000
00001000
00010000
,
00001000
00000000
00000000
00000000
,
00000001
00001000
00000001
00001000
,
00000010
00001000
00000001
00000000
,
00000010
00000001
00000010
00000001
,
00000100
00000010
00000100
00000000
,
00000001
00001000
00000001
00001000
,
00000100
00001000
00000100
00010000
,
00001000
00010000
00001000
00010000
,
00001000
01000000
00100000
00000000
,
01000000
00010000
01000000
00010000
,
01000000
00010000
10000000
00000000
,
00100000
01000000
00100000
01000000
,
00010000
00100000
00001000
00010000
,
00001000
00010000
00001000
00010000
,
00001000
00010000
00001000
00010000
,
00000020
00000000
00000000
00000000
,
00000000
00000000
00000000
00000000
,
00000130
00000001
00000010
00000100
,
00020000
00000000
00000000
00000000
,
00031000
10000000
01000000
00100000
,
00002000
00000000
00000000
00000000
,
00013000
00000010
00001000
00000010
,
00000100
00000010
00001000
00000001
,
00010000
00001000
00010000
00001000
,
00010000
00001000
00100000
00000000
,
00010000
10000000
00010000
10000000
,
01000000
10000000
00100000
00000000
,
01000000
00100000
01000000
00100000
,
01000000
00010000
10000000
00000000
,
01000000
10000000
01000000
10000000
,
00100000
01000000
00001000
00010000
,
00022000
00000000
00000000
00000000
,
00000000
00000000
00033000
00000000
,
00011000
00000000
00010000
00000000
00000000
00001000
00000000
00001000
,
00000000
00000000
00010000
00000001
,
00001001
00000000
00001000
00000000
00000000
00000001
00000000
00000001
,
00000000
00000000
00010000
00001000
,
00011000
00000000
00001000
00000000
00000000
00010000
00000000
00010000
,
00000000
00000000
00001000
10000000
,
10010000
00000000
00010000
00000000
00000000
10000000
00000000
10010000
;

//---------------dance-double - ----------------
#NOTES:
     dance-double:
     :
     Challenge:
     15:
     0.726,0.708,0.422,0.206,0.238:
00012000
00000000
01003000
00100000
01000000
00100000
20000000
00001000
,
00000000
00000000
00000000
30001000
00000000
00000000
10000000
00000000
00000000
00000000
00000000
00000000
01000000
00000000
10000000
00000000
01000000
00000000
10000000
00000000
01000000
00000000
10000000
00000000
,
00002000
00000000
00013000
00000100
00010000
00000100
00002000
00000001
,
00000000
00003001
00001000
00000000
00000001
00000010
00000100
00010000
,
00001000
01000000
01000000
01000000
01000000
00000000
00010000
00100000
,
01000000
10000000
01000000
00100000
00010000
00000000
00000000
00000000
,
01000000
00001000
00001000
00001000
00001000
00000000
00010000
00000010
,
00000100
00000000
00000000
00000001
00000000
00000000
00000100
00000000
00000000
00000010
00000000
00000000
00010000
00000000
00000000
00000000
00010000
00000000
00000000
00000000
00010000
00000000
00000000
00000000
,
00001000
00100000
00100000
00100000
00100000
00000000
00001000
10000000
,
01000000
00100000
01000000
10000000
00001000
00000000
00000000
00000000
,
00010000
00000100
00000100
00000100
00000100
00000000
00010000
00000001
,
00000100
00000000
00000000
00000010
00000000
00000000
00000100
00000000
00000000
00000001
00000000
00000000
00010000
00000000
00001000
00000000
00010000
00000000
00001000
00000000
01000000
00000000
00100000
00000000
,
01000000
00000000
01100000
00000000
00010000
00110000
00000000
00110000
,
00000000
00000000
00000000
00000000
00000000
00000000
10000000
00000000
00000000
00010000
00000000
00000000
10000000
00000000
00000000
00000000
00000000
00000000
00010000
00000000
00000000
00000000
00000000
00000000
01000000
00000000
00000000
00000000
00001000
00000000
00000000
00000000
01000000
00000000
00000000
00000000
00001000
00000000
00000000
00000000
00010000
00000000
00000000
00000000
00001000
00000000
00000000
00000000
,
00010000
00000000
00011000
00000000
00000010
00001010
00000000
00001010
,
00000000
00000000
00000001
00001000
00000001
00000000
00001000
00000000
00000100
00000000
00000000
00000000
00000000
00000000
00000000
00000000
,
00011000
00000000
00011000
00000000
01000000
01100000
00000000
01100000
,
00000000
00000000
00000000
00000000
00000000
00000000
10000000
00000000
00000000
00010000
00000000
00000000
10000000
00000000
00000000
00000000
00000000
00000000
00010000
00000000
00000000
00000000
00000000
00000000
01000000
00000000
00000000
00000000
00100000
00000000
00000000
00000000
01000000
00000000
00000000
00000000
00001000
00000000
00000000
00000000
00010000
00000000
00000000
00000000
00001000
00000000
00000000
00000000
,
00010000
00000000
00011000
00000000
00000001
00000011
00000000
00000011
,
00000000
00000000
00000000
00000002
00000000
00000000
00000000
00000000
00000000
00000000
00000000
00000000
00000013
00000000
00000100
00000000
00010000
00000000
00001000
00000000
01000000
00000000
00100000
00000000
,
10000000
01000000
00010000
01000000
10000000
00000000
00001000
10000000
,
01000000
00000000
00000000
00010000
00000000
00000000
01000000
00000000
00000000
10000000
00000000
00000000
00001000
00000000
00000000
00010000
00000000
00000000
00001000
00000000
00010000
00000000
00000010
00000000
,
00001000
00000010
00000001
00000010
00001000
00000000
00000001
00001000
,
00000010
00000000
00000000
00000001
00000000
00000000
00000010
00000000
00000000
00010000
00000000
00000000
00002000
00000000
00000000
00000000
00000000
00000000
00013000
00000000
00000100
00000000
00001000
00000000
,
00000001
00000010
00001000
00000010
00000001
00000000
00010000
00000001
,
00000100
00000000
00000000
00001000
00000000
00000000
00000100
00000000
00000000
00000001
00000000
00000000
00010000
00000000
00000000
00001000
00000000
00000000
00010000
00000000
00001000
00000000
01000000
00000000
,
00010000
01000000
10000000
01000000
00010000
00000000
10000000
00010000
,
00100000
10000000
00100000
00001000
00020000
00000000
00000000
00000000
,
00031000
00000000
00011000
00000000
00000010
00010010
00000000
00010010
,
00000000
00000000
00000000
00000000
00000000
00000000
00000010
00000000
00000000
00010000
00000000
00000000
00000010
00000000
00000000
00000000
00000000
00000000
00010000
00000000
00000000
00000000
00000000
00000000
00001000
00000000
00000000
00000000
01000000
00000000
00000000
00000000
00100000
00000000
00000000
00000000
10000000
00000000
00000000
00000000
00100000
00000000
00000000
00000000
01000000
00000000
00000000
00000000
,
00001000
00000000
00011000
00000000
01000000
01001000
00000000
01001000
,
00000000
00000000
00001000
01000000
00001000
00000000
00100000
00000000
01000000
00000000
00000000
00000000
00000000
00000000
00000000
00000000
,
10010000
00000000
10010000
00000000
00100000
00101000
00000000
00101000
,
00000000
00000000
00000000
00000000
00000000
00000000
00001000
00000000
00000000
00100000
00000000
00000000
00001000
00000000
00000000
00000000
00000000
00000000
10000000
00000000
00000000
00000000
00000000
00000000
00100000
00000000
00000000
00000000
01000000
00000000
00000000
00000000
00001000
00000000
00000000
00000000
00010000
00000000
00000000
00000000
00001000
00000000
00000000
00000000
01000000
00000000
00000000
00000000
,
00100000
00000000
01100000
00000000
10000000
10010000
00000000
10010000
,
00000000
00000000
00001000
00000000
,
00021000
00000000
00032000
00000000
,
00023000
00000000
00030002
00000000
,
00000000
00000023
00000230
00020300
,
00002000
00000000
00000000
00033000
,
00010000
00010000
00000010
00000100
00000001
00000001
00000010
00000100
,
00010000
00000010
00000001
00000010
00010000
00000000
00001000
00010000
,
00001000
00001000
01000000
00100000
10000000
10000000
01000000
00100000
,
00001000
01000000
10000000
01000000
00001000
00000000
00010000
00000001
,
00001000
00000010
00000001
00000010
00001000
00000100
00000001
00000100
,
00001000
00000010
00000001
00000010
00010000
00001000
00100000
01000000
,
10000000
00001000
00001000
00001000
00001000
00001000
00001000
00001000
,
00011000
00000110
00021000
00000000
,
00031000
00001000
00100000
01000000
10000000
10000000
00100000
01000000
,
00001000
00100000
10000000
00100000
00001000
00000000
00010000
00001000
,
00010000
00010000
00000100
00000010
00000001
00000001
00000100
00000010
,
00010000
00000100
00000001
00000100
00010000
00000000
00001000
10000000
,
00010000
00100000
10000000
00100000
00010000
01000000
10000000
01000000
,
00010000
00100000
10000000
00100000
00001000
00010000
00000100
00000010
,
00000002
00000000
00000000
00000000
,
00000000
00000000
00020003
00000000
,
00030001
00000100
00001000
00000100
00000010
00010000
00001000
01000000
,
00200000
00000000
01000000
00000000
00000000
00000000
01300000
00100000
,
10000000
00100000
00010000
00100000
01000000
00001000
00010000
00000100
,
00000020
00000000
00000100
00000000
00000000
00000000
00000130
00001000
,
00000001
00000100
00001000
00000001
00000010
00001000
00000001
00010000
,
00001000
10000000
01000000
00010000
10000000
00100000
00010000
10000000
,
00001000
00010000
00010000
00010000
00010000
00010000
00010000
00010000
,
00001000
00100000
01000000
00100000
00001000
00000000
00000000
00000000
,
00011000
00010000
00001000
01000000
00010000
00010000
10000000
00010000
,
01000000
10000000
00010000
00100000
10000000
00000000
00001000
00000000
,
00011000
00001000
00010000
00000010
00000100
00000100
00000001
00001000
,
00000100
00000001
00001000
00000010
00000001
00000000
00010000
00000000
,
00001000
00010000
00000001
00000100
00001000
00000100
00000001
00010000
,
00001000
10000000
00100000
00010000
00100000
10000000
00010000
00001000
,
00022000
00000000
00000000
00000000
,
00000000
00000000
00033000
00000000
,
00011000
00000000
00011000
00000000
00000010
00001010
00000000
00001010
,
00000000
00000000
00000000
00000000
00000000
00000000
00001000
00000000
00000000
00000001
00000000
00000000
00000010
00000000
00000000
00000000
00000000
00000000
00000001
00000000
00000000
00000000
00000000
00000000
00000010
00000000
00000000
00000000
00000100
00000000
00000000
00000000
00010000
00000000
00000000
00000000
00001000
00000000
00000000
00000000
01000000
00000000
00000000
00000000
00100000
00000000
00000000
00000000
,
01000000
00000000
01100000
00000000
00001000
00011000
00000000
00011000
,
00000000
00000000
00010000
01000000
00100000
00000000
01000000
00000000
00002000
00000000
00000000
00000000
00000000
00000000
00000000
00000000
,
00013000
00000000
00011000
00000000
00000001
00000011
00000000
00000011
,
00000000
00000000
00000000
00000000
00000000
00000000
00000010
00000000
00000000
00000001
00000000
00000000
00001000
00000000
00000000
00000000
00000000
00000000
00000010
00000000
00000000
00000000
00000000
00000000
00010000
00000000
00000000
00000000
00001000
00000000
00000000
00000000
01000000
00000000
00000000
00000000
00100000
00000000
00000000
00000000
10000000
00000000
00000000
00000000
00100000
00000000
00000000
00000000
,
01000000
00000000
01100000
00000000
00010000
00011000
00000000
00011000
;

//---------------dance-single - ----------------
#NOTES:
     dance-single:
     :
     Beginner:
     4:
     0.146,0.177,0.144,0.000,0.000:
0001
0000
0000
0000
,
0001
0000
0000
0000
,
1000
0000
0000
0000
,
1000
0000
0000
0000
,
1001
0000
0000
0000
,
0001
0000
0000
0000
,
1000
0000
0000
0000
,
0001
0000
0000
0000
,
0110
0000
0000
0000
,
0100
0000
0000
0000
,
0010
0000
0000
0000
,
0100
0000
0000
0000
,
1001
0000
0000
0000
,
0001
0000
0000
0000
,
1001
0000
0000
0000
,
1000
0000
0000
0000
,
1001
0000
0000
0000
,
0001
0000
0000
0000
,
1001
0000
0000
0000
,
1000
0000
0000
0000
,
0010
0000
0100
0000
,
0010
0000
0000
0000
,
0100
0000
0010
0000
,
0100
0000
0000
0000
,
0001
0000
1000
0000
,
0001
0000
0000
0000
,
1000
0000
0001
0000
,
1000
0000
0000
0000
,
1001
0000
0000
0000
,
0001
0000
0000
0000
,
1001
0000
0000
0000
,
1000
0000
0000
0000
,
0110
0000
0000
0000
,
0010
0000
0000
0000
,
0110
0000
0000
0000
,
0100
0000
0000
0000
,
1001
0000
0000
0000
,
0000
0000
0000
0000
,
0000
0000
0000
0000
,
0000
0000
0000
0000
,
0001
0000
1000
0000
,
0001
0000
0000
0000
,
1000
0000
0001
0000
,
1000
0000
0000
0000
,
0001
0000
0010
0000
,
0001
0000
0010
0000
,
0001
0000
0000
0000
,
0001
0000
0000
0000
,
1000
0000
0100
0000
,
1000
0000
0000
0000
,
0010
0000
0100
0000
,
0010
0000
0000
0000
,
1000
0000
0100
0000
,
1000
0000
0100
0000
,
1000
0000
0000
0000
,
0000
0000
0000
0000
,
1001
0000
0001
0000
,
1000
0000
0000
0000
,
0001
0000
1000
0000
,
0100
0000
0000
0000
,
1000
0000
0001
0000
,
1000
0000
0001
0000
,
0100
0000
0100
0000
,
0100
0000
0000
0000
,
0010
0000
0100
0000
,
0001
0000
0010
0000
,
0001
0000
1000
0000
,
0001
0000
1000
0000
,
0001
0000
0010
0000
,
0001
0000
0100
0000
,
0010
0000
0000
0000
,
0000
0000
0000
0000
,
0110
0000
0000
0000
,
0010
0000
0000
0000
,
1001
0000
0000
0000
,
1000
0000
0000
0000
,
0110
0000
0000
0000
,
0100
0000
0000
0000
,
1001
0000
0000
0000
,
0001
0000
0000
0000
;
