#TITLE:birdman;
#SUBTITLE:;
#ARTIST:NM feat. TIME;
#TITLETRANSLIT:;
#SUBTITLETRANSLIT:;
#ARTISTTRANSLIT:;
#CREDIT:DigiMindAxel;
#BANNER:birdman.png;
#BACKGROUND:birdman-bg.png;
#LYRICSPATH:birdman.lrc;
#CDTITLE:beatmania.png;
#MUSIC:birdman.ogg;
#METERTYPE:DDR X;
#OFFSET:-7.858;
#SAMPLESTART:44.094;
#SAMPLELENGTH:12.000;
#SELECTABLE:YES;
#BPMS:0.000=130.000;
#STOPS:;
#BGCHANGES:;

//---------------dance-single - ----------------
#NOTES:
     dance-single:
     :
     Easy:
     3:
     0.131,0.196,0.000,0.033,0.000:
0000
0001
0000
0001
,
0000
0001
0000
1000
,
0000
1000
0000
1000
,
0000
1000
0000
0000
,
0010
0000
0100
0000
,
0010
0000
0000
0000
,
1000
0000
0001
0000
,
1000
0000
0000
0000
,
0010
0000
1000
0000
,
0010
0000
0000
0000
,
0100
0000
0001
0000
,
0100
0000
0000
0000
,
0001
0001
0001
0000
,
0001
0000
0000
0000
,
1000
1000
1000
0000
,
1000
0000
0000
0000
,
0100
0100
0100
0000
,
0100
0000
0000
0000
,
0010
0010
0010
0000
,
0010
0000
0000
0000
,
0001
0000
0001
0000
,
1000
0000
1000
0000
,
0100
0000
0010
0000
,
0001
0000
0000
0000
,
0100
0000
0100
0000
,
0010
0000
0010
0000
,
1000
0000
0100
0000
,
0010
0000
0000
0000
,
0001
1000
0000
1000
,
0000
0010
0000
0010
,
0000
0100
0000
0100
,
0000
0000
0000
0000
,
0001
1000
0000
1000
,
0000
0100
0000
0100
,
0000
0010
0000
0010
,
0000
0001
0000
0001
,
2000
0000
0000
0000
,
0000
0000
0000
0000
,
3002
0000
0000
0000
,
0000
0000
0000
0000
,
1003
0001
1000
0000
,
0100
1000
0100
0000
,
0010
0001
0010
0000
,
0001
1000
0001
0100
,
0020
0000
0000
0030
;

//---------------dance-single - ----------------
#NOTES:
     dance-single:
     :
     Challenge:
     11:
     0.467,0.440,0.055,0.098,0.443: // measure 1
1000
0100
0010
0002
0000
0000
1003
0000
,  // measure 2
0000
0000
0010
0000
0000
1000
0000
0000
0100
0000
0000
0000
1100
0000
0000
0000
,  // measure 3
1000
0100
0010
0002
0000
0000
1003
0000
,  // measure 4
0000
0000
0100
0000
0000
1000
0000
0000
0001
0000
0000
0000
0101
0000
0000
0000
,  // measure 5
0200
0000
0000
0000
0301
0000
0000
0001
1000
0000
0100
0000
1000
0000
0000
0000
,  // measure 6
0001
0000
0000
0000
0100
0000
0000
0100
0010
0000
0100
0000
0001
0000
0000
0000
,  // measure 7
2000
0000
0000
0000
3001
0000
0000
1000
0010
0000
0100
0000
0010
0000
0000
0000
,  // measure 8
1000
0000
0000
0000
0010
0000
0000
0010
0100
0000
0002
0000
0000
0000
0000
0000
,  // measure 9
1003
0000
0100
0000
1000
0000
0000
1000
0001
0000
0010
0000
0100
0000
0000
0000
,  // measure 10
1000
0000
0001
0000
1000
0000
0000
1000
0001
0000
0020
0000
0000
0000
0000
0000
,  // measure 11
0031
0000
0100
0000
0010
0000
0000
0010
1000
0000
0001
0000
1000
0000
0000
0000
,  // measure 12
0100
0000
0010
0000
0100
0000
0000
0100
1000
0000
0002
0000
0000
0000
0000
0000
,  // measure 13
1003
0000
1000
0000
0001
0100
0000
0100
0000
0010
0000
1000
0001
0000
0000
0000
,  // measure 14
0010
0000
0000
0001
1000
0000
0000
0000
0100
0000
0000
0010
0100
0000
0000
0000
,  // measure 15
1000
0000
1000
0000
0001
0010
0000
0010
0000
0100
0000
1000
0001
0000
0000
0000
,  // measure 16
1000
0000
0000
0100
1000
0000
0000
0000
0010
0000
0200
0000
0000
0000
0000
0000
,  // measure 17
0301
0000
0001
0000
1000
0010
0000
0010
0000
0100
0000
0001
1000
0000
0000
0000
,  // measure 18
0100
0000
0000
0000
0010
0000
0000
0001
0100
0000
0010
0000
0100
0000
0000
0000
,  // measure 19
0001
0000
0001
0000
1000
0100
0000
0100
0000
0010
0000
0001
1000
0000
0000
0000
,  // measure 20
0010
0000
0000
0010
0000
0000
0020
0000
0000
0000
0100
0000
0130
0000
0000
0000
,  // measure 21
1000
0000
0000
1000
0001
0000
0000
0001
0100
0000
0010
0000
0100
0000
0000
0000
,  // measure 22
0001
0000
0000
0001
1000
0000
0100
0000
0010
0000
0100
0000
1000
0000
0000
0000
,  // measure 23
0001
0000
0000
0001
1000
0000
0000
1000
0100
0000
0010
0000
0100
0000
0000
0000
,  // measure 24
1000
0000
0000
1000
0001
0000
0100
0000
0010
0000
0100
0000
0001
0000
0000
0000
,  // measure 25
0010
0000
0000
0010
0100
0000
0000
0100
1000
0000
0001
0000
0100
0000
0000
0000
,  // measure 26
0010
0000
0000
0010
1000
0000
0100
0000
0010
0000
0001
0000
1000
0000
0000
0000
,  // measure 27
0010
0000
0000
0010
0100
0000
0000
0100
0001
0000
0010
0000
0100
0000
0000
0000
,  // measure 28
1000
0000
0000
1000
0001
0000
0010
0000
0001
0000
0100
0000
0010
0000
0000
0000
,  // measure 29
1000
0000
0100
0000
1000
0001
0000
0001
0000
0000
0100
0010
0000
0010
0000
0000
,  // measure 30
1000
0001
0000
0001
1000
0000
0100
0000
0010
0000
0100
0000
1000
0000
0000
0000
,  // measure 31
0001
0000
0001
0000
0100
0010
0000
0010
0000
0000
1000
0001
0000
0001
0000
0000
,  // measure 32
0000
0000
0000
1001
,  // measure 33
0001
0000
0001
0000
0100
0001
0000
0001
0000
0000
0010
0100
0000
0100
0000
0000
,  // measure 34
1000
0001
0000
0001
1000
0000
0010
0000
0100
0000
0010
0000
1000
0000
0000
0000
,  // measure 35
0001
0000
0001
0000
0100
0001
0000
0001
0000
0000
0010
0100
0000
0100
0000
0000
,  // measure 36
1000
0001
0000
0001
1000
0000
0001
0000
0010
0000
0100
0000
0010
0000
0000
0000
,  // measure 37
0000
0000
1001
0000
0000
0000
0000
0000
0000
0000
0010
0000
0000
0010
0000
0000
,  // measure 38
0000
0000
0010
0000
0000
0000
0000
0000
0000
0000
1000
0000
0000
1000
0000
0000
,  // measure 39
0000
0000
0001
0000
0000
0000
0000
0000
0000
0000
0100
0000
0000
0100
0000
0000
,  // measure 40
0000
0000
0100
0000
0000
0000
0000
0000
0000
0010
0000
0000
0010
0000
0000
0000
,  // measure 41
0001
0000
1000
0010
1000
0000
0100
0000
0010
0000
0001
0000
0000
0001
0000
0000
,  // measure 42
1000
0000
0010
0100
0010
0000
1000
0000
0100
0000
0010
0000
0000
0010
0000
0000
,  // measure 43
0001
0000
1000
0001
1000
0000
0100
0000
0010
0000
0100
0000
0000
0100
0000
0000
,  // measure 44
1000
0000
0001
0100
0001
0000
0010
0000
0100
1000
0000
0000
1001
0000
0000
0000
,  // measure 45
1000
0000
1000
0000
0001
0100
0000
0100
0000
0001
0000
1000
0000
0000
0000
0000
;

//---------------dance-single - ----------------
#NOTES:
     dance-single:
     :
     Hard:
     9:
     0.383,0.367,0.175,0.088,0.170:
2000
0100
0000
0001
,
0000
3100
0110
0110
,
0002
0100
0000
1000
,
0000
0103
0110
0110
,
0102
0000
0000
0000
1003
0000
0000
0010
0100
0000
0100
0000
0001
0000
0000
0000
,
0010
1000
0010
0001
,
0100
0000
0000
0000
0010
0000
0000
1000
0001
0000
0001
0000
1000
0000
0000
0000
,
0100
0000
0001
0000
0100
2000
0000
0000
,
3001
0000
0010
0000
0100
0000
0000
1000
0001
0000
0001
0000
1000
0000
0000
0000
,
0100
0010
0001
1000
0000
0020
0000
0000
,
1030
0000
0010
0000
0100
0000
0000
0001
1000
0000
1000
0000
0001
0000
0000
0000
,
0100
0000
0000
0010
0000
0000
0100
0000
0000
0000
0002
0000
0000
0000
0000
0000
,
1003
0000
1000
0000
0010
0000
0000
0010
0000
0000
0000
1001
0000
0000
0000
0000
,
0100
0010
0100
0000
0001
1000
0100
0000
,
0010
0000
0010
0000
0100
0000
0000
0100
0000
0000
0000
1010
0000
0000
0000
0000
,
0010
0100
0010
0000
1000
0002
0000
0000
,
1003
0000
1000
0000
0010
0000
0000
0010
0000
0000
0000
0110
0000
0000
0000
0000
,
1000
0001
1000
0000
0010
1000
0100
0000
,
1000
0000
1000
0000
0001
0000
0000
0001
0000
0000
0000
0011
0000
0000
0000
0000
,
0200
0000
0000
0010
0000
0000
0310
0000
0000
0000
0000
0000
0000
0000
0000
0000
,
1000
0000
0001
0100
0000
0000
0001
0010
,
0100
0000
0000
1000
0000
0000
0010
0000
0000
0000
0000
0000
0100
0000
0001
0000
,
1000
0000
0000
1000
0000
0000
1000
0000
0001
0000
0000
0001
0000
0000
0001
0000
,
0100
0000
0000
0010
0000
0000
1000
0000
0000
0000
0001
0000
1000
0000
0100
0000
,
0010
0000
0000
0001
0000
0000
0100
0000
0000
0000
0001
0000
0010
0000
0100
0000
,
1000
0000
0000
0010
0000
0000
0100
0000
0000
0000
0000
0000
0010
0000
1000
0000
,
0001
0000
0000
0001
0000
0000
0001
0000
1000
0000
0000
1000
0000
0000
1000
0000
,
0010
0000
0000
0100
0000
0000
0001
0000
1000
0000
0000
0000
0001
0000
0010
0000
,
0100
0010
0100
1000
0000
0010
0010
0100
,
0001
0100
1000
0100
,
0001
0010
0100
0010
0100
1000
0010
0000
,
0000
0000
0000
1001
,
0010
0000
0001
0000
1000
0000
0000
1000
0000
0000
0000
0000
0100
0000
0010
0000
,
0001
0010
0100
0000
0010
0001
1000
0000
,
0010
0000
1000
0000
0001
0000
0000
0001
0000
0000
0000
0000
0100
0000
0010
0000
,
0100
0001
0010
0100
1000
0100
0010
0000
,
0000
1001
0000
0000
0000
0000
0000
0000
,
0000
1100
0000
0000
0000
0000
0000
0000
,
0000
0110
0000
0000
0000
0000
0000
0000
,
0000
0011
0000
0000
0000
0000
0000
0000
,
0001
0000
0000
0001
1000
0000
0000
0000
0100
0000
0010
0000
0100
0000
1000
0000
,
0001
0000
0000
0001
1000
0000
0000
0000
0100
0000
0010
0000
0001
0000
0010
0000
,
0100
0000
0000
0100
1000
0000
0000
0000
0010
0000
0100
0000
0001
0000
0010
0000
,
0001
0000
0000
0001
1000
0000
0100
0000
0010
0000
0100
0000
1000
0000
0000
0000
,
0010
0000
0010
0000
0100
0000
0000
0110
0000
0000
0000
0101
0000
0000
0000
0000
;

//---------------dance-single - ----------------
#NOTES:
     dance-single:
     :
     Beginner:
     1:
     0.081,0.096,0.044,0.000,0.000:
1000
0000
0000
0000
,
1000
0000
0000
0000
,
0001
0000
0000
0000
,
0001
0000
0000
1001
,
0000
0000
0000
0000
,
1000
0000
0000
0010
,
0000
0000
0000
0000
,
0000
0000
0000
0110
,
0000
0000
0000
0100
,
0000
0000
0000
0010
,
0000
0000
0000
0000
,
0000
0000
0000
1001
,
0000
0000
0000
0100
,
0000
0000
0000
1000
,
0000
0000
0000
0001
,
0000
0000
0000
0010
,
0000
0000
0000
0001
,
0000
0000
0000
1000
,
0000
0000
0000
0001
,
0000
0000
0000
0110
,
0000
0000
0000
0010
,
0000
0000
0000
0100
,
0000
0000
0000
0001
,
0000
0000
0000
1000
,
0000
0000
0000
0001
,
0000
0000
0000
1000
,
0000
0000
0000
0100
,
0000
0000
0000
1000
,
0000
1000
0000
1000
,
0000
0000
0000
0001
,
0000
0001
0000
0001
,
0000
0000
0000
0100
,
0000
0100
0000
0100
,
0000
0000
0000
0010
,
0000
0010
0000
0010
,
0000
0000
0000
1000
,
0000
0000
0000
0000
,
0000
0000
0000
0000
,
0000
0000
0000
0000
,
0000
0000
0000
0001
,
0000
0001
0000
1000
,
0000
1000
0000
0100
,
0000
0100
0000
0010
,
0000
0010
0000
0100
;

//---------------dance-single - ----------------
#NOTES:
     dance-single:
     :
     Medium:
     6:
     0.269,0.269,0.011,0.098,0.000:
1000
1000
1000
1000
,
1000
0100
0010
0001
,
0001
0001
0001
0001
,
0001
0010
0100
1000
,
0100
1000
0010
0100
,
0000
0100
0000
0100
,
0001
1000
0010
0100
,
0000
0100
0000
0100
,
0001
0010
0100
0010
,
0000
0010
0000
0010
,
0001
1000
0010
0100
,
0000
0100
0001
0010
,
0100
0100
0100
0000
1000
0000
0100
0000
,
0000
1000
0000
0001
,
0100
0100
0100
0000
0010
0000
0100
0000
,
0000
0001
0000
0010
,
0100
0100
0100
0000
0010
0000
0001
0000
,
0000
1000
0000
0010
,
1000
1000
1000
0000
0001
0000
0010
0000
,
0100
0000
0000
0000
,
1000
0000
0010
0000
0100
0001
1000
0000
,
0100
0000
0010
0000
0001
1000
0100
0000
,
2000
3100
0020
0130
,
2000
3001
0000
1000
,
0100
0000
0010
0000
0001
1000
0100
0000
,
1000
0000
0001
0000
0100
0001
1000
0000
,
0200
1300
0020
0130
,
0002
1003
0000
0000
,
0001
0100
0001
0000
1000
0001
1000
0000
,
0100
0010
0100
1000
,
0001
1000
0001
0000
0100
0010
0100
0000
,
0000
0000
0000
1001
,
1000
0010
1000
0000
0001
1000
0001
0000
,
0010
0100
0000
1000
,
0001
0010
0001
0000
1000
0001
1000
0000
,
0100
0010
0001
1000
,
0200
0000
0000
0000
,
0000
0000
0000
0000
,
0320
0000
0000
0000
,
0000
0000
0000
0000
,
0130
0000
1000
0000
0100
0010
0001
0000
,
0010
0000
0100
0000
1000
0001
0100
0000
,
0001
0000
1000
0000
0100
0010
0001
0000
,
0100
0000
0001
0000
1000
0010
0100
0000
,
0010
0010
0020
0000
0000
0000
0030
0000
;

//---------------dance-double - ----------------
#NOTES:
     dance-double:
     :
     Easy:
     3:
     0.159,0.196,0.000,0.055,0.000:
10000000
00000000
01000000
00000000
,
10000000
00000000
00100000
00000000
,
01000000
00000000
00010000
00000000
,
00100000
00000000
00001000
00001000
,
00010000
00000000
00000100
00000000
,
00000010
00000000
00000001
00000000
,
00000010
00000000
00000100
00000000
,
00010000
00000000
00002000
00000000
,
00013000
00001000
00010000
00000000
,
00001000
00000000
01000000
00000000
,
00100000
01000000
00100000
00000000
,
10000000
00000000
01000000
00000000
,
10000000
10000000
10000000
00000000
,
00001000
00000000
00000000
00000000
,
00010000
00010000
00010000
00000000
,
00000100
00000000
00000000
00000000
,
00000010
00000010
00000010
00000000
,
00000001
00000000
00000000
00000000
,
00000100
00000100
00000100
00000000
,
00000010
00000000
00000000
00000000
,
00010000
00000000
00001000
00000000
,
01000000
00000000
00100000
00000000
,
10000000
00000000
00100000
00000000
,
01000000
00000000
00000000
00000000
,
00010000
00000000
00001000
00000000
,
00000100
00000000
00000010
00000000
,
00000001
00000000
00000010
00000000
,
00000100
00000000
00000000
00000000
,
00010000
00001000
00010000
00000000
,
00001000
01000000
00001000
00000000
,
10000000
00100000
10000000
00000000
,
00020000
00000000
00000000
10030000
,
00010000
00100000
00010000
00000000
,
01000000
00100000
01000000
00000000
,
00001000
00010000
00001000
00000000
,
00010000
00000100
00010000
00000100
,
00020000
00000000
00000000
00000000
,
00000000
00000000
00000000
00000000
,
00030002
00000000
00000000
00000000
,
00000000
00000000
00000000
00000000
,
00000013
00000100
00000010
00000000
,
00000001
00001000
00000001
00000000
,
00010000
00000100
00010000
00000000
,
00001000
00100000
00001000
00100000
,
02000000
00000000
00000000
03000000
;

//---------------dance-double - ----------------
#NOTES:
     dance-double:
     :
     Medium:
     7:
     0.309,0.318,0.044,0.131,0.000:
20000000
00010000
00000000
30010000
,
10000000
01000000
00100000
00011000
,
00002000
00000100
00000000
00003100
,
00001000
00000010
00000100
00001001
,
00000110
00000010
00000100
00001000
,
00000001
00010000
00010000
00001000
,
00001000
00100000
01000000
00100000
,
00010000
00010000
10000000
10000000
,
00100000
01000000
00100000
00000000
10000000
00000000
01000000
00000000
,
00100000
00001000
00010000
00000100
,
00000010
00000001
00000010
00000000
00000100
00000000
00010000
00000000
,
00001000
00100000
01000000
10000000
,
00010000
10000000
00010000
10000000
00001000
00000000
00001000
00000000
,
00000000
00010000
00001000
00010000
,
00000010
00000100
00000010
00000100
00000001
00000000
00000001
00000000
,
00000000
00000010
00000100
00000010
,
00000001
00001000
00000001
00001000
00000100
00000000
00000100
00000000
,
00000000
00010000
00001000
00010000
,
00001000
01000000
00001000
01000000
00100000
00000000
00100000
00000000
,
20000000
00000000
00000000
30000000
,
00010000
00000000
10000000
00000000
01000000
00100000
00010000
00000000
,
00001000
00000000
00000100
00000000
00000010
00000001
00001000
00000000
,
00000020
00001030
00000002
00001003
,
00000200
00000000
00010300
00000000
00000000
00000000
00001000
00010000
,
00001000
00000000
00100000
00000000
01000000
00100000
00010000
00000000
,
00001000
00000000
00010000
00000000
00000010
00000100
00000001
00000000
,
00000200
00000310
00020000
00031000
,
00200000
01300000
00000000
00000000
,
10000000
00100000
10000000
00000000
01000000
00100000
01000000
00000000
,
10000000
00010000
00100000
01000000
,
10000000
00100000
10000000
00000000
00001000
00010000
00001000
00000000
,
00000000
00000000
00000000
00011000
,
00010000
00000100
00010000
00000000
00000010
00000100
00000001
00000000
,
00001000
00000100
00000010
00000001
,
00010000
00000100
00010000
00000000
00001000
00100000
01000000
00000000
,
10000000
01000000
00100000
00000000
00001000
00000000
00010000
00000000
,
00002000
00000000
00000000
00000000
,
00000000
00000000
00000000
00000000
,
00023000
00000000
00000000
00000000
,
00000000
00000000
00000000
00000000
,
00030010
00000100
00000001
00000000
00000100
00000010
00010000
00000000
,
00001000
00100000
01000000
00000000
10000000
01000000
00100000
00000000
,
00001000
00000000
00010000
00000000
00000100
00000010
00000001
00000000
,
00000100
00000010
00010000
00000000
00001000
01000000
00100000
00000000
,
10000000
00010000
20000000
00000000
00000000
00000000
30000000
00000000
;

//---------------dance-double - ----------------
#NOTES:
     dance-double:
     :
     Hard:
     9:
     0.375,0.367,0.164,0.055,0.170:
10000000
01000000
10000000
00010000
,
10000000
01000000
00101000
00101000
,
00001000
00010000
00000100
00000010
,
00000100
00010000
00011000
00011000
,
00010010
00000000
00000000
00000000
00000010
00000000
00000000
00000100
00000001
00000000
00000000
00000000
00000010
00000000
00000000
00000000
,
00000100
00010000
00001000
01000000
,
00100000
00000000
00000000
00000000
10000000
00000000
00000000
00010000
10000000
00000000
00000000
00000000
00100000
00000000
00000000
00000000
,
00010000
00000000
00100000
00000000
10000000
00002000
00000000
00000000
,
00013000
00000000
00000010
00000000
00000100
00000000
00000000
00000001
00001000
00000000
00000000
00000000
00000100
00000000
00000000
00000000
,
00010000
00001000
00100000
01000000
00000000
20000000
00000000
00000000
,
30010000
00000000
00100000
00000000
01000000
00000000
00000000
10000000
00010000
00000000
00000000
00000000
01000000
00000000
00000000
00000000
,
00001000
00000000
00000000
00010000
00000000
00000000
00000010
00000000
00000000
00000000
00000200
00000000
00000000
00000000
00000000
00000000
,
00000301
00000000
00000001
00000000
00000010
00000000
00000000
00000100
00000000
00000000
00000000
00011000
00000000
00000000
00000000
00000000
,
01000000
00000000
00100000
00000000
10000000
01000000
00100000
00000000
,
00010000
00000000
00010000
00000000
01000000
00000000
00000000
00001000
00000000
00000000
00000000
00011000
00000000
00000000
00000000
00000000
,
00000100
00000010
00000100
00000000
00000001
00002000
00000000
00000000
,
00003001
00000000
00000001
00000000
00000100
00000000
00000000
00000010
00000000
00000000
00000000
00011000
00000000
00000000
00000000
00000000
,
01000000
00100000
01000000
00000000
00010000
00100000
01000000
00000000
,
10000000
00000000
10000000
00000000
00010000
00000000
00000000
00100000
00000000
00000000
00000000
00011000
00000000
00000000
00000000
00000000
,
00000020
00000000
00000000
00000100
00000000
00000000
00000130
00000000
00000000
00000000
00000000
00000000
00000000
00000000
00000000
00000000
,
00000001
00000000
00001000
00000001
00000000
00000000
00000010
00000100
,
00001000
00000000
00000000
00010000
00000000
00000000
01000000
00000000
00000000
00000000
00000000
00000000
00100000
00000000
10000000
00000000
,
00001000
00000000
00000000
00001000
00000000
00000000
00001000
00000000
00010000
00000000
00000000
00010000
00000000
00000000
00010000
00000000
,
00000010
00000000
00000000
00000100
00000000
00000000
00000001
00000000
00000000
00000000
00001000
00000000
00000001
00000000
00000010
00000000
,
00000100
00000000
00000000
00001000
00000000
00000000
00010000
00000000
00000000
00000000
01000000
00000000
00100000
00000000
10000000
00000000
,
01000000
00000000
00000000
10000000
00000000
00000000
00001000
00000000
00000000
00000000
00000000
00000000
00010000
00000000
00000100
00000000
,
00000010
00000000
00000000
00000010
00000000
00000000
00000010
00000000
00000001
00000000
00000000
00000001
00000000
00000000
00000001
00000000
,
00000100
00000000
00000000
00000010
00000000
00000000
00010000
00000000
00001000
00000000
00000000
00000000
00100000
00000000
01000000
00000000
,
00100000
01000000
10000000
00100000
00000000
10000000
10000000
01000000
,
00100000
00001000
00010000
00000010
,
00001000
00000100
00000010
00000100
00000010
00000001
00000100
00000000
,
00000000
00000000
00000000
00001001
,
00000100
00000000
00001000
00000000
00000001
00000000
00000000
00000001
00000000
00000000
00000000
00000000
00000010
00000000
00000100
00000000
,
00001000
00010000
00100000
00000000
01000000
10000000
00010000
00000000
,
00100000
00000000
00001000
00000000
00010000
00000000
00000000
00010000
00000000
00000000
00000000
00000000
00000010
00000000
00000100
00000000
,
00000010
00001000
00000100
00000010
00000001
00000010
00000100
00000000
,
00000000
00011000
00000000
00000000
00000000
00000000
00000000
00000000
,
00000000
10100000
00000000
00000000
00000000
00000000
00000000
00000000
,
00000000
01100000
00000000
00000000
00000000
00000000
00000000
00000000
,
00000000
00011000
00000000
00000000
00000000
00000000
00000000
00000000
,
00001000
00000000
00000000
00001000
00010000
00000000
00000000
00000000
00000010
00000000
00000100
00000000
00000010
00000000
00010000
00000000
,
00001000
00000000
00000000
00001000
10000000
00000000
00000000
00000000
01000000
00000000
00100000
00000000
00010000
00000000
00100000
00000000
,
01000000
00000000
00000000
01000000
10000000
00000000
00000000
00000000
00100000
00000000
01000000
00000000
00001000
00000000
00010000
00000000
,
00001000
00000000
00000000
00001000
00010000
00000000
00000010
00000000
00000100
00000000
00000010
00000000
00001000
00000000
00000000
00000000
,
00000001
00000000
00000001
00000000
00000010
00000000
00000000
00000100
00000000
00000000
00000000
00011000
00000000
00000000
00000000
00000000
;

//---------------dance-double - ----------------
#NOTES:
     dance-double:
     :
     Challenge:
     11:
     0.461,0.440,0.066,0.098,0.448:
10000000
01000000
00100000
00020000
00000000
00000000
01030000
00000000
,
00000000
00000000
00100000
00000000
00000000
01000000
00000000
00000000
00001000
00000000
00000000
00000000
00011000
00000000
00000000
00000000
,
00010000
00000100
00000010
00000002
00000000
00000000
00001003
00000000
,
00000000
00000000
00000001
00000000
00000000
00000010
00000000
00000000
00000100
00000000
00000000
00000000
00000110
00000000
00000000
00000000
,
00020000
00000000
00000000
00000000
00031000
00000000
00000000
00001000
01000000
00000000
00100000
00000000
01000000
00000000
00000000
00000000
,
00010000
00000000
00000000
00000000
10000000
00000000
00000000
10000000
00010000
00000000
00100000
00000000
00010000
00000000
00000000
00000000
,
02000000
00000000
00000000
00000000
03100000
00000000
00000000
00100000
10000000
00000000
00010000
00000000
10000000
00000000
00000000
00000000
,
00010000
00000000
00000000
00000000
00001000
00000000
00000000
00001000
00000100
00000000
00000020
00000000
00000000
00000000
00000000
00000000
,
00000031
00000000
00000100
00000000
00000001
00000000
00000000
00000001
00000010
00000000
00000100
00000000
00001000
00000000
00000000
00000000
,
00010000
00000000
00001000
00000000
00010000
00000000
00000000
00010000
00001000
00000000
02000000
00000000
00000000
00000000
00000000
00000000
,
03010000
00000000
10000000
00000000
00010000
00000000
00000000
00010000
00100000
00000000
00001000
00000000
00010000
00000000
00000000
00000000
,
00000010
00000000
00000100
00000000
00000010
00000000
00000000
00000010
00001000
00000000
00000002
00000000
00000000
00000000
00000000
00000000
,
00001003
00000000
00001000
00000000
00000100
00010000
00000000
00010000
00000000
00001000
00000000
01000000
00100000
00000000
00000000
00000000
,
10000000
00000000
00000000
00100000
01000000
00000000
00000000
00000000
00001000
00000000
00000000
00001000
00010000
00000000
00000000
00000000
,
00000010
00000000
00000010
00000000
00000100
00000001
00000000
00000001
00000000
00001000
00000000
00000010
00000100
00000000
00000000
00000000
,
00000001
00000000
00000000
00001000
00000100
00000000
00000000
00000000
00001000
00000000
00020000
00000000
00000000
00000000
00000000
00000000
,
00130000
00000000
00100000
00000000
01000000
10000000
00000000
10000000
00000000
00001000
00000000
01000000
00100000
00000000
00000000
00000000
,
10000000
00000000
00000000
01000000
00100000
00000000
00000000
00000000
00001000
00000000
00000000
00010000
00001000
00000000
00000000
00000000
,
00010000
00000000
00010000
00000000
00000010
00001000
00000000
00001000
00000000
00000001
00000000
00000100
00000010
00000000
00000000
00000000
,
00010000
00000000
00000000
00010000
00000000
00000000
00020000
00000000
00000000
00000000
00001000
00000000
00031000
00000000
00000000
00000000
,
01000000
00000000
00000000
01000000
00100000
00000000
00000000
00100000
10000000
00000000
01000000
00000000
00100000
00000000
00000000
00000000
,
00001000
00000000
00000000
00001000
00010000
00000000
00000000
00000000
00000100
00000000
00000010
00000000
00000001
00000000
00000000
00000000
,
00000100
00000000
00000000
00000100
00000001
00000000
00000000
00000001
00001000
00000000
00000100
00000000
00001000
00000000
00000000
00000000
,
00010000
00000000
00000000
00010000
00001000
00000000
00000000
00000000
01000000
00000000
00100000
00000000
10000000
00000000
00000000
00000000
,
00010000
00000000
00000000
00010000
10000000
00000000
00000000
10000000
00100000
00000000
01000000
00000000
00100000
00000000
00000000
00000000
,
10000000
00000000
00000000
10000000
00001000
00000000
00000000
00000000
00010000
00000000
00000100
00000000
00000010
00000000
00000000
00000000
,
00000001
00000000
00000000
00000001
00001000
00000000
00000000
00001000
00000100
00000000
00001000
00000000
00010000
00000000
00000000
00000000
,
01000000
00000000
00000000
01000000
00100000
00000000
10000000
00000000
01000000
00000000
00100000
00000000
01000000
00000000
00000000
00000000
,
10000000
00000000
00001000
00000000
01000000
00100000
00000000
00100000
00000000
00000000
10000000
00001000
00000000
00001000
00000000
00000000
,
00010000
00001000
00000000
00001000
00010000
00000000
00000010
00000000
00000000
00000000
00001000
00000000
00000001
00000000
00000000
00000000
,
00000100
00000000
00000100
00000000
00000001
00001000
00000000
00001000
00000000
00000000
00000100
00010000
00000000
00010000
00000000
00000000
,
00000000
00000000
00000000
01100000
,
00100000
00000000
00100000
00000000
00010000
00100000
00000000
00100000
00000000
00000000
00001000
00010000
00000000
00010000
00000000
00000000
,
00000100
00000010
00000000
00000010
00000100
00000000
00001000
00000000
00000000
00000000
00000001
00000000
00000100
00000000
00000000
00000000
,
00000001
00000000
00000001
00000000
00001000
00000010
00000000
00000010
00000000
00000000
00010000
00001000
00000000
00001000
00000000
00000000
,
00100000
01000000
00000000
01000000
00100000
00000000
00010000
00000000
01000000
00000000
00010000
00000000
10000000
00000000
00000000
00000000
,
00000000
00000000
01100000
00000000
00000000
00000000
00000000
00000000
00000000
00000000
10000000
00000000
00000000
10000000
00000000
00000000
,
00000000
00000000
10000000
00000000
00000000
00000000
00000000
00000000
00000000
00000000
01000000
00000000
00000000
01000000
00000000
00000000
,
00000000
00000000
00100000
00000000
00000000
00000000
00000000
00000000
00000000
00000000
00010000
00000000
00000000
00010000
00000000
00000000
,
00000000
00000000
00011000
00000000
00000000
00000000
00000000
00000000
00000000
00000010
00000000
00000000
00000010
00000000
00000000
00000000
,
00000100
00000000
00000001
00001000
00000001
00000000
00000010
00000000
00000100
00000000
00010000
00000000
00000000
00010000
00000000
00000000
,
00010000
00000000
00001000
00010000
00001000
00000000
01000000
00000000
00100000
00000000
10000000
00000000
00000000
10000000
00000000
00000000
,
10000000
00000000
00010000
00100000
00010000
00000000
01000000
00000000
00010000
00000000
00001000
00000000
00000000
00001000
00000000
00000000
,
00001000
00000000
00000100
00000010
00000100
00000000
00001000
00000000
00000001
00000010
00000000
00000000
00000011
00000000
00000000
00000000
,
00000001
00000000
00000001
00000000
00000100
00000010
00000000
00000010
00000000
00010000
00000000
00001000
00000000
00000000
00000000
00000000
;
