#TITLE:beatonic nation;
#SUBTITLE:;
#ARTIST:Sota Fujimori;
#TITLETRANSLIT:;
#SUBTITLETRANSLIT:;
#ARTISTTRANSLIT:;
#CREDIT:DigiMindAxel;
#BANNER:beatonic nation.png;
#BACKGROUND:beatonic nation-bg.png;
#LYRICSPATH:;
#CDTITLE:beatmania IIDX.png;
#MUSIC:beatonic nation.ogg;
#METERTYPE:DDR X;
#OFFSET:-0.375;
#SAMPLESTART:48.324;
#SAMPLELENGTH:12.000;
#SELECTABLE:YES;
#BPMS:0.000=165.000,100.000=82.500,116.000=165.000;
#STOPS:;
#BGCHANGES:-4.000=beatonic nation.avi=1.000=1=1=0,
99999=-nosongbg-=1.000=0=0=0 // don't automatically add -songbackground-
;

//---------------dance-single - ----------------
#NOTES:
     dance-single:
     :
     Easy:
     6:
     0.286,0.330,0.152,0.101,0.000:
0000
0000
0000
0000
,
0000
0000
0000
0000
,
0000
0000
0000
0000
,
0000
0000
0000
0000
,
0000
0000
0000
0000
,
1000
0001
0000
0100
,
0000
0010
0000
1000
,
0000
0001
0000
1000
,
1001
0000
0000
0000
,
1000
0100
0010
0001
,
0010
0100
1000
0000
,
0001
0000
0100
0000
,
0010
0000
1000
0000
,
0001
0100
0010
1000
,
0010
0100
0001
0000
,
1000
0100
0010
0001
,
0200
0000
0000
0000
,
0310
1000
0001
1000
,
0010
0100
0010
0100
,
0001
0010
0001
1000
,
0010
1000
0001
0000
,
1000
0010
1000
0001
,
0010
0001
1000
0010
,
1000
0001
0010
0100
,
1000
0001
1000
0000
,
0020
0000
0000
0030
,
2000
0000
0000
3000
,
0002
0000
0000
0003
,
0020
0000
0000
0000
,
0031
1000
0001
1000
,
0010
0100
1001
0000
,
0100
0010
1000
0001
,
0010
0001
1000
0001
,
1000
0010
0100
0010
,
1000
0001
1001
0000
,
0100
0010
1000
0001
,
1000
0100
0010
0001
,
1001
0010
0100
0001
,
1000
1001
1001
0000
,
0001
1000
0010
1000
,
0001
0010
0100
1000
,
0010
0100
0001
1000
,
0001
1001
1001
0000
,
0010
0100
0001
0100
,
1000
0100
0001
1000
,
1001
0000
0000
0000
,
0010
0000
0000
0000
,
0200
0000
0000
0000
,
0310
0000
0000
0000
,
0000
0000
0000
0000
,
0000
0000
0000
0000
,
1000
0001
0010
0100
,
1000
0010
0100
0010
,
1001
0010
0200
0000
,
1300
0001
1000
0010
,
0110
0110
1000
0100
,
0010
0001
1000
0001
,
0010
0100
0010
0001
,
0100
0010
0100
0000
,
1001
0010
0100
1000
,
0001
0100
0001
1000
,
0010
0100
0001
1001
,
0000
0000
1000
1000
,
1001
1001
0010
0100
,
0001
0010
0001
1000
,
0001
0010
0100
1000
,
0001
0010
0100
1000
,
1001
0010
0100
0001
,
2000
0000
0000
3010
,
0200
0000
0301
0010
,
0100
1000
0001
1000
,
0020
0000
1030
0001
,
0020
0000
0001
0000
,
0032
0000
0000
0000
,
1003
0100
0010
0001
,
1001
0010
0100
0001
,
0010
0001
1000
0010
,
0100
0001
0100
0110
,
0000
0000
1000
1000
,
1001
0100
0010
1000
,
0001
0010
0001
1000
,
0100
0010
0001
1000
,
0001
0100
0001
0220
,
0330
0000
0000
0000
;

//---------------dance-single - ----------------
#NOTES:
     dance-single:
     :
     Hard:
     13:
     0.609,0.599,0.318,0.282,0.282:
0000
0000
0000
0000
,
0000
0000
0000
0000
,
0000
0000
0000
0000
,
0000
0000
0000
0000
,
0000
0000
0000
0000
,
1000
0000
0000
1000
0000
0000
0010
0000
0100
0000
0000
0100
0000
0000
0001
0000
,
0010
0000
0000
0010
0000
0000
0001
0000
1000
0000
0000
1000
0000
0000
0001
0000
,
0100
0000
0000
0100
0000
0000
0010
0000
1000
0000
0000
1000
0000
0000
0001
0000
,
1001
0000
0000
0000
0000
0000
0000
0000
0000
0000
0000
0000
1000
0001
1000
0001
,
1000
0000
0200
0000
0000
0000
0310
0001
0010
0000
0002
0000
0000
0000
1003
0010
,
1000
0000
0002
0000
0000
0000
0103
0010
0100
0000
0020
0000
0000
0000
1030
0001
,
1000
0001
0010
0100
1000
0001
0100
0000
,
0001
1000
0100
0010
0100
1000
0001
0000
,
1000
0000
0001
0000
1000
0000
0010
0100
0010
0000
2000
0000
0000
0000
3100
0010
,
0100
0000
1000
0000
0010
0000
0100
0001
0100
0000
0002
0000
0000
0000
1003
0000
,
0001
0100
0010
0100
0001
0010
0100
1000
,
2002
0000
0000
3003
,
0001
0100
0000
0001
0100
0000
0001
1000
0000
1000
0000
0001
1000
0000
0000
0000
,
0100
1000
0000
0100
1000
0000
0010
0100
0000
0100
0000
0010
0100
0000
0000
0000
,
0001
0010
0000
0001
0010
0000
0001
1000
0000
1000
0000
0001
1000
0000
0000
0000
,
0100
0010
0000
0100
0010
0000
0001
0100
0000
0100
0000
0001
0100
0000
0000
0000
,
0001
1000
0000
0001
1000
0000
0100
0010
0000
0010
0000
0100
0010
0000
0000
0000
,
0001
0010
0000
0001
0010
0000
0001
1000
0000
1000
0000
0001
1000
0000
0000
0000
,
0010
1000
0000
0010
1000
0000
0100
0010
0000
0010
0000
0100
0010
0000
0000
0000
,
0001
1000
0000
0001
1000
0000
0010
1000
0000
1000
0000
0010
1000
0000
0000
0000
,
0001
0010
0100
1000
0000
1000
0001
0000
0010
0000
0100
0000
0100
0000
0000
1000
,
0001
0100
1000
0100
0001
0010
0100
1000
,
0001
0100
0010
1000
0000
1000
0001
0000
0100
0000
0010
0000
0010
0000
0000
1000
,
0001
0010
1000
0010
0001
0100
0010
1010
,
1000
0100
0010
0001
0000
0001
1000
0100
,
0010
0001
1000
0000
1001
0000
0000
1000
,
0001
0010
1000
0010
0001
0010
1000
0010
,
0001
1000
0100
0001
1000
0010
0001
1000
,
0001
0010
0100
1000
0000
1000
0001
0010
,
0100
1000
0001
0000
1001
0000
0000
0001
,
1000
0100
0001
0100
1000
0010
0001
0010
,
1000
0100
0001
1000
0010
0001
1000
0000
,
0001
0100
0010
1000
0000
1000
0001
0100
,
0010
1000
0001
0000
1001
0000
0000
1000
,
0001
0100
1000
0100
0001
0010
1000
0010
,
0001
0100
1000
0001
0010
1000
0001
0001
,
1000
0010
0100
0001
0000
0001
1000
0010
,
0100
0001
1000
0000
1001
0000
0000
0001
,
1000
0010
0001
0010
1000
0100
0001
0100
,
1000
0000
0100
0000
0001
0000
1000
0000
0010
0000
0001
0000
1000
0001
1000
0001
,
1000
0000
0100
0000
1000
0000
0001
0100
0000
0000
0000
0000
0001
0000
0001
0000
,
2000
0000
0000
3000
,
0100
0020
0000
0000
0130
0000
1000
0010
,
1000
0000
0000
0000
0000
0000
0001
1000
0001
1000
0001
0000
0010
0100
0010
0200
,
0000
0000
0000
0000
,
0000
0000
0000
0310
,
1001
1001
1100
1010
,
0101
0101
1001
0011
,
2100
3020
0230
0000
,
0302
0000
0013
0100
1000
0100
0010
0001
,
1000
1001
0101
0011
,
1001
1001
1100
1010
,
0102
2003
3200
0320
,
0031
1000
0010
0100
0001
1000
0010
0100
,
0110
0110
1100
1010
,
1001
1001
0101
0110
,
2001
0000
3020
0000
0230
0000
0000
0301
,
1000
0000
1000
0000
0100
0000
0100
0000
1000
0001
1000
0000
0001
0000
0010
0000
,
0110
0110
1100
1010
,
1001
1001
0101
1100
,
0012
0203
0320
2030
,
3001
0010
0100
0010
0001
1000
0100
0001
,
0200
0000
0000
1300
0100
0001
1000
0010
,
0002
0000
0000
0000
1003
0001
0010
0100
,
0020
0000
0000
0031
0100
1000
0001
0010
,
1000
0001
1000
0000
0100
0000
0010
0000
0001
0000
0001
0000
1000
0000
1000
0000
,
0020
0000
0000
1030
0100
0001
1000
0010
,
0002
0000
0000
0000
0000
0000
0000
0000
2003
0000
0000
0000
0000
0000
3010
0100
,
0020
0000
0000
1030
0100
0001
1000
0010
,
0001
0000
1000
0000
0100
0000
0000
0000
1000
0001
1000
0000
0010
0000
0100
0000
,
0002
0000
0000
1003
0001
0010
1000
0010
,
0002
0000
1000
0000
1003
0001
0100
0010
,
2000
0000
0000
3001
0010
0100
1100
1001
,
0000
0000
0001
0000
1000
0000
0001
0000
1000
0001
1000
0000
0010
0000
0100
0000
,
0002
0000
0000
1003
0001
0100
1000
0100
,
0002
0000
0000
0000
0010
0000
0000
0000
0023
0000
0000
0000
0000
0000
0130
1000
,
0100
1000
0010
0000
0100
0001
0010
1000
,
0010
0000
0001
0000
1000
0000
0100
0000
0010
0000
0100
0000
1000
0001
1000
0001
;

//---------------dance-single - ----------------
#NOTES:
     dance-single:
     :
     Medium:
     8:
     0.432,0.449,0.354,0.202,0.000:
0000
0000
0000
0000
,
0000
0000
0000
0000
,
0000
0000
0000
0000
,
0000
0000
0000
0000
,
0000
0000
0000
0000
,
1000
0001
1000
0010
,
1000
0001
1000
0100
,
1000
0001
1000
0010
,
0220
0000
0000
0330
,
1000
0002
0000
0000
0013
0200
0000
0000
,
1300
0002
0000
0000
0013
0200
0000
0000
,
1300
0000
1000
0000
0100
0010
0100
0000
,
1000
0000
1000
0000
0010
0100
0010
0000
,
1000
0002
0000
0000
0103
0020
0000
0000
,
1030
0200
0000
0000
0310
0002
0000
0000
,
1003
0000
1000
0000
0010
0100
0010
0000
,
2002
0000
0000
3003
,
1000
0100
0010
0000
0001
0010
0001
0000
,
0100
0010
1000
0000
0100
0010
0100
0000
,
1000
0010
0100
0000
0001
1000
0001
0000
,
0010
0100
1000
0000
0100
0010
0100
0000
,
1000
0010
0100
0000
0001
0100
0001
0000
,
1000
0100
0010
0000
0100
0010
0100
0000
,
1000
0001
0100
0000
0001
0100
0001
0000
,
0010
0100
1000
0000
0001
0010
0100
1000
,
0002
0000
0000
0000
0100
0100
0103
0000
,
0001
0010
0100
0000
1000
0100
0010
0001
,
2000
0000
0000
0000
0010
0010
3010
0000
,
1000
0010
0100
0000
0001
0100
0010
1000
,
1001
0000
1000
0000
0001
0000
1000
0100
,
0010
0001
1000
0000
1001
0000
0000
0000
,
1100
0000
0010
0001
0010
0000
0100
0000
,
1000
1001
0001
1001
,
0001
0010
0100
1000
0001
0000
1000
0000
,
0010
0100
0010
0000
1001
0000
0000
0000
,
0011
0000
0100
1000
0100
0000
0010
0000
,
0001
0000
1000
0000
0001
0100
0001
0000
,
1000
0100
0010
0001
1000
0000
0100
0000
,
1000
0001
1000
0000
1001
0000
0000
1000
,
0001
0101
1000
1100
,
0010
0001
1000
0000
1000
0100
0010
0000
,
0001
0100
0010
1000
0001
0000
0010
0000
,
0100
0010
0100
0000
1001
0000
0000
0001
,
1000
1010
0001
0011
,
0100
1000
0001
0000
0001
0010
0100
0000
,
1002
0000
0000
0000
,
0203
0000
0000
0000
,
0320
0000
0000
0000
,
2030
0000
0000
0000
,
3000
0000
0000
0000
,
0000
0000
0000
0000
,
1001
1001
0010
0010
,
1001
1001
0010
0010
,
1001
0010
0200
0000
,
1300
0100
0010
0001
,
1001
1001
0100
0100
,
1001
1001
0100
0100
,
1001
0100
0020
0000
,
0031
0010
0100
1000
,
1001
1001
0001
0001
,
0110
0110
1000
1000
,
1001
0000
0010
0000
0200
0000
0000
1300
,
0001
0001
1001
1001
,
1100
0010
0101
0101
,
0011
0100
1010
1010
,
0100
0001
1000
1001
,
0001
0100
0001
0000
1000
0100
1000
0000
,
0002
0000
1000
0000
1003
0000
1000
0001
,
0200
0000
0001
0000
0301
0000
0001
1000
,
0020
0000
1000
0000
1030
0000
1000
0001
,
0020
0000
0100
0000
0130
0000
0010
0100
,
2000
0000
0001
0000
3001
0000
0001
1000
,
0200
0000
1000
0000
1300
0000
1000
0001
,
0200
0001
0301
1001
,
0100
0000
0010
0000
0001
1000
0001
1000
,
0001
0010
1100
1100
,
1000
0100
0011
0011
,
1000
0000
0010
0000
0100
0000
0001
1000
,
0000
0000
0010
0100
0010
0100
0001
0000
,
0100
0010
1010
1010
,
0010
1000
0101
0101
,
0010
0100
1000
0001
,
0100
0010
0100
0000
0001
0010
0100
1000
,
0001
0000
0000
0000
;

//---------------dance-single - ----------------
#NOTES:
     dance-single:
     :
     Beginner:
     3:
     0.105,0.149,0.022,0.000,0.000:
0000
0000
0000
0000
,
0000
0000
0000
0000
,
0000
0000
0000
0000
,
0000
0000
0000
0000
,
0000
0000
0000
0000
,
0000
1000
0000
0001
,
0000
1000
0000
0001
,
0000
1000
0000
0001
,
0000
0000
0000
0000
,
1000
0000
0000
0000
,
1000
0000
0000
0000
,
0001
0000
0000
0000
,
0001
0000
0000
0000
,
1000
0000
0000
0000
,
0001
0000
0000
0000
,
1000
0000
0000
0000
,
1001
0000
0000
0000
,
0100
0000
0000
0000
,
0000
0000
0000
0000
,
0100
0000
0000
0000
,
0000
0000
0000
0000
,
0010
0000
0000
0000
,
0000
0000
0000
0000
,
0010
0000
0000
0000
,
1000
0000
0000
0000
,
1001
0000
0000
0000
,
0001
0000
0000
0000
,
1000
0000
0000
0000
,
1000
0000
0000
0000
,
0001
0000
1000
0000
,
0001
0000
0000
0000
,
1000
0000
0100
0000
,
1000
0000
0100
0000
,
1000
0000
0001
0000
,
1000
0000
0000
0000
,
0001
0000
0010
0000
,
0001
0000
0010
0000
,
0001
0000
1000
0000
,
0001
0000
0000
0000
,
1000
0000
0010
0000
,
1000
0000
0010
0000
,
1000
0000
0001
0000
,
1000
0000
0000
0000
,
0001
0000
0100
0000
,
0001
0000
0100
0000
,
0001
0000
0000
0000
,
0000
0000
0000
0000
,
0000
0000
0000
0000
,
0000
0000
0000
0000
,
0000
0000
0000
0000
,
0000
0000
0000
0000
,
1001
0000
0001
0000
,
1000
0000
0001
0000
,
1000
0000
0000
0000
,
1000
0000
0000
0000
,
0001
0000
1000
0000
,
0001
0000
1000
0000
,
0001
0000
0000
0000
,
0001
0000
0000
0000
,
0100
0000
0010
0000
,
0100
0000
0010
0000
,
0100
0000
0000
0000
,
0100
0000
0000
0000
,
0010
0000
0100
0000
,
0010
0000
0100
0000
,
0010
0000
0000
0000
,
0010
0000
0000
0000
,
1000
0000
0000
0000
,
0100
0000
0000
0000
,
0010
0000
0000
0000
,
0001
0000
0000
0000
,
0001
0000
0000
0000
,
0010
0000
0000
0000
,
0100
0000
0000
0000
,
1000
0000
0000
0000
,
0001
0000
1000
0000
,
0001
0000
1000
0000
,
0100
0000
1000
0000
,
0100
0000
0000
0000
,
0010
0000
0001
0000
,
0010
0000
0001
0000
,
1000
0000
0001
0000
,
1000
0000
0001
0000
;

//---------------dance-double - ----------------
#NOTES:
     dance-double:
     :
     Easy:
     6:
     0.283,0.358,0.072,0.188,0.000: // measure 1
00000000
00000000
00000000
00000000
,  // measure 2
00000000
00000000
00000000
00000000
,  // measure 3
00000000
00000000
00000000
00000000
,  // measure 4
00000000
00000000
00000000
00000000
,  // measure 5
00000000
00000000
00000000
00000000
,  // measure 6
10000000
00000000
01000000
00000000
,  // measure 7
00100000
00000000
01000000
00000000
,  // measure 8
10000000
00000000
00010000
00000000
,  // measure 9
10010000
00000000
00000000
00000000
,  // measure 10
20000000
00000000
30200000
00000000
,  // measure 11
02300000
00000000
03002000
00000000
,  // measure 12
00013000
00001000
00010000
00000000
,  // measure 13
00000010
00000100
00000010
00000000
,  // measure 14
00002000
00000000
00003002
00000000
,  // measure 15
00000023
00000000
00000230
00000000
,  // measure 16
00010300
00001000
00010000
00001000
,  // measure 17
02000000
00000000
00000000
00000000
,  // measure 18
03100000
10000000
00010000
00010000
,  // measure 19
00100000
01000000
10000000
10000000
,  // measure 20
00001000
00010000
00000010
00000010
,  // measure 21
00000100
00000001
00001000
00001000
,  // measure 22
00000001
00000010
00000100
00000100
,  // measure 23
00010000
00001000
00100000
00100000
,  // measure 24
01000000
10000000
00100000
00100000
,  // measure 25
10000000
00010000
10010000
00000000
,  // measure 26
00200000
00000000
00000000
00300000
,  // measure 27
20000000
00000000
00000000
30000000
,  // measure 28
00002000
00000000
00000000
00003000
,  // measure 29
00020000
00000000
00000000
00030000
,  // measure 30
00000100
00000010
00000100
00000010
,  // measure 31
00000001
00000100
00000001
00000000
,  // measure 32
00000010
00000100
00001000
00010000
,  // measure 33
00001000
00010000
01000000
00100000
,  // measure 34
10000000
01000000
00100000
01000000
,  // measure 35
10000000
00010000
10000000
00000000
,  // measure 36
00100000
01000000
00001000
00010000
,  // measure 37
00001000
00010000
00000100
00000010
,  // measure 38
00000001
00000100
00000010
00000100
,  // measure 39
00000001
00001000
00000001
00000000
,  // measure 40
00000010
00000100
00010000
00001000
,  // measure 41
00010000
00001000
01000000
00100000
,  // measure 42
10000000
01000000
00100000
00010000
,  // measure 43
10000000
00001000
10000000
00000000
,  // measure 44
00001000
00010000
00000100
00000010
,  // measure 45
00000001
00000010
00000100
00010000
,  // measure 46
00012000
00000000
00000000
00000000
,  // measure 47
10003000
00000000
00000000
00000000
,  // measure 48
02000000
00000000
00000000
00000000
,  // measure 49
03100000
00000000
00000000
00000000
,  // measure 50
00000000
00000000
00000000
00000000
,  // measure 51
00000000
00000000
00000000
00000000
,  // measure 52
00000001
00001000
00000001
00000001
,  // measure 53
00001000
00000001
00010000
00010000
,  // measure 54
00002000
00203000
00302000
00000000
,  // measure 55
00103000
01000000
10000000
00000000
,  // measure 56
00010000
10000000
00010000
00010000
,  // measure 57
10000000
00010000
10000000
10000000
,  // measure 58
00200000
02300000
03002000
00013000
,  // measure 59
00000010
00000100
00000001
00000000
,  // measure 60
00001000
00000100
00000010
00000001
,  // measure 61
00010000
00000100
00010000
00000001
,  // measure 62
00000010
00000100
00001000
00001001
,  // measure 63
00000000
00000000
00000001
00000001
,  // measure 64
00001001
00000010
00000100
00010000
,  // measure 65
00001000
01000000
00100000
01000000
,  // measure 66
00001000
00100000
01000000
10000000
,  // measure 67
01000000
00100000
01000000
00100000
,  // measure 68
10010000
00100000
01000000
00001000
,  // measure 69
00020000
00000000
00000000
00030100
,  // measure 70
00000020
00000000
00000031
00000010
,  // measure 71
00000100
00001000
00000001
00000010
,  // measure 72
00000200
00000000
00000310
00000001
,  // measure 73
00020000
00000000
00001000
00000000
,  // measure 74
00032000
00000000
10000000
00000000
,  // measure 75
10003000
00010000
00100000
01000000
,  // measure 76
10010000
00010000
10000000
01000000
,  // measure 77
00100000
00001000
00010000
00000100
,  // measure 78
00000010
00000100
00001000
00001001
,  // measure 79
00000000
00000000
00000001
00000001
,  // measure 80
00001001
00000010
00000100
00000001
,  // measure 81
00010000
00000100
00010000
00001000
,  // measure 82
00100000
01000000
10000000
01000000
,  // measure 83
00100000
00001000
00010000
00011000
;

//---------------dance-double - ----------------
#NOTES:
     dance-double:
     :
     Medium:
     9:
     0.442,0.449,0.440,0.188,0.000: // measure 1
00000000
00000000
00000000
00000000
,  // measure 2
00000000
00000000
00000000
00000000
,  // measure 3
00000000
00000000
00000000
00000000
,  // measure 4
00000000
00000000
00000000
00000000
,  // measure 5
00000000
00000000
00000000
00000000
,  // measure 6
10000000
01000000
10000000
00100000
,  // measure 7
10000000
01000000
10000000
00001000
,  // measure 8
01000000
00001000
00100000
00001000
,  // measure 9
00022000
00000000
00000000
00033000
,  // measure 10
00001000
00020000
00000000
00000000
00030100
00000020
00000000
00000000
,  // measure 11
00000031
00000200
00000000
00000000
00000301
00020000
00000000
00000000
,  // measure 12
00031000
00000000
00001000
00000000
01000000
00100000
01000000
00000000
,  // measure 13
00010000
00000000
00010000
00000000
10000000
01000000
10000000
00000000
,  // measure 14
01000000
00200000
00000000
00000000
00310000
00002000
00000000
00000000
,  // measure 15
00013000
00000020
00000000
00000000
00001030
00000002
00000000
00000000
,  // measure 16
00001003
00000000
00000010
00000000
00000001
00001000
00000001
00000000
,  // measure 17
00000220
00000000
00000000
00000330
,  // measure 18
00000010
00001000
00000001
00000000
00000010
00000100
00000010
00000000
,  // measure 19
00000001
00000010
00000100
00000000
00010000
00000100
00010000
00000000
,  // measure 20
00001000
01000000
00100000
00000000
10000000
01000000
10000000
00000000
,  // measure 21
01000000
00100000
00010000
00000000
10000000
00100000
10000000
00000000
,  // measure 22
00001000
00010000
00000010
00000000
00000100
00000010
00000100
00000000
,  // measure 23
00000010
00000100
00000001
00000000
00001000
00000001
00001000
00000000
,  // measure 24
00000100
00000010
00000001
00000000
00010000
00001000
00010000
00000000
,  // measure 25
00001000
01000000
00100000
00000000
10000000
01000000
00100000
00010000
,  // measure 26
10000000
00000000
01000000
00000000
00010000
01000000
10000000
00000000
,  // measure 27
00100000
01000000
00100000
01000000
00001000
00010000
00001000
00010000
,  // measure 28
00000001
00000000
00000100
00000000
00001000
00000100
00000001
00000000
,  // measure 29
00000010
00000100
00000010
00000100
00010000
00001000
00010000
00001000
,  // measure 30
00011000
00000000
00010000
00000000
00001000
00000000
00100000
01000000
,  // measure 31
10000000
01000000
00100000
00000000
01100000
00000000
00000000
00000000
,  // measure 32
10000000
00000000
01000000
00010000
01000000
00000000
10000000
00000000
,  // measure 33
00100000
01100000
01000000
01100000
,  // measure 34
00100000
00000000
10000000
00000000
00010000
00000000
00100000
01000000
,  // measure 35
10000000
01000000
00100000
00000000
01100000
00000000
00000000
00000000
,  // measure 36
00011000
00010000
00000100
00000001
,  // measure 37
00000100
00000000
00010000
00000000
00000010
00000100
00000010
00000000
,  // measure 38
00001000
00000000
00000001
00000000
00000100
00000000
00000010
00001000
,  // measure 39
00000100
00001000
00000010
00000000
00000110
00000000
00000000
00000000
,  // measure 40
00000001
00000010
00001000
00000010
,  // measure 41
00000001
00000100
00000001
00000000
00010000
00000010
00010000
00000000
,  // measure 42
00001000
00000000
01000000
00000000
00100000
00000000
10000000
01000000
,  // measure 43
00100000
01000000
10000000
00000000
10010000
00000000
00000000
00000000
,  // measure 44
00010000
01000000
00001000
00010000
,  // measure 45
00001000
00010000
00000010
00000000
00000100
00000001
00000010
00000000
,  // measure 46
00000210
00000000
00000000
00000000
,  // measure 47
00002300
00000000
00000000
00000000
,  // measure 48
00003002
00000000
00000000
00000000
,  // measure 49
00000023
00000000
00000000
00000000
,  // measure 50
00000030
00000000
00000000
00000000
,  // measure 51
00000000
00000000
00000000
00000000
,  // measure 52
00011000
00011000
01001000
01001000
,  // measure 53
01100000
01100000
11000000
11000000
,  // measure 54
10010000
00010000
02000000
00000000
,  // measure 55
03100000
10000000
01000000
00100000
,  // measure 56
00011000
00011000
00010010
00010010
,  // measure 57
00000110
00000110
00000011
00000011
,  // measure 58
00000110
00001000
00000001
00000001
,  // measure 59
00000010
00000100
00001000
00010000
,  // measure 60
00011000
00011000
00101000
00101000
,  // measure 61
01100000
01100000
11000000
11000000
,  // measure 62
01100000
00000000
00100000
00000000
02000000
00000000
00000000
03010000
,  // measure 63
10000000
00000000
10000000
00000000
00010000
10000000
00010000
00000000
,  // measure 64
10010000
10010000
01001000
01001000
,  // measure 65
00011000
00011000
00010010
00010010
,  // measure 66
00000100
00000001
00000010
00000100
,  // measure 67
00010000
00001000
00010000
00000000
00001000
01000000
00001000
00000000
,  // measure 68
20000000
00000000
01000000
00000000
31000000
00000000
10000000
00100000
,  // measure 69
02000000
00000000
00010000
00000000
03010000
00000000
10000000
01000000
,  // measure 70
00200000
00000000
00001000
00000000
00301000
00000000
00010000
00000100
,  // measure 71
00000020
00000000
00000100
00000000
00000130
00000000
00001000
00000001
,  // measure 72
00000020
00000000
00000100
00000000
00000130
00000000
00001000
00010000
,  // measure 73
00200000
00000000
01000000
00000000
01300000
00000000
10000000
00100000
,  // measure 74
02000000
00100000
03100000
01000000
,  // measure 75
00001000
00000000
00010000
00000000
00000100
00000010
00000100
00000010
,  // measure 76
00000100
00000110
00001010
00001010
,  // measure 77
00011000
00011000
01001000
01001000
,  // measure 78
01000000
00000000
00100000
00000000
10000000
00000000
01000000
00200000
,  // measure 79
00000000
00000000
00301000
00010000
00001000
00010000
00001000
00000000
,  // measure 80
00011000
00011000
00010010
00010010
,  // measure 81
00000110
00000110
00000011
00000011
,  // measure 82
00000100
00000010
00010000
00001000
,  // measure 83
00100000
01000000
00100000
00000000
00010000
00100000
01000000
10000000
,  // measure 84
00001000
00000000
00000000
00000000
;

//---------------dance-double - ----------------
#NOTES:
     dance-double:
     :
     Hard:
     13:
     0.605,0.599,0.296,0.289,0.282: // measure 1
00000000
00000000
00000000
00000000
,  // measure 2
00000000
00000000
00000000
00000000
,  // measure 3
00000000
00000000
00000000
00000000
,  // measure 4
00000000
00000000
00000000
00000000
,  // measure 5
00000000
00000000
00000000
00000000
,  // measure 6
10000000
00000000
00000000
10000000
00000000
00000000
10000000
00000000
00100000
00000000
00000000
00100000
00000000
00000000
00100000
00000000
,  // measure 7
01000000
00000000
00000000
01000000
00000000
00000000
01000000
00000000
00001000
00000000
00000000
00001000
00000000
00000000
00001000
00000000
,  // measure 8
00010000
00000000
00000000
00010000
00000000
00000000
00010000
00000000
00000100
00000000
00000000
00000100
00000000
00000000
00000100
00000000
,  // measure 9
00000110
00000000
00000000
00000000
00000000
00000000
00000000
00000000
00000000
00000000
00000000
00000000
00000001
00001000
00000001
00001000
,  // measure 10
00000001
00000000
00000020
00000000
00000000
00000000
00000130
00010000
00000100
00000000
00020000
00000000
00000000
00000000
00031000
00100000
,  // measure 11
00001000
00000000
00200000
00000000
00000000
00000000
01300000
10000000
01000000
00000000
20000000
00000000
00000000
00000000
30100000
01000000
,  // measure 12
00100000
10000000
01000000
00100000
00010000
01000000
10000000
00000000
,  // measure 13
01000000
00010000
10000000
01000000
00100000
01000000
10000000
00000000
,  // measure 14
00100000
00000000
02000000
00000000
00000000
00000000
03001000
01000000
00001000
00000000
00020000
00000000
00000000
00000000
00030100
00000010
,  // measure 15
00000100
00000000
00002000
00000000
00000000
00000000
00003001
00000010
00000001
00000000
00002000
00000000
00000000
00000000
00003010
00000000
,  // measure 16
00001000
00000100
00000010
00000001
00000100
00001000
00000100
00000001
,  // measure 17
00020002
00000000
00000000
00030003
,  // measure 18
00010000
00001000
00000000
00010000
00001000
00000000
01000000
00100000
00000000
00100000
00000000
01000000
00100000
00000000
00000000
00000000
,  // measure 19
10000000
00100000
00000000
10000000
00100000
00000000
10000000
00010000
00000000
00010000
00000000
10000000
00010000
00000000
00000000
00000000
,  // measure 20
01000000
00010000
00000000
01000000
00010000
00000000
00100000
01000000
00000000
01000000
00000000
00100000
01000000
00000000
00000000
00000000
,  // measure 21
10000000
00001000
00000000
10000000
00001000
00000000
01000000
00001000
00000000
00001000
00000000
01000000
00001000
00000000
00000000
00000000
,  // measure 22
00010000
00001000
00000000
00010000
00001000
00000000
00010000
00000100
00000000
00000100
00000000
00010000
00000100
00000000
00000000
00000000
,  // measure 23
00000010
00000001
00000000
00000010
00000001
00000000
00000100
00000010
00000000
00000010
00000000
00000100
00000010
00000000
00000000
00000000
,  // measure 24
00010000
00001000
00000000
00010000
00001000
00000000
01000000
00001000
00000000
00001000
00000000
01000000
00001000
00000000
00000000
00000000
,  // measure 25
00100000
01000000
00000000
00100000
01000000
00000000
10000000
00100000
00000000
00100000
00000000
10000000
00100000
00000000
00000000
00000000
,  // measure 26
10000000
01000000
00100000
00010000
00000000
00010000
10000000
00000000
01000000
00000000
00100000
00000000
00100000
00000000
00000000
00001000
,  // measure 27
10000000
00100000
00010000
00100000
10000000
00010000
00001000
00000010
,  // measure 28
00001000
00000100
00000010
00000001
00000000
00000001
00001000
00000000
00000010
00000000
00000100
00000000
00000100
00000000
00000000
00000001
,  // measure 29
00001000
00000100
00000001
00000100
00001000
00010000
01000000
01100000
,  // measure 30
10000000
01000000
00100000
00010000
00000000
00010000
10000000
01000000
,  // measure 31
00100000
00010000
10000000
00000000
10010000
00000000
00000000
10000000
,  // measure 32
00001000
00100000
10000000
00100000
00001000
00100000
10000000
00100000
,  // measure 33
00001000
00100000
01000000
10000000
01000000
00100000
00001000
00010000
,  // measure 34
00000001
00000010
00000100
00001000
00000000
00001000
00000001
00000010
,  // measure 35
00000100
00001000
00000001
00000000
00001001
00000000
00000000
00000001
,  // measure 36
00010000
00000100
00000001
00000100
00010000
00000100
00000001
00000100
,  // measure 37
00010000
00000010
00000100
00000001
00001000
00010000
00100000
01000000
,  // measure 38
10000000
00100000
01000000
00010000
00000000
00010000
10000000
00100000
,  // measure 39
01000000
00010000
01000000
00000000
01100000
00000000
00000000
00001000
,  // measure 40
10000000
01000000
00010000
01000000
10000000
01000000
00010000
01000000
,  // measure 41
10000000
00100000
01000000
00001000
00010000
00000100
00000010
00000001
,  // measure 42
00001000
00000010
00000100
00000001
00000000
00000001
00001000
00000010
,  // measure 43
00000100
00000001
00000100
00000000
00000110
00000000
00000000
00000001
,  // measure 44
00010000
00000010
00000001
00000010
00010000
00000010
00000001
00000010
,  // measure 45
00010000
00000000
00000100
00000000
00000010
00000000
00000001
00000000
00001000
00000000
00000010
00000000
00010000
00001000
00010000
00001000
,  // measure 46
00010000
00000000
00001000
00000000
00001000
00000000
01000000
00100000
00000000
00000000
00000000
00000000
10000000
00000000
10000000
00000000
,  // measure 47
00010000
00000000
00000000
00000000
,  // measure 48
01000000
20000000
00000000
00000000
30010000
00000000
10000000
00001000
,  // measure 49
00100000
00000000
00000000
00000000
00000000
00000000
00001000
00010000
00001000
00010000
00001000
00000000
00010000
00001000
00010000
00002000
,  // measure 50
00000000
00000000
00000000
00000000
,  // measure 51
00000000
00000000
00000000
00013000
,  // measure 52
00010010
00010010
00000110
00000011
,  // measure 53
00000110
00000110
00010010
00011000
,  // measure 54
00102000
00203000
02300000
00000000
,  // measure 55
23000000
00000000
30010000
10000000
00100000
01000000
00010000
10000000
,  // measure 56
01000000
11000000
10010000
01001000
,  // measure 57
00011000
00011000
00010100
00000110
,  // measure 58
00000012
00000203
00000320
00020030
,  // measure 59
00030001
00000010
00000100
00000010
00000001
00010000
00000010
00010000
,  // measure 60
00001000
00011000
01001000
01100000
,  // measure 61
11000000
11000000
01100000
01001000
,  // measure 62
00021000
00000000
00030200
00000000
00000320
00000000
00000000
00000031
,  // measure 63
00001000
00000000
00001000
00000000
00000001
00000000
00000001
00000000
00000100
00000010
00000100
00000000
00000001
00000000
00000010
00000000
,  // measure 64
00000100
00000110
00010010
00011000
,  // measure 65
01100000
01100000
11000000
10100000
,  // measure 66
02010000
03002000
00023000
00030200
,  // measure 67
00000310
00000001
00001000
00000001
00000010
00000100
00000010
00000001
,  // measure 68
00020000
00000000
00000000
00031000
10000000
01000000
00010000
01000000
,  // measure 69
20000000
00000000
00000000
00000000
31000000
00100000
00010000
00001000
,  // measure 70
00000020
00000000
00000000
00000130
00000001
00000010
00001000
00000010
,  // measure 71
00000001
00001000
00000001
00000000
00000010
00000000
00000100
00000000
00010000
00000000
00010000
00000000
00001000
00000000
00001000
00000000
,  // measure 72
00020000
00000000
00000000
00031000
10000000
01000000
00100000
00010000
,  // measure 73
02000000
00000000
00000000
00000000
00000000
00000000
00000000
00000000
03200000
00000000
00000000
00000000
00000000
00000000
10300000
00010000
,  // measure 74
20000000
00000000
00000000
30010000
10000000
00100000
00010000
00100000
,  // measure 75
10000000
00000000
01000000
00000000
00100000
00000000
00000000
00000000
00001000
00010000
00001000
00000000
00010000
00000000
00000100
00000000
,  // measure 76
00000020
00000000
00000000
00000031
00001000
00000100
00000001
00000100
,  // measure 77
00002000
00000000
00000010
00000000
00003010
00001000
00010000
01000000
,  // measure 78
00200000
00000000
00000000
01300000
00010000
00001000
00000010
00000110
,  // measure 79
00000000
00000000
00000001
00000000
00001000
00000000
00000001
00000000
00001000
00000001
00001000
00000000
00000100
00000000
00000010
00000000
,  // measure 80
00000002
00000000
00000000
00000103
00000001
00001000
00000100
00001000
,  // measure 81
00020000
00000000
00000000
00000000
00100000
00000000
00000000
00000000
00230000
00000000
00000000
00000000
00000000
00000000
00310000
10000000
,  // measure 82
00010000
01000000
00100000
00000000
10000000
01000000
00010000
01000000
,  // measure 83
10000000
00000000
00100000
00000000
01000000
00000000
00001000
00000000
00100000
00000000
00001000
00000000
00010000
00001000
00010000
00001000
;
