#TITLE:Y&Co. is dead or alive;
#SUBTITLE:;
#ARTIST:Y&Co.;
#TITLETRANSLIT:;
#SUBTITLETRANSLIT:;
#ARTISTTRANSLIT:;
#CREDIT:DigiMindAxel (Single), silenttype01 (Double);
#BANNER:Y&Co. is dead or alive.png;
#BACKGROUND:Y&Co. is dead or alive-bg.png;
#LYRICSPATH:;
#CDTITLE:beatmania IIDX.png;
#MUSIC:Y&Co. is dead or alive.ogg;
#METERTYPE:DDR X;
#OFFSET:-0.372;
#SAMPLESTART:6.976;
#SAMPLELENGTH:11.580;
#SELECTABLE:YES;
#BPMS:0.000=145.000,193.000=153.000,194.000=154.000,195.000=163.000,195.979=167.000,198.000=175.000,199.000=178.000,200.000=181.000,201.000=188.000,202.000=194.000,203.000=204.000,205.000=218.000,206.000=221.000,207.000=240.000,208.000=246.000,209.000=268.000,210.000=265.000,211.000=290.000,212.000=294.000,214.000=300.000,215.000=325.000,217.000=375.000,218.000=350.000,219.000=392.000,220.000=420.000,222.000=388.000,223.000=510.000,224.000=468.000,227.000=540.000,236.000=694.000,238.000=822.000,242.000=840.000,243.000=876.000,288.000=145.000;
#STOPS:291.000=0.207
,322.500=0.207
;
#BGCHANGES:0.000=Y&Co. is dead or alive.avi=1.000=1=1=0,
364.150=Y&Co. is dead or alive-bg.png=1.000=0=0=1,
99999=-nosongbg-=1.000=0=0=0 // don't automatically add -songbackground-
;

//---------------dance-single - ----------------
#NOTES:
     dance-single:
     :
     Easy:
     7:
     0.218,0.354,0.040,0.072,0.000:
0000
0000
0000
0000
,
0000
0000
0000
0000
,
0000
0000
0000
0000
,
0000
0000
0000
0000
,
1000
0001
1000
0000
,
0010
0100
0010
0000
,
1000
0001
1000
0000
,
0010
0100
0010
0000
,
1000
0010
1000
0000
,
0010
0100
0010
0000
,
0100
0001
0100
0000
,
0001
0000
0000
0000
,
1000
1000
1000
1000
,
0001
0001
0001
0001
,
1000
1000
1000
1000
,
0010
0010
0010
0010
,
0100
0100
0100
0100
,
0010
0010
0010
0010
,
1000
1000
1000
1000
,
0001
0001
0001
0001
,
1001
0000
0000
0000
,
1000
0000
0000
0000
,
0010
0000
0000
0000
,
1000
0000
0000
0000
,
0001
0000
0000
0000
,
0100
0000
0000
0000
,
0010
0000
0000
0000
,
1000
0000
0000
0000
,
1001
0000
0010
0000
,
0001
0000
1000
0000
,
0100
0000
1000
0000
,
0010
0010
0010
0010
,
0200
0000
0000
0000
,
0320
0000
0000
0000
,
0230
0000
0000
0000
,
0302
0000
0000
0000
,
2003
0000
0000
0000
,
3002
0000
0000
0000
,
2003
0000
0000
0000
,
3001
0000
0000
0000
,
0100
0010
0100
0010
,
1000
1000
0010
0100
,
0001
0001
0010
0100
,
1000
1000
0100
0010
,
1001
1000
0001
0100
,
0001
0100
0100
0100
,
0010
1000
0100
0010
,
0002
0000
0000
0000
,
0103
0000
0100
0000
,
0100
0000
0100
0000
,
0100
0000
0100
0000
,
0100
0000
0100
0000
,
0100
0000
0000
0000
,
0000
0000
0000
0000
,
0000
0000
0000
0000
,
0000
0000
0000
0000
,
0000
0000
0000
0000
,
0000
0000
0000
0000
,
0000
0000
0000
0000
,
0000
0000
0000
0000
,
0000
0000
0000
0000
,
0000
0000
0000
0000
,
0000
0000
0000
0000
,
0000
0000
0000
0000
,
0000
0000
0000
0000
,
0000
0000
0000
0000
,
0000
0000
0000
0000
,
0000
0000
0000
0000
,
0000
0000
0000
0000
,
0000
0000
0000
0000
,
0000
0000
0000
0000
,
0000
0000
0000
0000
,
0000
0000
0000
0000
0000
0000
1001
1000
,
0000
0001
0000
0010
0000
0010
0000
0001
,
0000
1000
0000
0100
0000
0100
0000
1000
,
0000
0010
0000
0100
0000
0100
0000
0010
,
0000
0100
0000
0001
0000
0010
0000
0001
,
0000
0001
0000
0001
0000
0010
0000
0100
,
0000
1000
0000
1000
0000
1000
0000
0100
,
0000
0010
0000
0001
0000
0001
0000
1001
,
0000
0000
0000
1000
,
1000
0010
0010
0100
,
0100
0001
0001
0010
,
0010
0100
0100
1000
,
1000
0100
0100
0010
,
0001
0010
0100
1000
,
0100
0010
0001
1000
,
0001
1000
0001
0200
,
0000
0000
0000
0000
0000
0300
0000
0000
;

//---------------dance-single - ----------------
#NOTES:
     dance-single:
     :
     Hard:
     12:
     0.471,0.637,0.160,0.064,0.128: // measure 1
0000
0000
0000
0000
,  // measure 2
0000
0000
0000
0000
,  // measure 3
0000
0000
0000
0000
,  // measure 4
0000
0000
0000
0000
,  // measure 5
0001
0010
0100
0010
0001
0000
1001
0000
,  // measure 6
1000
0100
0010
0100
1000
0000
1001
0000
,  // measure 7
0001
0100
1000
0100
0001
0000
1001
0000
,  // measure 8
1000
0010
0001
0010
1000
0000
1001
0000
,  // measure 9
0001
0100
0010
0100
0001
0000
0110
0000
,  // measure 10
1000
0010
0100
0010
1000
0000
0110
0000
,  // measure 11
0001
0010
0100
1000
0001
0000
1001
0000
,  // measure 12
2002
0000
0000
3003
,  // measure 13
0010
0001
0010
0000
0010
0001
0010
0000
,  // measure 14
0100
1000
0100
0000
0100
1000
0100
0000
,  // measure 15
1000
0001
1000
0000
1000
0001
1000
0000
,  // measure 16
0001
1000
0001
0000
0001
1000
0001
0000
,  // measure 17
0100
0001
0100
0000
0100
0001
0100
0000
,  // measure 18
0010
1000
0010
0000
0010
1000
0010
0000
,  // measure 19
0100
0010
0100
0000
0100
0010
0100
0000
,  // measure 20
0010
0100
0010
0000
0010
0000
1001
0000
,  // measure 21
1000
0000
0100
0000
0010
0000
0001
0000
0001
0000
0100
0010
0100
0000
0000
0000
,  // measure 22
0001
0010
0100
1000
1000
0001
0001
0000
,  // measure 23
1000
0000
0010
0000
0100
0000
0001
0000
1000
0000
0001
0100
0001
0000
0000
0000
,  // measure 24
0010
0000
0100
0000
1000
0000
0001
0000
0100
0001
0000
0001
1000
0000
0000
0000
,  // measure 25
0100
0100
0100
0100
,  // measure 26
1000
0100
0001
0100
,  // measure 27
1000
0010
0001
0010
,  // measure 28
1000
0100
0001
0100
,  // measure 29
1001
0000
0000
0000
0001
0000
0000
0001
0000
0000
0001
0000
1000
0000
0010
0000
,  // measure 30
1000
0000
0000
0000
0001
0000
0000
0001
0000
1000
0001
0000
0010
0000
0100
0000
,  // measure 31
1000
0000
0000
0000
0010
0000
0000
0010
0000
0000
0010
0000
1000
0000
0001
0000
,  // measure 32
0100
0000
0000
0001
1000
0000
0000
1000
0100
0000
0000
0100
0010
0000
0000
0000
,  // measure 33
0001
0000
1000
0000
0000
1000
0000
0000
1000
0000
0000
1000
0000
0000
1000
0000
,  // measure 34
0010
0000
0100
0000
0000
0100
0000
0000
0100
0000
0000
0100
0000
0000
0100
0000
,  // measure 35
0001
0000
0010
0000
0000
0010
0000
0000
0010
0000
0000
0010
0000
0000
0010
0000
,  // measure 36
0001
0000
0100
0000
0000
0100
0000
0000
0100
0000
0000
0100
0000
0000
0100
0000
,  // measure 37
0001
0000
1000
0000
0000
0010
0000
0000
0100
0000
0000
0010
0000
0000
1000
0000
,  // measure 38
0001
0000
0100
0000
0000
0010
0000
0000
0100
0000
0000
0001
0000
0000
1000
0100
,  // measure 39
1000
0000
0010
0000
0000
0100
0000
0000
0001
0000
0000
0100
0000
0000
0010
0000
,  // measure 40
0200
0000
0000
0300
,  // measure 41
0001
1000
0001
1000
0001
0100
1000
0000
,  // measure 42
0100
0001
0100
0000
1000
0001
0100
0010
,  // measure 43
0100
1001
0110
1001
,  // measure 44
1000
0010
0001
0010
1000
0001
0010
0000
,  // measure 45
1001
0000
0010
0100
0010
0000
1001
0000
,  // measure 46
0100
0010
0100
0000
0001
0010
1000
0000
,  // measure 47
0010
0001
0010
0001
0100
0010
0100
0000
,  // measure 48
0002
0000
0000
0000
,  // measure 49
1003
0100
1000
0100
,  // measure 50
1000
0100
1000
0001
,  // measure 51
1000
0001
1000
0001
,  // measure 52
1000
0010
1000
0010
,  // measure 53
1000
0010
0100
0001
,  // measure 54
0100
0001
0100
0000
,  // measure 55
0000
0000
0000
0000
,  // measure 56
0000
0000
0000
0000
,  // measure 57
0000
0000
0000
0000
,  // measure 58
0000
0000
0000
0000
,  // measure 59
0000
0000
0000
0000
,  // measure 60
0000
0000
0000
0000
,  // measure 61
0000
0000
0000
0000
,  // measure 62
0000
0000
0000
0000
,  // measure 63
0000
0000
0000
0000
,  // measure 64
0000
0000
0000
0000
,  // measure 65
0000
0000
0000
0000
,  // measure 66
0000
0000
0000
0000
,  // measure 67
0000
0000
0000
0000
,  // measure 68
0000
0000
0000
0000
,  // measure 69
0000
0000
0000
0000
,  // measure 70
0000
0000
0000
0000
,  // measure 71
0000
0000
0000
0000
,  // measure 72
0000
0000
0000
0000
,  // measure 73
0110
0000
0010
0100
0001
0000
1001
0001
,  // measure 74
1000
0000
0100
0000
0010
0000
0000
0010
0000
0000
0010
0000
0000
0000
0001
0000
,  // measure 75
1000
0000
0010
0000
0100
0000
0000
0100
0000
0000
0100
0000
0000
0000
0010
0000
,  // measure 76
1000
0000
0100
0000
0010
0000
0000
0010
0000
0000
0010
0000
0000
0000
0001
0000
,  // measure 77
1000
0100
1000
0010
0001
0010
1000
1001
,  // measure 78
0001
0010
0100
0010
0001
0100
0010
0100
,  // measure 79
0001
0000
1000
0000
0000
1000
0000
0001
1000
0000
0010
0000
0100
0000
0001
0000
,  // measure 80
0000
0000
0100
0000
0000
0100
0000
0000
0100
0000
0001
0000
1000
0000
2002
0000
,  // measure 81
0000
0000
0000
0000
0000
3003
0001
0010
,  // measure 82
0001
0010
1000
0010
1000
0010
0001
0100
,  // measure 83
0001
0100
1000
0100
1000
0100
0001
0010
,  // measure 84
0001
0010
1000
0010
1000
0010
0001
0100
,  // measure 85
0001
0100
1000
0100
1000
0100
0001
0001
,  // measure 86
0100
0010
0010
1000
0001
0001
1000
0100
,  // measure 87
0100
1000
0010
0010
0100
0001
0001
1000
,  // measure 88
0010
0001
0010
1000
0100
0010
0220
0000
,  // measure 89
0000
0000
0000
0000
0000
0330
0000
0000
;

//---------------dance-single - ----------------
#NOTES:
     dance-single:
     :
     Challenge:
     14:
     0.617,0.778,0.264,0.112,0.359:
0000
0000
0000
0000
,
0000
0000
0000
0000
,
0000
0000
0000
0000
,
0000
0000
0000
0000
,
1000
0000
0100
0000
1000
0000
0001
0100
0000
0100
0000
0000
0110
0000
0000
0000
,
0001
0000
0010
0000
0001
0000
1000
0010
0000
0010
0000
0000
0110
0000
0000
0000
,
1000
0000
0010
0000
1000
0000
0001
0010
0000
0010
0000
0000
0110
0000
0000
0000
,
0001
0000
0100
0000
0001
0000
1000
0100
0000
0100
0000
0000
0110
0000
0000
0000
,
1000
0000
0010
0000
0100
0000
0010
1000
0000
1000
0000
0000
0110
0000
0000
0000
,
0001
0000
0100
0000
0010
0000
0100
0001
0000
0001
0000
0000
0110
0000
0000
0000
,
1000
0000
0001
0000
0010
0000
0001
1000
0000
1000
0000
0000
0110
0000
0000
0000
,
0020
0100
0100
0130
,
0001
0000
0000
0001
0000
0000
0001
0000
0010
0000
0100
0000
1000
0000
0000
0000
,
0100
0000
0000
0100
0000
0000
0100
0000
1000
0000
0010
0000
0100
0000
0000
0000
,
0001
0000
0000
0001
0000
0000
0001
0000
0010
0000
0100
0000
0010
0000
0000
0000
,
0001
0000
0000
0001
0000
0000
0001
0000
0100
0000
0010
0000
1000
0000
0000
0000
,
0100
0000
0000
0100
0000
0000
0100
0000
0010
0000
0001
0000
1000
0000
0000
0000
,
0001
0000
0000
0001
0000
0000
0001
0000
0100
0000
0010
0000
1000
0000
0000
0000
,
0001
0000
0000
0001
0000
0000
0001
0000
1000
0000
0100
0000
0010
0000
0000
0000
,
0100
0000
0000
0100
0000
0000
0100
0000
1000
0000
0001
0000
0100
0000
0000
0000
,
0001
0000
1000
0010
1000
0000
0001
0000
0100
0010
0000
0010
0100
0000
0001
0000
,
1000
0000
0100
0000
0010
0001
0000
0001
0000
0100
0010
0100
0010
0100
0010
0000
,
1000
0000
0001
0010
0001
0000
1000
0000
0010
0100
0000
0100
0010
0000
1000
0000
,
0001
0000
0100
0000
0010
1000
0000
1000
0000
0010
0100
0010
0100
0000
0100
0000
,
0002
0000
0000
1000
0000
0000
1003
0000
0001
0000
0100
0000
0010
0000
0000
0000
,
2000
0000
0000
0001
0000
0000
3001
0000
1000
0000
0100
0000
0010
0000
0000
0000
,
0200
0000
0000
1000
0000
0000
1300
0000
0010
0000
0100
0000
0001
0000
0000
0000
,
0020
0000
0000
0001
0000
0000
0031
0000
1000
0000
0100
0000
0010
0000
0001
1000
,
0001
0000
0000
0000
1001
0000
0000
1001
0000
0000
1001
0000
0001
0000
0100
0000
,
0010
0000
0000
0000
1001
0000
0000
1001
0000
1000
0001
0000
0001
0000
0010
0000
,
0100
0000
0000
0000
1010
0000
0000
1010
0000
0000
1010
0000
1000
0000
0001
0000
,
0011
0000
0000
0001
1000
0000
0000
1000
0010
0000
0000
0010
0100
0000
0000
0000
,
0002
0000
1000
0000
0000
1000
0000
0000
1000
0000
0000
1000
0000
0000
1003
0000
,
0020
0000
0100
0000
0000
0100
0000
0000
0100
0000
0000
0100
0000
0000
0130
0001
,
0200
0000
0001
0000
0000
0001
0000
0000
0001
0000
0000
0001
0000
0000
0301
0000
,
2000
0000
0100
0000
0000
0100
0000
0000
0100
0000
0000
0100
0000
0000
3100
1000
,
0100
0000
1000
0000
0001
0100
0000
0000
0001
0000
0000
0100
0010
0000
0000
0000
,
0100
0000
0001
0000
1000
0100
0000
0000
1000
0000
0000
0001
1000
0000
0001
0100
,
0001
0000
0100
0000
0010
0100
0000
0000
0001
0000
0000
1000
0100
0000
1000
0000
,
0002
0000
0000
0003
,
1001
0001
1000
0100
0010
0001
1000
0000
,
0100
0010
0001
0010
0100
1000
0001
0100
,
0010
1000
0100
0010
0100
1000
0001
0000
,
1000
0010
0100
0001
0010
0100
0010
0001
,
1001
0010
0100
1000
0100
0001
0100
1000
,
1000
0100
0010
0001
0010
1000
0010
0001
,
0010
0100
0010
0100
1000
0100
0010
0001
,
0100
0100
0100
0110
,
0010
0100
0010
0100
0010
0100
0010
0100
,
0010
0100
0010
0100
0001
1000
0001
1000
,
0001
1000
0001
1000
0001
0100
0001
0100
,
0001
1000
0010
1000
0010
1000
0010
1000
,
0001
0010
0100
1000
,
0100
0010
0001
0100
,
0001
0100
0001
1000
,
0010
1000
0010
1000
,
0001
0010
0100
0010
,
0100
0010
0100
0010
,
0001
1000
0001
1000
,
0001
1000
0001
1000
,
0001
1000
0001
2000
,
0000
0000
0000
0000
,
0000
0000
0000
0000
,
0000
0000
0000
0000
,
0000
0000
0000
0000
,
0000
0000
0000
0000
,
0000
0000
0000
0000
,
0000
0000
0000
0000
,
0000
0000
0000
0000
,
0000
0000
0000
0000
,
0000
0000
0000
0000
,
0000
0000
0000
0000
,
3001
0000
1000
0100
1000
0000
0100
0000
1000
0000
0000
0000
1001
0000
1000
0000
,
0100
0000
0010
0000
0001
1000
0000
0010
0000
0000
0010
0000
0000
0000
0100
0000
,
0001
0000
1000
0000
0010
0100
0000
0001
0000
0000
0001
0000
0000
0000
1000
0000
,
0100
0000
0010
0000
0100
1000
0000
0010
0000
0000
0010
0000
0000
0000
0100
0000
,
0001
0000
1000
0000
0100
0010
0000
0001
0100
0000
0010
0000
0100
0000
0101
0000
,
0000
0000
1001
0000
0000
1100
0000
0000
1100
0000
1000
0000
0001
0000
0001
0000
,
0000
0000
0101
0000
0000
0101
0000
0001
0100
0000
0001
0000
0010
0000
0100
0000
,
0000
0000
1001
0000
0000
0011
0000
0000
0011
0000
0001
0000
0100
0000
0020
0000
,
0000
0000
1000
0000
1000
1030
1001
0001
,
1000
0000
0100
1000
0000
0010
0100
0000
0001
0000
0001
0000
1000
0000
0100
0000
,
0010
0000
0001
0100
0000
0010
0100
0000
0001
0000
0001
0000
1001
0000
1000
0000
,
0010
0000
0100
0010
0000
1000
0100
0000
1000
0000
0001
1000
0001
0000
0010
0000
,
0100
0000
0010
0001
0000
1000
0010
0000
1000
0000
0001
0000
1001
0000
1000
0000
,
0100
0001
0100
1000
0010
0100
0001
0010
,
1000
0010
0001
0010
1000
0010
0001
1000
,
0100
0000
1000
0001
0000
0001
1000
0000
0010
0000
0010
0000
0220
0000
0000
0000
,
0000
0000
0000
0000
0000
0330
0000
0000
;

//---------------dance-single - ----------------
#NOTES:
     dance-single:
     :
     Beginner:
     3:
     0.080,0.140,0.032,0.000,0.000:
0000
0000
0000
0000
,
0000
0000
0000
0000
,
0000
0000
0000
0000
,
0000
0000
0000
0000
,
1000
0000
0000
0000
,
0001
0000
0000
0000
,
1000
0000
0000
0000
,
0001
0000
0000
0000
,
0100
0000
0000
0000
,
0010
0000
0000
0000
,
0100
0000
0000
0000
,
0010
0000
0000
0000
,
1000
0000
0000
0000
,
1000
0000
0000
0000
,
1000
0000
0000
0000
,
1000
0000
0000
0000
,
0001
0000
0000
0000
,
0001
0000
0000
0000
,
0001
0000
0000
0000
,
0001
0000
0000
0000
,
1001
0000
0000
0000
,
1000
0000
0000
0000
,
0100
0000
0000
0000
,
0010
0000
0000
0000
,
0001
0000
0000
0000
,
0001
0000
0000
0000
,
0001
0000
0000
0000
,
1000
0000
0000
0000
,
1000
0000
0000
0000
,
1000
0000
0000
0000
,
0010
0000
0000
0000
,
0010
0000
0000
0000
,
0100
0000
0000
0000
,
0100
0000
0000
0000
,
0100
0000
0000
0000
,
0100
0000
0000
0000
,
0001
0000
0000
0000
,
1000
0000
0000
0000
,
0001
0000
0000
0000
,
1000
0000
0000
0000
,
0100
0000
1000
0000
,
0100
0000
0000
0000
,
0010
0000
0001
0000
,
0010
0000
0000
0000
,
0001
0000
1000
0000
,
0001
0000
0000
0000
,
1000
0000
0001
0000
,
1000
0000
0000
0000
,
0010
0000
0000
0000
,
0000
0000
0000
0000
,
0000
0000
0000
0000
,
0000
0000
0000
0000
,
0000
0000
0000
0000
,
0000
0000
0000
0000
,
0000
0000
0000
0000
,
0000
0000
0000
0000
,
0000
0000
0000
0000
,
0000
0000
0000
0000
,
0000
0000
0000
0000
,
0000
0000
0000
0000
,
0000
0000
0000
0000
,
0000
0000
0000
0000
,
0000
0000
0000
0000
,
0000
0000
0000
0000
,
0000
0000
0000
0000
,
0000
0000
0000
0000
,
0000
0000
0000
0000
,
0000
0000
0000
0000
,
0000
0000
0000
0000
,
0000
0000
0000
0000
,
0000
0000
0000
0000
,
0000
0000
0000
0000
,
0000
0000
0000
1001
,
0000
0000
0000
0000
0000
1000
0000
0000
,
0000
0000
0000
0000
0000
0001
0000
0000
,
0000
0000
0000
0000
0000
1000
0000
0000
,
0000
0000
0000
0000
0000
0001
0000
1001
,
0000
0000
0000
0000
0000
0000
0000
0010
,
0000
0000
0000
0000
0000
0000
0000
1000
,
0000
0000
0000
0000
0000
0000
0000
0010
,
0000
0000
0000
0100
,
0000
0000
0000
0001
,
0000
0000
0000
0010
,
0000
0000
0000
0100
,
0000
0000
0000
1000
,
0000
0000
0000
0100
,
0000
0000
0000
0010
,
0000
0000
0000
1001
;

//---------------dance-single - ----------------
#NOTES:
     dance-single:
     :
     Medium:
     9:
     0.367,0.566,0.224,0.112,0.000:
0000
0000
0000
0000
,
0000
0000
0000
0000
,
0000
0000
0000
0000
,
0000
0000
0000
0000
,
1000
0000
1001
0000
1000
0010
1000
0000
,
0001
0000
1001
0000
0001
0100
0001
0000
,
1000
0000
1001
0000
1000
0100
1000
0000
,
0001
0000
1001
0000
0001
0010
0001
0000
,
0100
0000
0110
0000
0100
0010
0100
0000
,
0010
0000
0110
0000
0010
0100
0010
0000
,
1000
0000
1001
0000
0010
0100
0010
0000
,
2002
0000
0000
3003
,
1000
0000
1000
0000
0100
0010
0100
0000
,
1000
0000
1000
0000
0100
0010
0100
0000
,
1000
0000
1000
0000
0001
0010
0001
0000
,
0010
0000
0010
0000
0001
0010
0001
0000
,
0010
0000
0010
0000
0001
0010
0001
0000
,
0100
0000
0100
0000
0001
1000
0001
0000
,
0100
0000
0100
0000
0001
1000
0001
0000
,
0100
0000
0010
0000
1000
0001
1000
0000
,
1002
0000
0000
0000
,
0023
0000
0000
0000
,
0230
0000
0000
0000
,
2300
0000
0000
0000
,
3010
0000
0100
0000
,
0010
0000
0100
0000
,
0001
0000
1000
0000
,
0001
0000
0000
0000
1000
0000
0000
0001
,
1001
0010
0010
0001
,
0010
0100
0100
1000
,
0100
0010
0010
0001
,
0110
0110
0110
1001
,
0200
0000
0000
0000
,
0320
0000
0000
0000
,
0230
0000
0000
0000
,
0302
0000
0000
0000
,
1003
0010
1000
0010
,
1000
0001
0100
0001
,
0100
0001
1000
0001
,
1000
0000
0000
0000
,
1001
0000
0011
0000
1000
0100
1000
0000
,
0010
0000
1001
0000
1100
0000
0001
0010
,
0001
1001
1000
1001
,
1000
0010
0100
0000
0010
0100
0001
0000
,
0010
0011
0100
1100
,
1000
0010
0100
0000
0010
0100
0001
0000
,
0101
0000
1010
0000
0001
1000
0001
0000
,
2002
0000
0000
3003
,
1000
0001
1000
0001
,
1000
0001
1000
0001
,
1000
0001
1000
0001
,
1000
0001
1000
0001
,
1000
0001
1000
0001
,
1000
0001
1000
0000
,
0000
0000
0000
0000
,
0000
0000
0000
0000
,
0000
0000
0000
0000
,
0000
0000
0000
0000
,
0000
0000
0000
0000
,
0000
0000
0000
0000
,
0000
0000
0000
0000
,
0000
0000
0000
0000
,
0000
0000
0000
0000
,
0000
0000
0000
0000
,
0000
0000
0000
0000
,
0000
0000
0000
0000
,
0000
0000
0000
0000
,
0000
0000
0000
0000
,
0000
0000
0000
0000
,
0000
0000
0000
0000
,
0000
0000
0000
0000
,
0000
0000
0000
0000
,
0000
0000
0000
0000
0000
0000
1001
0010
,
0001
0010
0001
0010
0000
0001
0000
1000
,
0100
1000
0100
1000
0000
0010
0000
0100
,
0010
0100
0010
0100
0000
1001
0000
0100
,
0001
0100
0001
0100
0000
0010
0000
1001
,
0000
1000
0000
1000
0000
1000
0100
0010
,
0000
0010
0000
0010
0001
0001
0100
0010
,
0000
1000
0000
1000
0100
0010
0001
2000
,
0000
0000
0000
0000
0000
3001
1000
0100
,
1000
0100
1000
0010
1000
0010
1000
0001
,
1000
0001
1000
0001
1000
0000
0001
0010
,
0001
0010
0001
0100
0001
0100
0001
1000
,
0001
1000
0001
1000
0001
0000
0010
0001
,
0010
0001
0010
0001
0010
0001
0010
0100
,
1000
0100
1000
0100
1000
0100
1000
0001
,
1000
0001
1000
0001
1000
0001
2000
0000
,
0000
0000
0000
0000
0000
3000
0000
0000
;

//---------------dance-double - ----------------
#NOTES:
     dance-double:
     :
     Easy:
     7:
     0.173,0.386,0.056,0.056,0.000:
00000000
00000000
00000000
00000000
,
00000000
00000000
00000000
00000000
,
00000000
00000000
00000000
00000000
,
00000000
00000000
00000000
00000000
,
00000000
00000000
00000000
00000000
,
00000000
00000000
00000000
00000000
,
00000000
00000000
00000000
00000000
,
00000000
00000000
00000000
00000000
,
10000000
00000000
00000000
00000000
,
01000000
00000000
00000000
00000000
,
00100000
00000000
00000000
00000000
,
01000000
00000000
00000000
00000000
,
10000000
00000000
01000000
00000000
,
00010000
00000000
00001000
00000000
,
00000100
00000000
00000001
00000000
,
00001000
00000000
00000000
00000000
,
00000001
00000000
00000100
00000000
,
00001000
00000000
00010000
00000000
,
01000000
00000000
10000000
00000000
,
00010000
00000000
00000000
00000000
,
01000000
00000000
00000000
01001000
,
00010000
00000000
00000000
00010100
,
00001000
00000000
00000000
00001010
,
00000001
00000000
00000000
00001100
,
00000010
00000010
00000010
00000010
,
00000001
00000100
00000001
00001000
,
00000100
00000010
00001000
00010000
,
01000000
10000000
00100000
01000000
,
00100000
00100000
00100000
01100000
,
10000000
10000000
10000000
10010000
,
01000000
01000000
01000000
00110000
,
00001000
00000000
00000000
00000000
,
00020000
00000000
00000000
00000000
,
00000000
00000000
00000000
00000000
,
00030200
00000000
00000000
00000000
,
00002300
00000000
00000000
00000000
,
00003002
00000000
00000000
00000000
,
00000000
00000000
00000000
00000000
,
00000203
00000000
00000000
00000000
,
00002300
00000000
00000000
00000000
,
00013000
00010000
00010000
00000000
,
01000000
10000000
00010000
01000000
,
00100000
00100000
00100000
00000000
,
00010000
00001000
00000100
00000010
,
00001000
00001000
00001000
00000000
,
00000100
00000010
00000001
00001000
,
00000010
00000010
00000010
00000000
,
00000100
00001000
00010000
01000000
,
00200000
00000000
00000000
00000000
,
00000000
00000000
00000000
00000000
,
00000000
00000000
00000000
00000000
,
00000000
00000000
00000000
00000000
,
00000000
00000000
00000000
00000000
,
00000000
00000000
00000000
00000000
,
00000000
00000000
00000000
00000000
,
00000000
00000000
00000000
00000000
,
00000000
00000000
00000000
00000000
,
00000000
00000000
00000000
00000000
,
00000000
00000000
00000000
00000000
,
00000000
00000000
00000000
00000000
,
00000000
00000000
00000000
00000000
,
00000000
00000000
00000000
00000000
,
00000000
00000000
00000000
00000000
,
00000000
00000000
00000000
00000000
,
00000000
00000000
00000000
00000000
,
00000000
00000000
00000000
00000000
,
00000000
00000000
00000000
00000000
,
00000000
00000000
00000000
00000000
,
00000000
00000000
00000000
00000000
,
00000000
00000000
00000000
00000000
,
00000000
00000000
00000000
00000000
,
00000000
00000000
00000000
00000000
,
00300000
00000000
00000000
00000000
00000000
00000000
00000000
00001000
,
00000000
00000000
00000000
00010000
00000000
00000000
00000000
00001000
,
00000000
00000000
00000000
00000100
00000000
00000000
00000000
00000001
,
00000000
00000000
00000000
00001000
00000000
00000000
00000000
00000100
,
00000000
00000000
00000000
00000010
00000000
00000000
00000000
00000001
,
00000000
00000001
00000000
00000001
00000000
00000000
00000000
00000100
,
00000000
00000100
00000000
00000100
00000000
00000000
00000000
00010000
,
00000000
00010000
00000000
00010000
00000000
00000000
00000000
01000000
,
00000000
00000000
00000000
00010000
,
00010000
10000000
10000000
01000000
,
01000000
00001000
00001000
00000100
,
00000100
00000010
00000010
00000001
,
00000001
00000100
00000100
00000010
,
00001000
00000100
00000001
00000100
,
00010000
00001000
01000000
10000000
,
01000000
00000000
00010000
00000000
00100000
00000000
01000000
01000000
;

//---------------dance-double - ----------------
#NOTES:
     dance-double:
     :
     Medium:
     9:
     0.284,0.526,0.256,0.072,0.000:
00000000
00000000
00000000
00000000
,
00000000
00000000
00000000
00000000
,
00000000
00000000
00000000
00000000
,
00000000
00000000
00000000
00000000
,
00000000
00000000
00000000
00000000
,
00000000
00000000
00000000
00000000
,
00000000
00000000
00000000
00000000
,
00000000
00000000
00000000
00000000
,
11000000
01000000
00100000
00010000
,
01010000
01000000
00001000
00010000
,
00011000
00001000
00000100
00000010
,
00000101
00000000
00000000
00000000
,
00000001
00000001
00000100
00000010
,
00001000
00000100
00010000
00001000
,
01000000
00100000
01000000
00010000
,
20000000
00000000
01000000
00000000
31000000
00000000
00000000
10000000
,
00000000
10000000
00000000
00100000
00000000
01000000
00000000
00010000
,
00000000
00100000
00000000
00001000
00000000
00010000
00000000
00000010
,
00000000
00000100
00000000
00000010
00000000
00001000
00000000
00000002
,
00000000
00000010
00000000
00000010
00000000
00000013
00000000
00000000
,
00001100
00000000
00000000
00000000
00000000
00000000
00000010
00000010
,
00000010
00000000
00000000
00000000
00000000
00000000
00010000
00010000
,
00010000
00000000
00000000
00000000
00000000
00000000
01000000
01000000
,
01000000
00000000
00000000
00000000
,
00010000
00010000
00010000
00010000
,
10000000
01000000
00000000
01000000
00010000
00000000
00001000
00000100
,
00000000
00000100
00000001
00000000
00000010
00000001
00000000
00000001
,
00000100
00000000
00001000
00010000
00000000
00010000
01000000
00000000
,
10000000
01000000
00010000
00011000
,
00001000
00000010
00000001
00000011
,
00000100
00001000
00010000
01010000
,
10000000
00000000
00000000
00000000
,
00020000
00000000
00000000
00000000
,
00000000
00000000
00000000
00000000
,
02030000
00000000
00000000
00000000
,
03200000
10000000
00000000
00000000
,
01300000
00010000
00000000
10000000
,
01000000
00010000
00000000
00001000
,
00010000
00000010
00000000
00001000
,
00000020
00000200
00000000
00000330
,
00000001
00000010
00000001
00000000
00001100
00000000
00000110
00000000
,
00000001
00000010
00000100
00010000
00001000
00000000
00011000
00000000
,
00010000
00100000
00010000
00000000
11000000
00000000
01100000
00000000
,
10000000
01000000
00100000
00001000
00010000
00000000
00011000
00000000
,
01000000
00010000
01000000
00000000
10100000
00000000
01100000
00000000
,
00100000
01000000
00001000
00010000
00000100
00000000
00010100
00000000
,
00001000
00000100
00001000
00000000
00000011
00000000
00000110
00000000
,
00000010
00000100
00010000
00001000
01000000
00000000
00000000
00000000
,
20020000
00000000
00000000
00000000
,
00000000
00000000
00000000
00000000
,
00000000
00000000
00000000
00000000
,
00000000
00000000
00000000
00000000
,
00000000
00000000
00000000
00000000
,
00000000
00000000
00000000
00000000
,
00000000
00000000
00000000
00000000
,
00000000
00000000
00000000
00000000
,
00000000
00000000
00000000
00000000
,
00000000
00000000
00000000
00000000
,
00000000
00000000
00000000
00000000
,
00000000
00000000
00000000
00000000
,
00000000
00000000
00000000
00000000
,
00000000
00000000
00000000
00000000
,
00000000
00000000
00000000
00000000
,
00000000
00000000
00000000
00000000
,
00000000
00000000
00000000
00000000
,
00000000
00000000
00000000
00000000
,
00000000
00000000
00000000
00000000
,
00000000
00000000
00000000
00000000
,
00000000
00000000
00000000
00000000
,
00000000
00000000
00000000
00000000
,
00000000
00000000
00000000
00000000
,
00000000
00000000
00000000
00000000
,
30030000
00000000
00000000
00000000
00000000
00000000
00000000
10000000
,
00000000
00100000
00000000
00010000
00000000
10000000
00000000
00110000
,
00000000
01000000
00000000
00001000
00000000
00010000
00000000
00001100
,
00000000
00000001
00000000
00000100
00000000
00001000
00000000
00000011
,
00000000
00000100
00000000
00000010
00000000
00001000
00000000
00000001
,
00000000
00000001
00000000
00000001
00000000
00001000
00001000
00001000
,
00000000
00000100
00000000
00000010
00000000
00001000
00001000
00001000
,
00000000
00010000
00000000
01000000
00000000
00100000
00100000
00100000
,
00000000
00000000
00000000
00010000
,
01000000
00100000
10000000
11000000
,
00100000
00001000
00010000
00011000
,
00000100
00001000
00000001
00000101
,
00000010
00001000
00000100
00000011
,
00000101
00000010
00001000
00010100
,
00011000
01000000
00010000
10100000
,
11000000
00000000
00100000
00000000
00010000
00000000
01000000
01000000
;

//---------------dance-double - ----------------
#NOTES:
     dance-double:
     :
     Hard:
     13:
     0.545,0.665,0.120,0.056,0.156:
00000000
00000000
00000000
00000000
,
00000000
00000000
00000000
00000000
,
00000000
00000000
00000000
00000000
,
00000000
00000000
00000000
00000000
,
00000000
00000000
00000000
00000000
,
00000000
00000000
00000000
00000000
,
00000000
00000000
00000000
00000000
,
00000000
00000000
00000000
00000000
,
10000000
00000000
01000000
00000000
00100000
00000000
01000000
00000000
10000000
00010000
00000000
00000000
01010000
00000000
00000000
00000000
,
00010000
00000000
00100000
00000000
01000000
00000000
00100000
00000000
00010000
10000000
00000000
00000000
10100000
00000000
00000000
00000000
,
10000000
00000000
01000000
00000000
00010000
00000000
00001000
00000000
00010000
00000100
00000000
00000000
00010010
00000000
00000000
00000000
,
00000200
00000000
00000302
00000000
,
00000013
00000001
00000100
00000001
00001000
00000010
00000100
00000001
,
00000010
00000100
00001000
00000010
00010000
00001000
00000100
00000010
,
00010000
00001000
00100000
01000000
00010000
01000000
10000000
00100000
,
01000000
00000000
00000000
00000000
00000000
00000000
00000000
00100000
,
10000000
01000000
10000000
00010000
01000000
00100000
10000000
01000000
,
00100000
00010000
01000000
00001000
00010000
00100000
01000000
00001000
,
00010000
00000100
00000010
00001000
00000010
00000001
00000100
00000010
,
00001000
00000001
00000000
00000000
00000000
00000000
00000000
00000000
,
00000100
00000000
00000010
00000000
00001000
00000000
00000001
00000010
,
00001000
00010000
00000010
00000100
00001000
00010000
00000000
00010000
,
00001000
00000100
00000001
00000000
00001000
00000100
00010000
00001000
,
00100000
00000000
00000000
00000000
01000000
00000000
00010000
00000000
00010000
00000000
00001000
00000000
00000010
00001000
00000010
00000000
,
00001000
00000000
00000000
00010000
01000000
00000000
00100000
00000000
00000000
00000000
00010000
00000000
10000000
00000000
00000000
00000000
,
00100000
00000000
00000000
00010000
00001000
00000000
00000100
00000000
00000000
00000000
00000010
00000000
00001000
00000000
00000000
00000000
,
00000001
00000000
00000000
00001000
00000100
00000000
00000010
00000000
00000000
00000000
00001000
00000000
00010000
00000000
00000000
00000000
,
01000000
00000000
00000000
00100000
00001000
00000000
00010000
00000000
00000000
00000000
00000010
00000000
00000100
00000000
00000000
00000010
,
00001000
00000000
00000000
00000000
00000001
00000000
00000000
00000001
00000000
00000000
00000001
00000000
00000100
00000000
00000010
00000000
,
00000100
00000000
00001000
00000000
00010000
00000000
00000010
00010000
00000000
00010000
00001000
00000000
00100000
00000000
01000000
00000000
,
00010000
00000000
00000000
00000000
00001000
00000000
00000000
01000000
00000000
01000000
00010000
00000000
00100000
00000000
10000000
00000000
,
00100000
00010000
01000000
00100000
00010000
00000000
00000000
00000000
,
00000000
00000000
00100000
00000000
00000000
00100000
00000000
00000000
10000000
00000000
00000000
10000000
00000000
00000000
01000000
00000000
,
00010000
00000000
00001000
00000000
00000000
00001000
00000000
00000000
00000100
00000000
00000000
00000100
00000000
00000000
00000001
00000010
,
00000001
00000000
00000010
00000000
00000000
00000010
00000000
00000000
00001000
00000000
00000000
00001000
00000000
00000000
00100000
00000000
,
00002000
00000000
00020000
00000000
00033000
00000000
00000000
00100000
,
00010000
01001000
00010000
00001010
,
00000001
00001100
00000010
00010100
,
00001000
00010010
00000100
00011000
,
00000020
00002000
00000000
00003030
,
00000001
00000010
00001000
00010000
01000000
00010000
00100000
00000000
,
00000000
01000000
00010000
10000000
01000000
00010000
00001000
00000000
,
00100000
01000000
00010000
00001000
00000010
00001000
00000100
00000000
,
00000000
00000010
00001000
00000001
00000010
00001000
00010000
00000000
,
00000010
00000100
00001000
00000100
00000001
00000010
00000100
00010000
,
00001000
00100000
01000000
00010000
01000000
10000000
01000000
00100000
,
00001000
00010000
00000010
00000100
00001000
00010000
01000000
10000000
,
00100000
00000000
00000000
00000000
,
10000000
01000000
00010000
01000000
10000000
00100000
00010000
00001000
,
01000000
00001000
00100000
01000000
00010000
00000100
00001000
00000010
,
00000100
00000001
00000010
00000100
00000001
00000100
00001000
00000010
,
00010000
00001000
00010000
01000000
10000000
00100000
00010000
00100000
,
01000000
00001000
00010000
00000010
00001000
00000000
00000010
00000000
,
00001000
00000010
00001000
00000010
,
00001000
00000010
00010000
00000100
,
00010000
00000100
00010000
00000100
,
00010000
00000100
00010000
00001000
,
00010000
00001000
00100000
00001000
,
00100000
00001000
00010000
00000010
,
00010000
00000010
00000100
00001000
,
00010000
00001000
00010000
00001000
,
00010000
00001000
00010000
00001000
,
00010000
00001000
00010000
00001000
,
00010000
00001000
00010000
00001000
,
00010000
00001000
00010000
00001000
,
00010000
00001000
00010000
00001000
,
00010000
00001000
00010000
00001000
,
00200000
00000000
00000000
00000000
,
00000000
00000000
00000000
00000000
,
00000000
00000000
00000000
00000000
,
00000000
00000000
00000000
00000000
,
00000000
00000000
00000000
00000000
,
00310000
00000000
01000000
00000000
00100000
00000000
10000000
01000000
00100000
00000000
00000000
00000000
10010000
00000000
10000000
00000000
,
01000000
00000000
00100000
00000000
00001000
00010000
00000000
00001000
00000000
00100000
00010000
00000000
00000000
00000000
01000000
00000000
,
00010000
00000000
00100000
00000000
01000000
00010000
00000000
00001000
00000000
00010000
00000010
00000000
00000000
00000000
00000100
00000000
,
00001000
00000000
00000100
00000000
00000001
00000010
00000000
00000001
00000000
00001000
00000010
00000000
00000100
00000000
00000001
00000000
,
00000010
00000000
00000100
00000000
00001000
00000000
00000001
00000100
00000000
00000100
00001000
00000000
00010000
00000000
00100000
00000000
,
00000000
00000000
00100000
00000000
00000000
10000000
00000000
00000000
01000000
00000000
00100000
00000000
00010000
00000000
01000000
00000000
,
00000000
00000000
00100000
00000000
00000000
00010000
00000000
00010000
00001000
00000000
00000100
00000000
00001000
00000000
00010000
00000000
,
00000000
00000000
01000000
00000000
00000000
00010000
00000000
00001000
00010000
00001000
00010000
00000000
00000010
00000000
00001000
00000000
,
00000000
00000000
00000001
00000000
00000010
00000000
00000101
00000001
,
00000100
00001000
00010000
01000000
10000000
00100000
10100000
10000000
,
01000000
00010000
00001000
00000100
00000001
00000010
00000011
00000001
,
00000010
00001000
00010000
00100000
10000000
01000000
11000000
10000000
,
00100000
00010000
00001000
00000010
00000001
00000100
00000101
00000001
,
00000100
00001000
00010000
00000100
00000010
00001000
00010000
01000000
,
10000000
00100000
00010000
00001000
01000000
00100000
10000000
01000000
,
00010000
00001000
00000010
00001000
00010000
00100000
00000000
00000000
;

//---------------dance-double - ----------------
#NOTES:
     dance-double:
     :
     Challenge:
     14:
     0.607,0.778,0.112,0.192,0.355:
00000000
00000000
00000000
00000000
,
00000000
00000000
00000000
00000000
,
00000000
00000000
00000000
00000000
,
00000000
00000000
00000000
00000000
,
10000000
00000000
01000000
00000000
10000000
00000000
00010000
01000000
00000000
00200000
00000000
00000000
01300000
00000000
00000000
00000000
,
00010000
00000000
00100000
00000000
00010000
00000000
10000000
00100000
00000000
02000000
00000000
00000000
03100000
00000000
00000000
00000000
,
01000000
00000000
00010000
00000000
01000000
00000000
00001000
00010000
00000000
00002000
00000000
00000000
01003000
00000000
00000000
00000000
,
00001000
00000000
00010000
00000000
00001000
00000000
00010000
00000010
00000000
00000200
00000000
00000000
00000310
00000000
00000000
00000000
,
00001000
00000000
00000001
00000000
00000010
00000000
00000001
00001000
00000000
00000020
00000000
00000000
00001030
00000000
00000000
00000000
,
00000001
00000000
00010000
00000000
00001000
00000000
00010000
00000001
00000000
00002000
00000000
00000000
00003001
00000000
00000000
00000000
,
00010000
00000000
00001000
00000000
00010000
00000000
00001000
00100000
00000000
02000000
00000000
00000000
03100000
00000000
00000000
00000000
,
10000000
01000000
00100000
00010000
20000000
00000000
30010000
00000000
,
10010000
00000000
00000000
10000000
00000000
00000000
10000000
00000000
01000000
00000000
00100000
00000000
00010000
00000000
00000000
00000000
,
00100000
00000000
00000000
00100000
00000000
00000000
00100000
00000000
00001000
00000000
10000000
00000000
00100000
00000000
00000000
00000000
,
01000000
00000000
00000000
01000000
00000000
00000000
01000000
00000000
00100000
00000000
00010000
00000000
10000000
00000000
00000000
00000000
,
00001000
00000000
00000000
00001000
00000000
00000000
00001000
00000000
00010000
00000000
00000100
00000000
00000010
00000000
00000000
00000000
,
00000001
00000000
00000000
00000001
00000000
00000000
00000001
00000000
00000100
00000000
00000010
00000000
00001000
00000000
00000000
00000000
,
00000010
00000000
00000000
00000010
00000000
00000000
00000010
00000000
00010000
00000000
00000100
00000000
00001000
00000000
00000000
00000000
,
00000100
00000000
00000000
00000100
00000000
00000000
00000100
00000000
00010000
00000000
00100000
00000000
01000000
00000000
00000000
00000000
,
10000000
00000000
00000000
10000000
00000000
00000000
10000000
00000000
00100000
00000000
01000000
00000000
00010000
00000000
00000000
00000000
,
10000000
00000000
00001000
00100000
00001000
00000000
10000000
00000000
00010000
00100000
00000000
00100000
00010000
00000000
10000000
00000000
,
00001000
00000000
00100000
00000000
01000000
10000000
00000000
10000000
00000000
00001000
00010000
00001000
00010000
00001000
00010000
00000000
,
00000010
00000000
00010000
00000100
00010000
00000000
00000010
00000000
00001000
00000100
00000000
00000100
00001000
00000000
00000001
00000000
,
00000010
00000000
00000100
00000000
00001000
00000001
00000000
00000001
00000000
00010000
00001000
00010000
00001000
00000000
00001000
00000000
,
02000000
00000000
00000000
00100000
00000000
00000000
03100000
00000000
10000000
00000000
01000000
00000000
00100000
00000000
00000000
00000000
,
00020000
00000000
00000000
10000000
00000000
00000000
10030000
00000000
00010000
00000000
01000000
00000000
00100000
00000000
00000000
00000000
,
20000000
00000000
00000000
00100000
00000000
00000000
30100000
00000000
10000000
00000000
01000000
00000000
00100000
00000000
00000000
00000000
,
00002000
00000000
00000000
00010000
00000000
00000000
00013000
00000000
00000010
00000000
00000100
00000000
00000001
00000000
00001000
00000001
,
00001000
00000000
00000000
00000000
00000010
00000000
00000000
00000010
00000000
00000000
00000010
00000000
00001000
00000000
00000100
00000000
,
00000010
00000000
00000000
00000000
00000001
00000000
00000000
00000001
00000000
00001000
00000001
00000000
00000001
00000000
00010000
00000000
,
00001000
00000000
00000000
00000000
00010000
00000000
00000000
00010000
00000000
00000000
00010000
00000000
00001000
00000000
01000000
00000000
,
00100000
00000000
00000000
10000000
00010000
00000000
00000000
00010000
00100000
00000000
00000000
00100000
01000000
00000000
00000000
00000000
,
20000000
00000000
00010000
00000000
00000000
00010000
00000000
00000000
00010000
00000000
00000000
00010000
00000000
00000000
30010000
00000000
,
02000000
00000000
00100000
00000000
00000000
00100000
00000000
00000000
00100000
00000000
00000000
00100000
00000000
00000000
03100000
10000000
,
00200000
00000000
10000000
00000000
00000000
10000000
00000000
00000000
10000000
00000000
00000000
10000000
00000000
00000000
10300000
00000000
,
00200000
00000000
01000000
00000000
00000000
01000000
00000000
00000000
01000000
00000000
00000000
01000000
00000000
00000000
01300000
00100000
,
01000000
00000000
00010000
00000000
00100000
00010000
00000000
00000000
00100000
00000000
00000000
00001000
00010000
00000000
00000000
00000000
,
00000010
00000000
00001000
00000000
00000010
00000100
00000000
00000000
00000001
00000000
00000000
00001000
00000100
00000000
00001000
00000001
,
00001000
00000000
00000100
00000000
00010000
00001000
00000000
00000000
00100000
00000000
00000000
01000000
00100000
00000000
01000000
00000000
,
20000000
00000000
00000000
30000000
,
00010000
10000000
00010000
00100000
01000000
10000000
00100000
00000000
,
01000000
00010000
00100000
01000000
00100000
00010000
10000000
00100000
,
01000000
00001000
00010000
00000010
00000100
00000010
00010000
00000000
,
00000100
00000010
00000001
00000010
00000100
00001000
00000010
00000000
,
00001001
00001000
00000100
00010000
00000010
00000001
00000010
00010000
,
00001000
00100000
01000000
10000000
01000000
00100000
01000000
10000000
,
00010000
00100000
00010000
00100000
00001000
00010000
00000010
00000100
,
00000010
00000010
00000010
00001001
,
00000010
00000001
00000010
00000001
00000010
00000001
00000010
00000100
,
00000010
00000100
00000010
00000100
00010000
00000100
00010000
00000100
,
00010000
00000100
00100000
00010000
00100000
00010000
00100000
00010000
,
10000000
00010000
10000000
00010000
10000000
00010000
10000000
00010000
,
10000000
01000000
00100000
00001000
,
00010000
00000010
00000100
00000001
,
00001000
00000001
00001000
00000001
,
00010000
00000100
00010000
00000100
,
00010000
00001000
00010000
00001000
,
00010000
00001000
00010000
00001000
,
01000000
00100000
01000000
00100000
,
01000000
00100000
01000000
00100000
,
01000000
00100000
01000000
00200000
,
00000000
00000000
00000000
00000000
,
00000000
00000000
00000000
00000000
,
00000000
00000000
00000000
00000000
,
00000000
00000000
00000000
00000000
,
00000000
00000000
00000000
00000000
,
00000000
00000000
00000000
00000000
,
00000000
00000000
00000000
00000000
,
00000000
00000000
00000000
00000000
,
00000000
00000000
00000000
00000000
,
00000000
00000000
00000000
00000000
,
00000000
00000000
00000000
00000000
,
01300000
00010000
10000000
01000000
00100000
00000000
10010000
10000000
,
01000000
00000000
00100000
00000000
00001000
01000000
00000000
00002000
00000000
00000000
01003000
00000000
00000000
00000000
00100000
00000000
,
10000000
00000000
01000000
00000000
00100000
00010000
00000000
20000000
00000000
00000000
30010000
00000000
00000000
00000000
00100000
00000000
,
00001000
00000000
00010000
00000000
00000100
00001000
00000000
00000200
00000000
00000000
00001300
00000000
00000000
00000000
00000010
00000000
,
00000100
00000000
00000001
00000000
00000010
00000001
00000000
00000100
00000010
00000000
00001000
00000000
00000100
00000000
00001100
00000000
,
00000000
00000000
00001000
00000000
00000000
00001000
00000000
00000000
00001000
00000000
00000010
00000000
00000100
00000000
00000100
00000000
,
00000000
00000000
00000001
00000000
00000000
00000001
00000000
00001000
00000001
00000000
00000010
00000000
00000100
00000000
00010000
00000000
,
00000000
00000000
00001000
00000000
00000000
00001000
00000000
00000000
00001000
00000000
00100000
00000000
01000000
00000000
20000000
00000000
,
00000000
00000000
00010000
00000000
00010000
30010000
01100000
01000000
,
00010000
00000000
00100000
01000000
00000000
10000000
00010000
00000000
00100000
00000000
00100000
00000000
00001000
00000000
00010000
00000000
,
00000010
00000000
00000100
00000001
00000000
00000010
00000100
00000000
00001000
00000000
00001000
00000000
00000110
00000000
00000010
00000000
,
00001000
00000000
00000100
00010000
00000000
00001000
00010000
00000000
00001000
00000000
01000000
00100000
01000000
00000000
00010000
00000000
,
10000000
00000000
01000000
10000000
00000000
00100000
01000000
00000000
00010000
00000000
10000000
00000000
10100000
00000000
00100000
00000000
,
01000000
01001000
00001000
00010000
00010001
00000001
00000100
00000110
,
00000010
00010000
00011000
00001000
00100000
01100000
01000000
00010000
,
10000000
00000000
01000000
10000000
00000000
10000000
01000000
00000000
00100000
00000000
00100000
00000000
02200000
00000000
00000000
00000000
,
00000000
00000000
00000000
00000000
00000000
03300000
00000000
00000000
;
