#TITLE:Voice 2 Voice;
#SUBTITLE:;
#ARTIST:MAD CHILD;
#TITLETRANSLIT:;
#SUBTITLETRANSLIT:;
#ARTISTTRANSLIT:;
#CREDIT:DigiMindAxel;
#BANNER:Voice 2 Voice.png;
#BACKGROUND:Voice 2 Voice-bg.png;
#LYRICSPATH:;
#CDTITLE:SOUND VOLTEX.png;
#MUSIC:Voice 2 Voice.ogg;
#METERTYPE:DDR X;
#OFFSET:-7.456;
#SAMPLESTART:20.840;
#SAMPLELENGTH:12.000;
#SELECTABLE:YES;
#BPMS:0.000=143.000;
#STOPS:172.000=1.259
;
#BGCHANGES:;

//---------------dance-single - ----------------
#NOTES:
     dance-single:
     :
     Easy:
     6:
     0.250,0.273,0.126,0.084,0.000:
0002
0000
0000
0000
,
2003
0000
0000
0000
,
3002
0000
0000
0000
,
2003
0000
0000
0000
,
3100
0010
0100
0010
,
0100
0010
0100
0010
,
0001
1000
0001
1000
,
0100
0000
0000
0000
,
1000
1000
1000
1000
,
0100
0100
0100
0100
,
1000
1000
1000
1000
,
0001
0001
0020
0000
,
0031
0001
0001
0001
,
0100
0100
0100
0100
,
0001
0001
0001
0001
,
1000
1000
2000
0000
,
3100
1000
0100
1000
,
0010
0100
0010
0100
,
0001
0010
0001
0010
,
0001
1000
0002
0000
,
0013
0001
0020
0000
,
0031
1000
0002
0000
,
1003
0010
1000
0010
,
0100
0010
0100
0010
,
0110
0000
0000
0000
,
0110
0000
0000
0000
,
1001
0000
0000
0000
,
0000
0000
0000
0000
,
1001
0000
0001
0000
,
1001
0000
1000
0000
,
0001
0000
1000
0000
,
0010
0000
0110
0110
,
1000
0000
0001
0000
,
1000
0000
0110
0110
,
0010
0000
0100
0000
,
0001
0000
1000
0000
,
0001
1000
0001
0000
,
0010
0001
0010
0000
,
0001
1000
0001
0000
,
0100
0010
0100
0000
,
0001
1000
0001
0000
,
0100
0001
0100
0000
,
0001
1000
0001
1000
,
1001
0010
0010
0010
,
0100
0001
0001
0001
,
0010
0100
0100
0100
,
0100
1000
1000
0001
,
0001
0100
0001
0100
,
0001
1000
1000
0001
,
1000
0001
0010
0001
,
0010
0100
0010
0110
,
0110
0100
1000
0100
,
1000
0010
0100
0010
,
0100
0001
0100
0001
,
0100
0001
1000
0001
,
0001
1000
0100
2000
,
0000
3010
0100
0110
,
0110
0100
0001
0010
,
0100
1000
0001
0010
,
0100
1001
0000
0000
;

//---------------dance-single - ----------------
#NOTES:
     dance-single:
     :
     Medium:
     10:
     0.424,0.422,0.285,0.042,0.050:
1001
0000
0000
0000
,
1000
0000
0000
0000
,
0100
0000
0000
0000
,
0010
0000
0000
0000
,
0001
1000
0001
0001
,
0010
0001
0100
0000
,
0010
0100
0010
0010
,
1000
0000
0000
0000
,
0010
0100
0010
0100
0001
1000
0001
0000
,
0010
0100
1000
0010
1000
0010
1000
0010
,
0100
0001
0100
0001
1000
0100
1000
0000
,
0001
0001
0100
0010
1000
0001
1000
0001
,
1000
0100
0010
0100
1000
0100
1000
0100
,
1000
1000
1000
0001
0010
0001
0010
0001
,
0100
0010
0100
0010
1000
0100
1000
0001
,
1000
0000
0100
0000
0010
0000
0001
0000
1000
0000
0000
1000
0000
0000
1000
0000
,
0010
0100
0010
0100
0001
0010
0001
0000
,
0100
0010
0100
0010
1000
0001
1000
0000
,
0010
1000
0010
1000
0100
0010
0001
0000
,
0010
0000
0100
0000
0010
0000
0100
0000
1000
0000
0000
1000
0000
0000
1000
0000
,
0001
0000
0010
0000
0100
0000
0000
0000
1001
0000
0000
1000
0000
0000
1000
0000
,
0010
0100
0010
0000
1001
0000
1001
0000
,
0010
0001
0010
0001
0010
0001
1000
0000
,
1001
1001
0110
0110
,
1001
0000
0000
0000
0000
0000
0000
0001
,
1001
0000
0000
0000
0000
0000
0010
0100
,
0110
0000
0000
0000
,
0000
0000
0000
0000
,
0110
0000
0000
0000
0000
0000
0000
0000
0010
0000
0000
0010
0000
0000
0010
0000
,
0110
0000
0000
0000
0000
0000
0000
0000
0100
0000
0000
0100
0000
0000
0100
0000
,
0110
0000
0000
0000
0010
0010
0010
0010
,
0100
0000
1001
1001
,
0020
0000
0000
0000
0000
0000
0000
0000
1030
0000
0000
1000
0000
0000
1000
0000
,
0002
0000
1003
1001
,
0020
0000
0031
0011
,
0200
0310
2000
3001
,
1000
0100
1000
0000
0100
0010
0001
0000
,
0100
0010
0100
0001
0100
0000
0000
0000
,
0001
0010
0001
0000
0010
0100
1000
0000
,
0010
0100
0010
0000
0010
0000
0010
0000
,
0100
0010
0100
0000
0001
1000
0010
0000
,
0100
0010
0100
0000
0100
0000
0100
0000
,
0001
0000
0010
0000
0100
0000
1000
0000
0001
0000
0000
0000
,
1001
0000
0001
0100
0001
0100
0010
0100
,
0001
0001
0100
0001
0100
0001
0001
1000
,
1000
0001
1000
0100
1000
0100
1000
0010
,
0100
0000
0100
0000
0001
0000
0010
0000
0100
0000
1000
0000
1001
0000
0000
0001
,
0000
0001
0010
0100
0010
0100
0010
0100
,
1000
1000
0001
0001
0001
0001
0001
1000
,
0001
0000
0100
0010
0100
0010
0100
0010
,
1000
0000
1000
0000
0100
0000
0010
0000
0001
0000
1000
0000
0001
0000
0000
0001
,
0000
0001
0010
0100
0010
0100
0010
0100
,
1000
1000
0001
0100
0001
0100
0001
1000
,
0100
1000
0010
0100
0010
0100
0010
1000
,
0001
1000
0100
0010
0100
0010
1001
0000
,
1001
0000
0000
0000
0001
0000
1000
0000
0001
0000
1000
0000
1100
0000
0000
0100
,
0000
0100
1000
0001
1000
0001
0101
0000
,
0101
0110
0110
1001
,
1001
1010
0101
1010
,
0101
0110
0000
0000
;

//---------------dance-single - ----------------
#NOTES:
     dance-single:
     :
     Hard:
     15:
     0.621,0.621,0.386,0.184,0.658:
2000
0000
0000
3000
,
0002
0000
0000
0000
0000
0000
0003
1000
,
0200
0000
0000
0300
,
0020
0000
0130
0110
,
0002
0000
0100
0003
,
2000
0000
0000
0000
0100
0000
3000
0010
,
0200
0000
0001
0000
,
0310
0000
0000
0000
0000
0000
0000
0000
0000
0000
0100
0010
0100
0000
0010
0000
,
1000
0000
0001
0100
0001
0000
0100
0010
0000
0010
0000
0010
0100
0000
0010
0000
,
1000
0000
1000
0000
0001
0100
0000
0010
0000
0100
0000
0001
1000
0000
1000
0000
,
0001
0000
1000
0100
1000
0000
0010
0100
0000
0100
0000
0100
0010
0000
0100
0000
,
0001
1000
0001
0000
1000
0000
0100
1000
0100
0000
1000
0100
0000
1000
0100
0000
,
0010
0000
0001
0100
0001
0000
1000
0100
0000
0100
0000
0100
1000
0000
0001
0000
,
1000
0000
1000
0000
0001
0000
0100
0010
0100
0001
0000
0001
0000
0001
1000
0000
,
0001
0000
1000
0100
1000
0000
0001
0100
0000
0100
0000
0100
0001
0000
1000
0000
,
0010
0100
0010
0100
0001
1000
0001
1000
0001
0000
0000
1001
0000
0000
1001
0000
,
1000
0000
0010
0100
0010
0000
1000
0001
0000
0001
0000
0001
1000
0000
0100
0000
,
0010
0000
0010
0000
0001
1000
0000
0100
0000
1000
0000
0010
0100
0000
0100
0000
,
0001
0000
1000
0100
1000
0000
0100
0010
0000
0010
0000
0010
0100
0000
1000
0000
,
0001
0100
0001
0000
1000
0000
0010
0100
0010
0000
0100
0010
0000
0100
0010
0000
,
1000
0000
0001
0010
0001
0000
1000
0000
1001
0000
0000
1001
0000
0000
1001
0000
,
0001
0000
0000
0000
0000
0000
1000
0000
0000
0010
0000
0000
1000
0000
0000
0000
0000
0000
0001
0000
0000
0000
0000
0000
0010
0000
0000
0000
0100
0000
0000
0000
0010
0000
0000
0000
0100
0000
0000
0000
0000
0000
0000
0000
0000
0000
0000
0000
,
1000
0000
0010
1000
0010
0000
1000
0001
0000
0001
0000
0001
2000
0000
0000
0000
,
3001
0010
0001
0010
0100
1000
0100
0000
0000
1100
0000
0000
,
1001
0000
0002
0000
0000
0000
0103
0101
,
1001
0000
2000
0000
0000
0000
3100
1100
,
1002
2003
3002
2003
,
3002
2003
3002
1003
,
0011
0000
0000
0001
0000
0000
0001
0000
1001
0000
0000
1001
0000
0000
1001
0000
,
1010
0000
0000
0010
0100
0010
0100
0000
1001
0000
0000
1001
0000
0000
1001
0000
,
0100
0100
0100
0100
1001
0001
0001
0001
,
1000
0000
0000
0000
0000
0000
0001
0000
0000
1000
0000
0000
0000
0000
0000
0000
0000
0000
1000
0000
0000
0000
0000
0000
0010
0000
0000
0000
0100
0000
0000
0000
0010
0000
0000
0000
0100
0000
0000
0000
0000
0000
0000
0000
0000
0000
0000
0000
,
0002
0000
0000
1000
0000
0000
1003
0000
1100
0000
0000
1100
0000
0000
1100
0000
,
0020
0000
0000
0000
0000
0000
0000
0000
0000
0100
0000
0000
0000
0000
0000
0000
0000
0000
0130
0000
0000
0000
0000
0000
0001
0000
0000
0000
1000
0000
0000
0000
0100
0000
0000
0000
1000
0000
0000
0000
0100
0000
0000
0000
0010
0000
0000
0000
,
0002
0000
0000
0100
0000
0000
0103
0000
1001
0000
0000
0000
1001
0000
0000
0000
,
0100
0000
0010
0000
0100
0000
0001
0000
0000
0001
0000
0000
1000
0000
0000
0100
0000
0000
1100
0000
0000
0000
0000
0000
,
0001
0100
1000
0000
0001
0010
1000
0000
,
0001
0100
0001
0100
0010
0000
0000
1000
,
1002
0100
1003
1001
,
2000
0100
3001
1001
,
0001
0100
1000
0000
0001
0010
1000
0000
,
0001
0000
0000
0001
0000
0000
0010
0000
0100
0000
1000
0000
0010
0000
0000
0100
0000
0000
0100
0000
0000
0000
0000
0000
,
0001
0100
0010
0000
0010
0000
1000
0100
0010
0001
0000
0000
,
1001
0000
0000
0000
0001
0010
0001
0010
0001
0000
0100
0010
0000
0010
0000
0010
,
1000
0000
1000
0000
0001
0000
0010
0000
0100
0000
1000
0001
0000
0001
0000
0001
,
1000
0000
1010
0000
0010
0100
0010
0100
0010
0000
0100
0001
0000
0001
0000
0001
,
1000
0000
1000
0000
0001
0100
0001
1000
0100
0010
0100
0010
0001
0000
0000
1001
,
0000
0000
1001
0000
1000
0010
1000
0010
1000
0000
0100
0010
0000
0010
0000
0010
,
0001
0000
0001
0000
1000
0000
1000
0000
1000
0000
1000
0000
1000
0001
0000
0100
,
0000
0010
0100
0000
0001
0100
0001
0100
0001
0000
0010
0100
0000
0100
0000
0100
,
1000
0000
1000
0000
0001
0010
0001
1000
0010
0100
0010
0100
0010
0000
0000
0110
,
0000
0000
0110
0000
0100
0000
0001
1000
0001
0000
1000
0100
0000
0100
0000
0100
,
0010
0000
0010
0000
0001
0000
0001
0000
1000
0010
0000
0100
0000
0010
0000
1000
,
0001
0000
0001
0000
1000
0000
0001
0010
0001
0000
0100
0010
0000
0010
0000
0010
,
1000
0000
1000
0000
0001
0010
0001
0000
1000
0000
0100
0010
0100
0000
0010
0100
,
0000
0010
0100
0000
1000
0000
0001
0100
0001
0000
1000
0000
1100
0000
0000
1100
,
0000
0000
0000
0000
0000
0000
1100
0000
0000
0000
0000
0000
1000
0000
0000
0000
0000
0000
0010
0000
0000
0100
0000
0000
0010
0000
0000
0000
0000
0000
0100
0000
0000
0000
0000
0000
0001
0000
0000
0000
1000
0000
0000
0000
0100
0000
0000
0000
,
1000
0000
0000
0010
0100
0010
1000
0010
0100
0001
0100
0010
,
1000
0100
0010
0011
0000
0101
0000
0110
0000
1100
0000
1001
,
0000
0101
0000
0110
0000
0000
0000
0000
0000
0000
0000
0000
;

//---------------dance-double - ----------------
#NOTES:
     dance-double:
     :
     Easy:
     7:
     0.256,0.273,0.201,0.034,0.000:
00000002
00000000
00000000
00000000
,
00002003
00000000
00000000
00000000
,
00003002
00000000
00000000
00000000
,
00002003
00000000
00000000
00000000
,
00003001
00000010
00000001
00000010
,
00000100
00010000
00000100
00010000
,
00001000
10000000
01000000
00100000
,
00010000
00000000
00000000
00000000
,
10000000
10000000
10000000
10000000
,
00100000
00100000
00100000
00100000
,
01000000
01000000
01000000
01000000
,
00001000
00001000
00001000
00001000
,
00010000
00010000
00010000
00010000
,
00000100
00000100
00000100
00000100
,
00000010
00000010
00000010
00000010
,
00000001
00001000
00001001
00000000
,
00000010
00000100
00000010
00000100
,
00000001
00000001
00001000
00000001
,
00010000
00000100
00010000
00000100
,
00010000
00001000
00001000
00001000
,
01000000
00100000
01100000
00000000
,
10000000
00010000
10010000
00000000
,
01000000
00100000
01000000
00010000
,
00100000
01000000
10000000
00001000
,
00011000
00000000
00000000
00000000
,
00011000
00000000
00000000
00000000
,
00000110
00000000
00000000
00000000
,
00000000
00000000
00000000
00000000
,
00001001
00000000
00000001
00000000
,
00001001
00000000
00001000
00000000
,
00000010
00000000
00000110
00000000
,
00000010
00000000
00011000
00011000
,
00001000
00000000
10000000
00000000
,
00001000
00000000
00011000
00011000
,
00010000
00000000
00000001
00000000
,
00010000
00010000
00001000
00001000
,
10000000
01000000
10000000
00000000
,
00010000
10000000
00010000
00000000
,
10000000
00001000
10000000
00000000
,
00001000
00010000
00001000
00000000
,
00010000
00000001
00010000
00000000
,
00000001
00000100
00000001
00000000
,
00010000
00001000
00010000
00001000
,
00011000
01000000
01000000
01000000
,
10000000
00100000
00100000
00100000
,
01000000
00001000
00001000
00001000
,
00010000
00000001
00000001
00001001
,
00001001
00000010
00000100
00000010
,
00000100
00000001
00001000
00000001
,
00001000
00000010
00010000
00000010
,
00010000
00001000
10000000
10010000
,
00000000
00100000
01000000
00010000
,
00010000
10000000
01000000
00100000
,
00001000
00010000
00000100
00010000
,
00000100
00001000
00000001
00001000
,
00000001
00000010
00000100
00000110
,
00000000
00010000
00000010
00011000
,
00000000
01100000
00100000
01100000
,
10000000
10010000
00010000
00011000
,
00001000
00011000
00000000
00000000
;

//---------------dance-double - ----------------
#NOTES:
     dance-double:
     :
     Medium:
     10:
     0.429,0.422,0.277,0.059,0.050:
00000001
00000000
00000010
00000000
,
00000001
00000000
00000010
00000000
,
00001001
00000000
00001000
00000000
,
00000100
00000000
00001000
00001000
,
00000001
00000000
00010000
00000000
,
00000100
00000000
00010000
00000000
,
00011000
00001000
01000000
00100000
,
01000000
00000000
00000000
00000000
,
00010000
10000000
10000000
00010000
00100000
01000000
00100000
00000000
,
00001000
00001000
10000000
00100000
10000000
00100000
10000000
00001000
,
00010000
00000100
00000100
00010000
00000001
00000010
00000100
00000000
,
00000010
00000010
00000001
00001000
00000100
00010000
00000100
00010000
,
00001000
10000000
01000000
00100000
00010000
01000000
00010000
00010000
,
10000000
10000000
10000000
01000000
00100000
01000000
00100000
00001000
,
00010000
00000010
00000100
00000010
00000100
00000001
00001000
00001000
,
00000001
00000000
00000010
00000000
00000100
00000000
00010000
00000000
00001000
00000000
00000000
00001000
00000000
00000000
00001000
00000000
,
01000000
00100000
01000000
00100000
10000000
01000000
10000000
00000000
,
00100000
01000000
00100000
01000000
00001000
10000000
00001000
00000000
,
01000000
00001000
01000000
00001000
00010000
00000100
00000010
00000000
,
00000001
00000000
00000001
00000000
00001000
00000000
00000100
00000000
00010000
00000000
00000000
00010000
00000000
00000000
00010000
00000000
,
00001000
00000000
10000000
00000000
01000000
00000000
00000000
00000000
10010000
00000000
00000000
10000000
00000000
00000000
10000000
00000000
,
00100000
01000000
00001000
00000000
00011000
00000000
00011000
00000000
,
00000100
00000010
00000100
00000010
00000100
00000010
00000001
00000000
,
00001001
00001001
00001100
00001100
,
00000001
00000000
00000000
00000000
00000000
00000000
00000000
00010000
,
00001000
00000000
00000000
00000000
00000000
00000000
10000000
00010000
,
10010000
00000000
00000000
00000000
,
00000000
00000000
00000000
00000000
,
10010000
00000000
00000000
00000000
00000000
00000000
00000000
00000000
01000000
00000000
00000000
01000000
00000000
00000000
01000000
00000000
,
01100000
00000000
00000000
00000000
00000000
00000000
00000000
00000000
00001000
00000000
00000000
00001000
00000000
00000000
00001000
00000000
,
00011000
00000000
00000000
00000000
00000001
00000001
00000001
00000001
,
00001000
00000000
00011000
00011000
,
20000000
00000000
00000000
00000000
00000000
00000000
00000000
00000000
30010000
00000000
00000000
00010000
00000000
00000000
00010000
00000000
,
02000000
00000000
03100000
10010000
,
00002000
00000000
00013000
00011000
,
00000020
00000130
00000002
00010003
,
00000010
00000100
00000010
00000000
00000100
00000010
00010000
00000000
,
00001000
10000000
00001000
00100000
01000000
00000000
00000000
00000000
,
10000000
00001000
10000000
00000000
00020000
00000000
01030000
00000000
,
00001000
00010000
00001000
00000000
00020000
00000000
00030001
00000000
,
00001000
00000100
00001000
00000000
00000100
00001000
00000001
00000000
,
00001000
00000100
00001000
00000001
00001000
00000100
00001000
00000000
,
00000001
00000000
00000010
00000000
00000100
00000000
00010000
00000000
00001000
00000000
00000000
00000000
,
00011000
00000000
00001000
01000000
00100000
01000000
00001000
10000000
,
01000000
01000000
00100000
01000000
00100000
00001000
00001000
00010000
,
00010000
00000001
00001000
00000100
00001000
00000100
00001000
00000001
,
00000010
00000000
00000010
00000000
00000001
00000000
00000010
00000000
00000100
00000000
00010000
00000000
00011000
00000000
00000000
00001000
,
00000000
00001000
01000000
00100000
01000000
00100000
01000000
00010000
,
10000000
10000000
00001000
00001000
00001000
00001000
00001000
00100000
,
01000000
00000000
00100000
01000000
00100000
01000000
00100000
01000000
,
00010000
00000000
00010000
00000000
00100000
00000000
01000000
00000000
10000000
00000000
00010000
00000000
10000000
00000000
00000000
10000000
,
00000000
10000000
01000000
00100000
01000000
00100000
01000000
00100000
,
00001000
00001000
00010000
00000100
00010000
00000100
00010000
00000001
,
00000010
00000001
00001000
00001000
00000001
00000100
00000010
00010000
,
00001000
00001000
00100000
01000000
00100000
01000000
10010000
00000000
,
10010000
00000000
00000000
00000000
00100000
00000000
00001000
00000000
00100000
00000000
00001000
00000000
00011000
00000000
00000000
00010000
,
00000000
00010000
00000010
00000100
00000010
00000100
00001001
00000000
,
00001001
00000110
00000110
00011000
,
00011000
01100000
10010000
01100000
,
10010000
01010000
00000000
00000000
;

//---------------dance-double - ----------------
#NOTES:
     dance-double:
     :
     Hard:
     15:
     0.643,0.621,0.427,0.126,0.658:
00000001
00000010
00000001
00000010
,
00000100
00000000
00001000
00000000
00000100
00000000
00001000
00000001
,
00000001
00010000
00000001
00010000
,
00000100
00000010
00001001
00001001
,
00010010
00000010
00010000
00000010
,
00010000
00000000
00001000
00000000
00010000
00000000
00001000
00001000
,
01000000
00100000
01000000
00100000
,
01000000
00000000
00000000
00000000
00000000
00000000
00000000
00000000
00000000
00000000
00010000
10000000
00010000
00000000
10000000
00000000
,
00010000
00000000
01000000
00010000
01000000
00000000
00001000
10000000
00000000
10000000
00000000
10000000
00001000
00000000
00010000
00000000
,
00000100
00000000
00000100
00000000
00010000
00000001
00000000
00000100
00000000
00000001
00000000
00010000
00000001
00000000
00000001
00000000
,
00001000
00000000
00000100
00001000
00000100
00000000
00010000
00001000
00000000
00001000
00000000
00001000
00010000
00000000
00001000
00000000
,
00100000
01000000
00100000
00000000
00001000
00000000
10000000
01000000
10000000
00000000
01000000
10000000
00000000
01000000
10000000
00000000
,
00100000
00000000
01000000
00010000
01000000
00000000
00001000
00010000
00000000
00010000
00000000
00010000
00001000
00000000
00010000
00000000
,
00000100
00000000
00000100
00000000
00001000
00000000
00000001
00001000
00000001
00000100
00000000
00000100
00000000
00000100
00000010
00000000
,
00010000
00000000
00000100
00010000
00000100
00000000
00001000
00000001
00000000
00000001
00000000
00000001
00001000
00000000
00000100
00000000
,
00010000
00001000
00010000
00001000
01000000
00100000
01000000
00100000
01000000
00000000
00000000
01100000
00000000
00000000
01100000
00000000
,
00010000
00000000
01000000
00100000
01000000
00000000
00001000
10000000
00000000
10000000
00000000
10000000
00001000
00000000
00010000
00000000
,
00000010
00000000
00000010
00000000
00000100
00000001
00000000
00000010
00000000
00000001
00000000
00000100
00000010
00000000
00000010
00000000
,
00010000
00000000
00000100
00010000
00000100
00000000
00001000
00000001
00000000
00000001
00000000
00000001
00001000
00000000
00000100
00000000
,
00010000
00001000
00010000
00000000
00001000
00000000
10000000
00100000
10000000
00000000
00100000
10000000
00000000
00100000
10000000
00000000
,
00010000
00000000
00100000
01000000
00100000
00000000
00010000
00000000
00011000
00000000
00000000
00011000
00000000
00000000
00011000
00000000
,
00001000
00000000
00000000
00000000
00000000
00000000
00000010
00000000
00000000
00000100
00000000
00000000
00000010
00000000
00000000
00000000
00000000
00000000
00001000
00000000
00000000
00000000
00000000
00000000
00000001
00000000
00000000
00000000
00000010
00000000
00000000
00000000
00000100
00000000
00000000
00000000
00001000
00000000
00000000
00000000
00000000
00000000
00000000
00000000
00000000
00000000
00000000
00000000
,
00000001
00000000
00010000
00001000
00010000
00000000
00000100
00000010
00000000
00000010
00000000
00000010
00000200
00000000
00000000
00000000
,
00001300
00000001
00001000
00000001
00000010
00000100
00010000
00000000
00000000
00011000
00000000
00000000
,
01100000
00000000
02000000
00000000
00000000
00000000
03100000
10100000
,
10010000
00000000
00002000
00000000
00000000
00000000
00013000
00011000
,
00010200
00020300
00030200
00020300
,
00030200
00020300
00030200
00010300
,
00010001
00000000
00000000
00000001
00000000
00000000
00000001
00000000
00000110
00000000
00000000
00000110
00000000
00000000
00000110
00000000
,
00010010
00000000
00000000
00010000
00001000
00010000
00001000
00000000
00011000
00000000
00000000
00011000
00000000
00000000
00011000
00000000
,
01000000
01000000
01000000
01000000
01100000
00100000
00100000
00100000
,
10000000
00000000
00000000
00000000
00000000
00000000
00010000
00000000
00000000
10000000
00000000
00000000
00000000
00000000
00000000
00000000
00000000
00000000
10000000
00000000
00000000
00000000
00000000
00000000
00100000
00000000
00000000
00000000
01000000
00000000
00000000
00000000
00001000
00000000
00000000
00000000
00010000
00000000
00000000
00000000
00000000
00000000
00000000
00000000
00000000
00000000
00000000
00000000
,
00002000
00000000
00000000
00010000
00000000
00000000
00013000
00000000
00000110
00000000
00000000
00000110
00000000
00000000
00000110
00000000
,
00020000
00000000
00000000
00000000
00000000
00000000
00000000
00000000
00000000
00001000
00000000
00000000
00000000
00000000
00000000
00000000
00000000
00000000
00031000
00000000
00000000
00000000
00000000
00000000
01000000
00000000
00000000
00000000
00100000
00000000
00000000
00000000
10000000
00000000
00000000
00000000
01000000
00000000
00000000
00000000
00100000
00000000
00000000
00000000
00001000
00000000
00000000
00000000
,
00020000
00000000
00000000
00001000
00000000
00000000
00031000
00000000
01100000
00000000
00000000
00000000
01100000
00000000
00000000
00000000
,
01000000
00000000
00100000
00000000
01000000
00000000
00001000
00000000
00000000
00001000
00000000
00000000
10000000
00000000
00000000
01000000
00000000
00000000
11000000
00000000
00000000
00000000
00000000
00000000
,
00010000
01000000
00100000
01000000
00010000
10000000
01000000
00000000
,
10000000
00001000
00100000
01000000
00100000
00000000
00001000
00011000
,
00010200
00001000
00001300
00001001
,
00000021
00000100
00000130
00001001
,
00001000
00000001
00000010
00000100
00000010
00000001
00010000
00000000
,
00001000
00000000
00000000
00010000
00000000
00000000
00000010
00000000
00000100
00000000
00000010
00000000
00010000
00000000
00000000
00001000
00000000
00000000
00001000
00000000
00000000
00010000
00000000
00000000
,
00000010
00001000
00000100
00000000
00001100
00000000
00000100
00010000
00001000
00010000
00000000
00000000
,
00011000
00000000
00000000
00000000
00100000
00010000
00100000
00010000
00100000
00000000
00001000
00010000
00000000
00010000
00000000
00010000
,
00001000
00000000
00001000
00000000
10000000
00000000
01000000
00000000
00100000
00000000
00010000
01000000
00000000
01000000
00000000
01000000
,
00010000
00000000
10010000
00000000
10000000
01000000
10000000
01000000
10000000
00000000
00001000
01000000
00000000
01000000
00000000
01000000
,
00001000
00000000
00001000
00000000
00010000
00000100
00010000
00000100
00001000
00000001
00001000
00000001
00001000
00000000
00000000
00001001
,
00000000
00000000
00001001
00000000
00000100
00000001
00000100
00000001
00000100
00000000
00000001
00010000
00000000
00010000
00000000
00010000
,
00000001
00000000
00000001
00000000
00000010
00000000
00000010
00000000
00000010
00000000
00000010
00000000
00000010
00000001
00000000
00000100
,
00000000
00000010
00000100
00000000
00000001
00000100
00000001
00000100
00000001
00000000
00000010
00000100
00000000
00000100
00000000
00000100
,
00010000
00000000
00010000
00000000
00000100
00010000
00000100
00010000
00001000
10000000
00001000
10000000
00001000
00000000
00000000
10001000
,
00000000
00000000
10001000
00000000
01000000
00000000
00100000
10000000
00100000
00000000
10000000
00001000
00000000
00001000
00000000
00001000
,
10000000
00000000
01000000
00000000
00100000
00000000
00100000
00000000
00001000
10000000
00000000
00100000
00000000
10000000
00000000
00100000
,
01000000
00000000
01000000
00000000
00001000
00000000
00010000
00001000
00010000
00000000
00000010
00000100
00000000
00000100
00000000
00000100
,
00000001
00000000
00000001
00000000
00000010
00000100
00000010
00000000
00000001
00000000
00001000
00000100
00001000
00000000
00000100
00001000
,
00000000
00000100
00001000
00000000
00000001
00000000
00010000
00001000
00010000
00000000
00001000
00000000
01100000
00000000
00000000
01100000
,
00000000
00000000
00000000
00000000
00000000
00000000
01100000
00000000
00000000
00000000
00000000
00000000
10000000
00000000
00000000
00000000
00000000
00000000
00100000
00000000
00000000
01000000
00000000
00000000
00100000
00000000
00000000
00000000
00000000
00000000
10000000
00000000
00000000
00000000
00000000
00000000
01000000
00000000
00000000
00000000
00100000
00000000
00000000
00000000
00001000
00000000
00000000
00000000
,
00010000
00000000
00000000
00000001
00000100
00000010
00010000
00000010
00000100
00000001
00001000
00000001
,
00000010
00000100
00010000
00011000
00000000
01001000
00000000
01100000
00000000
10010000
00000000
01001000
,
00000000
00011000
00000000
00010100
00000000
00000000
00000000
00000000
00000000
00000000
00000000
00000000
;

//---------------dance-single - ----------------
#NOTES:
     dance-single:
     :
     Beginner:
     3:
     0.103,0.149,0.101,0.000,0.000: // measure 1
0000
0000
0000
0000
,  // measure 2
0000
0000
0000
0000
,  // measure 3
0000
0000
0000
0000
,  // measure 4
0000
0000
0000
0000
,  // measure 5
0001
0000
0000
0000
,  // measure 6
1000
0000
0000
0000
,  // measure 7
0001
0000
0000
0000
,  // measure 8
0001
0000
0000
0000
,  // measure 9
1001
0000
1000
0000
,  // measure 10
1000
0000
0000
0000
,  // measure 11
0001
0000
0001
0000
,  // measure 12
0001
0000
0000
0000
,  // measure 13
1000
0000
1000
0000
,  // measure 14
1000
0000
0000
0000
,  // measure 15
0100
0000
0100
0000
,  // measure 16
0100
0000
0000
0000
,  // measure 17
0010
0000
0010
0000
,  // measure 18
0010
0000
0000
0000
,  // measure 19
0001
0000
0001
0000
,  // measure 20
0001
0000
0000
0000
,  // measure 21
0010
0000
0010
0000
,  // measure 22
0100
0000
0100
0000
,  // measure 23
1001
0000
0000
0000
,  // measure 24
1000
0000
0001
0000
,  // measure 25
1001
0000
0000
0000
,  // measure 26
1001
0000
0000
0000
,  // measure 27
0001
0000
0000
0000
,  // measure 28
0000
0000
0000
0000
,  // measure 29
1001
0000
0000
0000
,  // measure 30
1000
0000
0000
0000
,  // measure 31
0001
0000
0000
0000
,  // measure 32
1000
0000
0000
0000
,  // measure 33
0110
0000
0000
0000
,  // measure 34
0010
0000
0000
0000
,  // measure 35
0110
0000
0000
0000
,  // measure 36
0100
0000
0000
0000
,  // measure 37
0001
0000
0000
0000
,  // measure 38
0010
0000
0000
0000
,  // measure 39
0100
0000
0000
0000
,  // measure 40
0100
0000
0000
0000
,  // measure 41
0010
0000
0000
0000
,  // measure 42
0001
0000
0000
0000
,  // measure 43
1000
0000
0000
0000
,  // measure 44
1001
0001
0000
0000
,  // measure 45
0000
0010
0000
0000
,  // measure 46
0000
0100
0000
0000
,  // measure 47
0000
0010
0000
0000
,  // measure 48
0000
0001
0000
0000
,  // measure 49
0000
1000
0000
0000
,  // measure 50
0000
0001
0000
0000
,  // measure 51
0000
1000
0000
0001
,  // measure 52
0000
1000
0000
0100
,  // measure 53
0000
1000
0000
0100
,  // measure 54
0000
0010
0000
0001
,  // measure 55
0000
0010
0000
0001
,  // measure 56
0000
0100
0000
0010
,  // measure 57
0000
0100
0000
0110
,  // measure 58
0000
0010
0000
0010
,  // measure 59
0000
0110
0000
0110
,  // measure 60
0000
1001
0000
0000
;
