#TITLE:Virgin's high!;
#SUBTITLE:;
#ARTIST:MELL;
#TITLETRANSLIT:;
#SUBTITLETRANSLIT:;
#ARTISTTRANSLIT:;
#CREDIT:DigiMindAxel;
#BANNER:Virgin's high!.png;
#BACKGROUND:Virgin's high!-bg.png;
#LYRICSPATH:Virgin's high!.lrc;
#CDTITLE:DigiMindAxel original simfile.png;
#MUSIC:Virgin's high!.ogg;
#METERTYPE:DDR X;
#OFFSET:-0.443;
#SAMPLESTART:54.257;
#SAMPLELENGTH:12.000;
#SELECTABLE:YES;
#BPMS:0.000=177.000,128.000=88.500,136.000=177.000;
#STOPS:;
#BGCHANGES:-1.000=Virgin's high!.avi=1.000=1=1=0,
99999=-nosongbg-=1.000=0=0=0 // don't automatically add -songbackground-
;

//---------------dance-single - ----------------
#NOTES:
     dance-single:
     :
     Easy:
     6:
     0.266,0.349,0.088,0.120,0.000:
0000
0000
0000
0000
,
0000
0000
0000
0000
,
0000
0000
0000
0000
,
0000
0000
0000
0000
,
1000
0000
0001
0000
,
1000
0100
1000
0010
,
0100
0000
0001
0000
,
2000
0000
0000
0000
,
3001
1000
0001
0000
,
0100
0001
0100
0000
,
0001
1000
0001
0000
,
1000
0100
1000
0000
,
0010
0100
0010
0000
,
1000
0010
1000
0000
,
0001
1000
0001
1000
,
0002
0000
0000
0000
,
0013
0000
0010
0000
,
0010
0000
0010
0000
,
0100
0000
0100
0000
,
0100
0000
0100
0000
,
1000
0000
1000
0000
,
1000
0000
1000
0000
,
0001
0000
0001
0000
,
0001
0000
0001
0000
,
1000
0001
1000
0000
,
0100
1000
0010
0000
,
0100
0001
0010
0000
,
0001
0010
0100
0000
,
0010
0100
1000
0000
,
0001
1000
0001
0000
,
1000
0100
0010
0000
,
0100
0010
0001
0000
,
1000
1000
0001
0001
,
0100
0100
0010
0010
,
1000
0000
1000
0000
,
0001
0000
0001
0000
,
1000
0001
1000
0001
,
2000
0000
0000
0000
,
3200
0000
0000
0000
,
0320
0000
0000
0000
,
0031
0100
0010
0100
,
0001
0000
1000
0000
,
0020
0000
0000
0000
,
0230
0000
0000
0000
,
0301
0010
0100
0010
,
0001
0000
1000
0000
,
0020
0000
0000
0000
,
0230
0000
0000
0000
,
0301
1000
0100
1000
,
0001
0000
0010
0000
,
0200
0000
0000
0000
,
2300
0000
0000
0000
,
3100
0010
0001
0010
,
0100
0000
1000
0000
,
0110
0000
1001
0000
,
0110
0000
1001
0000
,
0110
0000
1001
0000
,
0110
0000
0110
0000
,
0001
0010
0100
0000
,
1000
0100
0010
0000
,
0001
0010
0001
0010
,
0001
1000
0001
1000
,
0100
1000
0100
1000
,
0010
0100
0010
0100
;

//---------------dance-single - ----------------
#NOTES:
     dance-single:
     :
     Medium:
     10:
     0.477,0.525,0.252,0.175,0.000:
0000
0000
0000
0000
,
0000
0000
0000
0000
,
0000
0000
0000
0000
,
0000
0000
0000
0000
,
1000
0100
1000
0100
,
1000
0010
0100
0100
,
0001
0100
0001
0100
,
0020
0000
0000
0000
,
0130
0001
0000
0001
0000
1000
0100
1000
,
0000
1000
0000
0010
0100
0000
0001
0000
,
1000
0100
0000
0100
0000
1000
0001
1000
,
0000
1000
0000
0010
0100
0000
0000
0000
,
0001
1000
0000
1000
0000
0100
0010
0100
,
0000
0100
0000
1000
0001
0000
0010
0000
,
0100
1000
0000
1000
0000
0010
0100
0010
,
2000
0000
3002
0000
,
1003
0100
1000
0100
,
1000
0100
1000
0100
,
1000
0001
1000
0001
,
1000
0001
1000
0001
,
0100
0001
0100
0001
,
0100
0001
0100
0001
,
1000
0001
1000
0001
,
1000
0001
1000
0000
,
0001
0100
0001
0100
0001
0000
1000
0000
,
0100
0010
0100
1000
,
0010
0000
1000
0001
0000
1000
0001
0000
,
0010
0100
0000
0010
0100
0000
1000
0000
,
0010
0100
0010
0100
0010
0000
0100
0000
,
0001
0000
1000
0000
0100
1000
0001
0000
,
0200
0000
0302
0000
,
2003
0000
3100
1000
,
0002
0000
0103
0000
0001
1000
0001
0000
,
0020
0000
0031
0000
0100
0010
0100
0000
,
0001
1000
0001
1000
,
0001
1000
0001
1000
,
0100
0000
0010
0000
0001
1000
0010
0000
,
0220
0000
0000
0330
,
2001
0000
0000
3001
,
1000
0000
0100
0010
0001
0000
1000
0000
,
0001
0101
0101
1100
,
1000
0000
0001
0000
0100
0010
1000
0000
,
0010
1010
1010
0120
,
0000
0000
0030
0000
1000
0001
1000
0000
,
0001
0011
0011
0110
,
0100
0000
1000
0000
0100
0010
0000
0000
,
0102
0000
0000
0000
0000
0000
1003
0001
,
1000
0000
0100
0010
0001
0000
1000
0000
,
1100
1100
0110
0101
,
0001
0000
0010
0100
1000
0000
0001
0000
,
0011
0011
0110
2200
,
0000
0000
3300
0000
1000
0001
1000
0000
,
0010
1010
1010
0210
,
0000
0000
0301
0000
1000
0100
0000
0000
,
1000
0100
0010
0000
0001
0010
0100
0000
,
1000
0010
0100
0000
0001
0100
0010
0000
,
1000
0001
0010
0000
0001
1000
0100
0000
,
1000
0010
0100
0000
0010
0100
0001
0000
,
1000
0010
1000
0010
0100
0000
0001
0000
,
0010
0100
0010
0100
1000
0000
0001
0000
,
0100
0001
0100
0001
1000
0000
0100
0000
,
0010
0001
0010
0001
1000
0000
0010
0000
,
0100
0010
0100
0010
0100
0010
0100
0000
,
0001
1000
0001
1000
0001
1000
0001
0010
;

//---------------dance-single - ----------------
#NOTES:
     dance-single:
     :
     Hard:
     12:
     0.599,0.594,0.066,0.274,0.044:
0000
0000
0000
0000
,
0000
0000
0000
0000
,
0000
0000
0000
0000
,
0000
0000
0000
0000
,
1000
0000
1000
0010
0100
0001
1000
0000
,
0100
0000
0100
0010
0001
0010
0100
0000
,
0010
0000
0010
0001
0100
0010
1000
0000
,
0001
0000
0001
0000
0001
0000
0002
0000
0000
0000
0000
0000
,
1003
0001
0100
0001
0000
0001
1000
0100
,
0010
0100
0000
0100
1000
0010
0100
0000
,
0001
1000
0100
1000
0000
1000
0010
0100
,
0001
0010
0000
0010
0200
1000
0000
1300
,
0001
0100
0010
0100
0000
0100
0001
0010
,
0100
1000
0000
1000
0001
0010
0001
0000
,
1000
0001
0010
0100
0000
0100
1000
0010
,
0100
0010
0100
0010
2000
0000
0000
0000
,
3001
0001
0001
0001
,
1000
1000
1000
1000
,
1000
0100
0010
0000
0001
1000
0001
0000
,
0100
0010
1000
0000
0100
0010
0100
0000
,
1000
1000
1000
1000
,
0001
0001
0001
0001
,
1000
0010
0100
0000
0001
1000
0001
0000
,
0010
0100
1000
0000
0001
2000
0000
0000
,
3100
0010
0100
0010
0001
0100
0010
0000
,
1000
0001
1000
0001
0010
0100
1000
0000
,
0001
0100
0010
0001
0000
1000
0100
0010
,
1000
0001
0010
0100
1000
0001
1000
0000
,
0001
0100
0010
0100
0010
1000
0100
0000
,
1000
0001
0100
0001
1000
0100
0010
0000
,
0001
0100
0001
0000
1000
0010
1000
0000
,
0100
0010
0100
0010
0100
0010
0001
0010
,
0001
0000
0000
0000
1001
0000
0000
0100
0000
0100
0000
0001
1000
0000
0000
0000
,
0100
0000
0000
0000
1100
0000
0000
0010
0000
0010
0000
0001
0100
0000
0000
0000
,
0010
0000
0100
0000
0010
0100
0010
0000
,
1000
0000
0001
0000
1000
0001
1000
0000
,
0001
0010
0100
1000
0001
0010
0100
1000
,
0002
0000
0000
0003
,
2001
0100
0001
3100
,
1000
0001
0010
0100
0010
0001
0100
0000
,
0102
2003
3200
0310
,
0001
0100
0010
0000
1000
0100
1000
0000
,
1002
0023
0230
0310
,
0001
0000
0100
0010
0100
0010
0100
0001
,
0020
0230
0320
0031
,
0100
0001
0100
0001
1000
0100
0000
0000
,
1002
0000
0010
0000
1000
0000
0013
0001
,
0010
0000
0100
1000
0010
0100
0010
0000
,
2000
3020
0230
0301
,
1000
0100
0010
0000
0100
1000
0010
0100
,
0020
2030
3002
1003
,
0001
0000
0100
0010
0100
0010
0100
0010
,
2000
3020
0230
0310
,
1000
0100
1000
0010
0100
0001
0000
0000
,
1000
0100
0001
0000
0001
0100
1000
0000
,
0001
0010
1000
0000
1000
0010
0001
0000
,
1000
0010
0001
0000
0001
0010
1000
0000
,
0001
0100
1000
0000
1000
0100
0001
0000
,
1000
0100
0001
0000
1000
0010
0001
0000
,
1000
0100
0001
0000
1000
0010
0001
0000
,
0100
0010
1000
0010
0100
0010
1000
0010
,
0100
0001
0010
0100
0010
0001
0010
0100
,
0010
0001
0100
0001
1000
0001
0010
0001
,
0100
0001
1000
0100
0010
0001
0100
1000
;

//---------------dance-double - ----------------
#NOTES:
     dance-double:
     :
     Easy:
     6:
     0.285,0.349,0.120,0.109,0.000:
00000000
00000000
00000000
00000000
,
00000000
00000000
00000000
00000000
,
00000000
00000000
00000000
00000000
,
00000000
00000000
00000000
00000000
,
10000000
00010000
10000000
00000000
,
01000000
00100000
00010000
00100000
,
01000000
00000000
10000000
00010000
,
20000000
00000000
00000000
00000000
,
30001000
00100000
00001000
00000000
,
00010000
00001000
00010000
00000000
,
00000100
00000010
00000100
00000000
,
00001000
00000001
00001000
00000000
,
00000001
00000100
00000001
00000000
,
00001000
00000010
00001000
00000000
,
00000001
00000010
00000100
00001000
,
00020000
00000000
00000000
00000000
,
00130000
00000000
00100000
00000000
,
00100000
00000000
00100000
00000000
,
01000000
00000000
01000000
00000000
,
01000000
00000000
01000000
00000000
,
10000000
00000000
10000000
00000000
,
10000000
00000000
10000000
00000000
,
00001000
00000000
00001000
00000000
,
00001000
00000000
00001000
00000000
,
00010000
00001000
00010000
00000000
,
00000100
00000010
00000001
00000000
,
00000100
00000001
00001000
00000000
,
00000100
00000010
00000001
00000000
,
00000100
00000010
00010000
00000000
,
00001000
00010000
00001000
00000000
,
00100000
01000000
10000000
00000000
,
01000000
10000000
00100000
00100000
,
10010000
10000000
00010000
00010000
,
01000000
01000000
00001000
00001000
,
00010000
00000000
00000001
00000000
,
00010000
00000000
00000001
00000000
,
00010000
00000001
00010000
00000001
,
00020000
00000000
00000000
00030000
,
00000220
00000000
00000000
00000330
,
00000010
00000000
00000100
00000000
,
00001000
00000010
00000100
00000010
,
00001000
00000000
00000001
00000000
,
00000010
00000100
00001000
00010000
,
01000000
00000000
00100000
01000000
,
00100000
10000000
01000000
00100000
,
00001000
00000000
00010000
00010000
,
00022000
00000000
00000000
00033000
,
00000020
00000000
00000000
00000000
,
00001030
00000001
00000010
00000001
,
00001000
00000000
00000100
00000000
,
00000020
00000000
00000000
00000000
,
00000032
00000000
00000000
00000000
,
00000013
00000100
00010000
00001000
,
00100000
00000000
01000000
00000000
,
01100000
00000000
01100000
00000000
,
10010000
00000000
10010000
00000000
,
00011000
00000000
00011000
00000000
,
00000110
00000000
00000110
00000000
,
00001000
00000100
00000010
00000000
,
00000001
00000010
00000100
00000000
,
00010000
00000010
00010000
00000010
,
00010000
00001000
00010000
00001000
,
00100000
01000000
00100000
01000000
,
10000000
00100000
10000000
00100000
;

//---------------dance-double - ----------------
#NOTES:
     dance-double:
     :
     Medium:
     10:
     0.482,0.525,0.274,0.142,0.000:
00000000
00000000
00000000
00000000
,
00000000
00000000
00000000
00000000
,
00000000
00000000
00000000
00000000
,
00000000
00000000
00000000
00000000
,
10000000
00010000
10000000
00010000
,
00100000
01000000
10000000
11000000
,
00001000
01000000
00001000
00010000
,
00000020
00000000
00000000
00000000
,
00001030
00000001
00000000
00000001
00000000
00000010
00000100
00000010
,
00000000
00000010
00000000
00000001
00001000
00000000
00000010
00000000
,
00000100
00000001
00000000
00000001
00000000
00010000
00001000
00010000
,
00000000
00010000
00000000
00001000
01000000
00000000
00000000
00000000
,
00100000
10000000
00000000
10000000
00000000
01000000
00100000
01000000
,
00000000
01000000
00000000
10000000
00010000
00000000
00100000
00000000
,
00001000
00010000
00000000
00010000
00000000
00000100
00000010
00000100
,
00002000
00000000
00003002
00000000
,
00001003
00001000
00001000
00001000
,
00000001
00000001
00000001
00000001
,
00010000
00010000
00001000
00001000
,
00100000
00100000
01000000
01000000
,
10000000
10000000
10000000
10000000
,
00010000
00010000
00010000
00010000
,
01000000
01000000
00001000
00001000
,
00010000
00010000
00000100
00000100
,
00001000
00000100
00001000
00000100
00000010
00000000
00000001
00000000
,
00001000
00000100
00001000
00000001
,
00000010
00000000
00000100
00010000
00000000
00000100
00010000
00000000
,
00001000
00010000
00000000
00001000
00010000
00000000
00001000
00000000
,
01000000
00100000
01000000
00100000
10000000
00000000
01000000
00000000
,
00100000
00000000
01000000
00000000
10000000
00100000
01000000
00000000
,
00002000
00000000
00023000
00000000
,
00030020
00000000
00000130
00000010
,
00001001
00000000
00000100
00000000
00000010
00000001
00000100
00000000
,
00000110
00000000
00000010
00000000
00000100
00001000
00010000
00000000
,
00100000
01000000
00100000
01000000
,
00100000
01000000
00100000
01000000
,
00010000
00000000
10000000
00000000
01000000
00100000
00010000
00100000
,
02000000
00000000
00000000
03000000
,
10020000
00000000
00000000
10030000
,
00010000
00000000
10000000
00100000
01000000
00000000
00001000
00000000
,
00010000
00011000
00011000
00010010
,
00000010
00000000
00000100
00000000
00000010
00000001
00010000
00000000
,
00001000
00011000
00011000
02001000
,
00000000
00000000
03100000
10000000
01000000
10000000
01000000
00000000
,
00100000
00100100
00100100
00001100
,
00001000
00000000
00000010
00000000
00000100
00000001
00000000
00000000
,
00000210
00000000
00000000
00000000
00000000
00000000
00000310
00000100
,
00000010
00000000
00001000
00000001
00000100
00000000
00000010
00000000
,
00010010
00010010
00011000
00011000
,
00001000
00000000
00100000
00010000
01000000
00000000
00100000
00000000
,
10100000
10100000
10001000
00022000
,
00000000
00000000
00033000
00000000
00000010
00000100
00000010
00000000
,
00000001
00000011
00000011
00020001
,
00000000
00000000
00031000
00000000
01000000
00100000
00000000
00000000
,
10000000
01000000
00100000
00000000
00010000
10000000
00010000
00000000
,
00100000
01000000
10000000
00000000
00010000
10000000
00010000
00000000
,
01000000
00100000
10000000
00000000
00100000
01000000
00001000
00000000
,
00010000
00000010
00000100
00000000
00000001
00001000
00000100
00000000
,
00000010
00000001
00000100
00000000
00000010
00010000
00001000
00000000
,
00100000
01000000
10000000
00000000
00100000
01000000
00001000
00000000
,
00010000
00000100
00000010
00000000
00000001
00000100
00000010
00000000
,
00000100
00000001
00000010
00000000
00000100
00010000
00001000
00000000
,
00100000
01000000
00100000
01000000
10000000
00100000
01000000
00000000
,
00001000
00010000
00001000
00010000
00001000
00010000
00000100
00000010
;

//---------------dance-double - ----------------
#NOTES:
     dance-double:
     :
     Hard:
     12:
     0.619,0.769,0.296,0.055,0.071:
00000000
00000000
00000000
00000000
,
00000000
00000000
00000000
00000000
,
00000000
00000000
00000000
00000000
,
00000000
00000000
00000000
00000000
,
10000000
00000000
10000000
01000000
00100000
01000000
10000000
00000000
,
00001000
00000000
00001000
00010000
00000010
00000100
00000010
00000000
,
00001000
00000000
00001000
00000001
00000010
00000001
00000100
00000000
,
00000010
00000000
00000010
00000000
00000010
00000000
00000020
00000000
00000000
00000000
00000000
00000000
,
00010030
00001000
00100000
01000000
00000000
01000000
10000000
00010000
,
01000000
00010000
00000000
00010000
10000000
01000000
00100000
00000000
,
00010000
00000010
00000100
00000010
00000000
00000010
00000100
00000001
,
00000010
00000100
00000000
00000100
00020000
00001000
00000000
00031000
,
00100000
01000000
00100000
00010000
00000000
00010000
10000000
00100000
,
01000000
00001000
00000000
00001000
00010000
00000100
00000010
00000000
,
00000001
00000100
00000001
00001000
00000100
00001000
00010000
01000000
,
00100000
01000000
00100000
10000000
00020000
00000000
00000000
00000000
,
10030000
01000000
10000000
01000000
,
00100000
00010000
00100000
00010000
,
00100000
01000000
10000000
00000000
00100000
01000000
00100000
01000000
,
00010000
10000000
01000000
00000000
00100000
00010000
00100000
00000000
,
00001000
00010000
00001000
00010000
,
00000010
00000100
00000010
00000100
,
00000001
00001000
00000010
00000000
00001000
00000010
00001000
00000000
,
00000100
00000010
00000001
00000000
00010000
00002000
00000000
00000000
,
00103000
01000000
00100000
01000000
10000000
00100000
01000000
00000000
,
00010000
00100000
01000000
00100000
00001000
00010000
00001000
00000000
,
00010000
00000100
00000010
00000001
00000010
00000100
00010000
00001000
,
01000000
00100000
10000000
00100000
01000000
00010000
00001000
00000000
,
00000100
00000010
00000100
00000010
00000001
00001000
00000010
00000000
,
00010000
00001000
00010000
00001000
00100000
01000000
10000000
00000000
,
00100000
10000000
01000000
00100000
00010000
00001000
00000010
00000100
,
00000001
00001000
00000001
00001000
00000001
00000010
00000100
00000010
,
00000001
00000100
00000000
00000000
00000110
00000000
00000000
00010000
00000000
00010000
00000000
00001000
01000000
00100000
01000000
00100000
,
01000000
00000000
00000000
00000000
10010000
00000000
00000000
10000000
00000000
10000000
00000000
00100000
01000000
00001000
00010000
00001000
,
00010000
00000000
00001000
00000000
00010000
00001000
00010000
00000000
,
00000010
00000000
00000100
00000000
00000010
00000100
00000010
00000000
,
00000100
00000001
00000010
00000100
00001000
00000001
00000010
00000100
,
00020000
00000000
00000000
00030000
,
00011000
00001000
01000000
00100000
,
10000000
01000000
00100000
01000000
10000000
00010000
10000000
00000000
,
10100000
01100000
01001000
00011000
,
00010000
00000100
00000010
00000000
00000001
00000010
00000100
00000000
,
00001010
00010010
00011000
01001000
,
01100000
00000000
00100000
10000000
01000000
10000000
01000000
00100000
,
00001000
00011000
00010010
00000110
,
00000100
00000010
00000100
00000010
00000001
00010000
00000000
00000000
,
00011000
00000000
00010000
00000000
00000010
00000000
00000100
00000001
,
00000010
00000000
00000001
00000010
00000001
00001000
00000010
00000000
,
00010010
00011000
00110000
01100000
,
01000000
10000000
00010000
00000000
00100000
00010000
01000000
00100000
,
01000000
01100000
01001000
00011000
,
00010001
00000000
00000001
00000010
00000100
00000010
00000100
00001000
,
00010000
00011000
00101000
01100000
,
01000000
00010000
00100000
01000000
10000000
00010000
00000000
00000000
,
10000000
01000000
00100000
00000000
00100000
00010000
00001000
00000000
,
00000010
00000100
00000001
00000000
00000001
00000100
00000010
00000000
,
00001000
00000100
00000010
00000000
00000010
00000001
00010000
00000000
,
00001000
00100000
01000000
00000000
01000000
10000000
00100000
00000000
,
01000000
00010000
00100000
00000000
00100000
01000000
10000000
00000000
,
00100000
01000000
00010000
00000000
00010000
00001000
00000100
00000000
,
00001000
00000001
00000010
00000001
00001000
00000001
00000010
00000001
,
00010000
00001000
01000000
00100000
01000000
00001000
01000000
00100000
,
01000000
00001000
00100000
01000000
10000000
01000000
00100000
00001000
,
00010000
00000100
00000001
00000100
00010000
00001000
01000000
00100000
;

//---------------dance-single - ----------------
#NOTES:
     dance-single:
     :
     Beginner:
     4:
     0.142,0.209,0.109,0.000,0.000: // measure 1
0000
0000
0000
0000
,  // measure 2
0000
0000
0000
0000
,  // measure 3
0000
0000
0000
0000
,  // measure 4
0000
0000
0000
0000
,  // measure 5
1000
0000
0000
0000
,  // measure 6
0100
0000
0000
0000
,  // measure 7
1000
0000
0000
0000
,  // measure 8
0100
0000
0000
0000
,  // measure 9
1001
0000
0000
0001
,  // measure 10
0000
0000
1001
0000
,  // measure 11
1000
0000
0000
1001
,  // measure 12
0000
0000
0001
0000
,  // measure 13
0110
0000
0000
0100
,  // measure 14
0000
0000
0110
0000
,  // measure 15
0010
0000
0000
0010
,  // measure 16
0000
0000
0000
0000
,  // measure 17
1000
0000
0000
0000
,  // measure 18
0000
0000
0000
0000
,  // measure 19
0100
0000
0000
0000
,  // measure 20
0000
0000
0000
0000
,  // measure 21
0010
0000
0000
0000
,  // measure 22
0000
0000
0000
0000
,  // measure 23
0001
0000
0000
0000
,  // measure 24
0000
0000
0000
0000
,  // measure 25
1001
0000
0000
0000
,  // measure 26
1000
0000
0000
0000
,  // measure 27
0001
0000
0100
0000
,  // measure 28
0001
0000
0000
0000
,  // measure 29
1000
0000
0000
0000
,  // measure 30
0100
0000
0000
0000
,  // measure 31
0010
0000
0001
0000
,  // measure 32
0010
0000
0000
0000
,  // measure 33
1001
0000
0000
0000
,  // measure 34
1000
0000
0000
0000
,  // measure 35
0001
0000
0001
0000
,  // measure 36
0001
0000
0001
0000
,  // measure 37
0001
0000
0000
0000
,  // measure 38
1000
0000
0000
0000
,  // measure 39
1001
0000
0000
0000
,  // measure 40
0010
0000
0100
0000
,  // measure 41
0010
0000
0000
0000
,  // measure 42
0001
0000
0100
0000
,  // measure 43
0001
0000
0000
0000
,  // measure 44
1000
0000
0010
0000
,  // measure 45
1000
0000
0000
0000
,  // measure 46
0001
0000
1000
0000
,  // measure 47
1001
0000
0000
0000
,  // measure 48
0010
0000
0100
0000
,  // measure 49
0010
0000
0000
0000
,  // measure 50
1000
0000
0100
0000
,  // measure 51
1000
0000
0000
0000
,  // measure 52
0001
0000
0010
0000
,  // measure 53
0001
0000
0000
0000
,  // measure 54
0100
0000
0100
0000
,  // measure 55
0110
0000
0010
0000
,  // measure 56
0010
0000
0010
0000
,  // measure 57
1000
0000
1000
0000
,  // measure 58
1000
0000
1000
0000
,  // measure 59
0001
0000
0001
0000
,  // measure 60
0001
0000
0001
0000
,  // measure 61
0010
0000
0100
0000
,  // measure 62
0010
0000
0100
0000
,  // measure 63
1000
0000
1000
0000
,  // measure 64
1000
0000
0001
0000
;
