#TITLE:Vermillion;
#SUBTITLE:;
#ARTIST:Mystic Moon;
#TITLETRANSLIT:;
#SUBTITLETRANSLIT:;
#ARTISTTRANSLIT:;
#CREDIT:DigiMindAxel;
#BANNER:Vermillion.png;
#BACKGROUND:Vermillion-bg.png;
#LYRICSPATH:;
#CDTITLE:beatmania IIDX.png;
#MUSIC:Vermillion.ogg;
#METERTYPE:DDR X;
#OFFSET:-0.386;
#SAMPLESTART:16.153;
#SAMPLELENGTH:12.000;
#SELECTABLE:YES;
#BPMS:0.000=152.000;
#STOPS:;
#BGCHANGES:-1.000=Vermillion.avi=1.000=1=1=0,
99999=-nosongbg-=1.000=0=0=0 // don't automatically add -songbackground-
;

//---------------dance-single - ----------------
#NOTES:
     dance-single:
     :
     Easy:
     5:
     0.227,0.266,0.131,0.066,0.000: // measure 1
0000
0000
0000
0000
,  // measure 2
0000
0000
0000
0000
,  // measure 3
0000
0000
0000
0000
,  // measure 4
0000
0000
0000
0000
,  // measure 5
0000
0000
0000
0000
,  // measure 6
1000
0000
0100
0000
,  // measure 7
1000
0000
0100
0000
,  // measure 8
0010
0000
0001
0000
,  // measure 9
0100
0000
0100
0000
,  // measure 10
0110
0000
0000
0000
,  // measure 11
0001
0000
2000
0000
,  // measure 12
3100
0000
0020
0000
,  // measure 13
0031
0000
0200
0000
,  // measure 14
0310
0000
1000
0000
,  // measure 15
0002
0000
0103
0000
,  // measure 16
0001
0000
2000
0000
,  // measure 17
3100
0000
0020
0000
,  // measure 18
0031
0000
0100
0000
,  // measure 19
0110
0000
0010
0100
,  // measure 20
0010
0000
1000
0001
,  // measure 21
1000
0000
0001
0010
,  // measure 22
0001
0000
1000
0001
,  // measure 23
1000
0000
0010
1000
,  // measure 24
0010
0000
1000
0001
,  // measure 25
1000
0000
0100
0010
,  // measure 26
0100
0000
0000
0000
,  // measure 27
1001
0000
1000
0000
,  // measure 28
0001
0010
0100
1000
,  // measure 29
1001
0000
0001
0000
,  // measure 30
1000
0100
0010
0001
,  // measure 31
1001
0000
1000
0000
,  // measure 32
0010
0100
0001
0010
,  // measure 33
1001
0000
1000
0000
,  // measure 34
0100
1000
0010
0100
,  // measure 35
1001
0000
0000
0000
,  // measure 36
1001
0000
0000
0000
,  // measure 37
0110
0000
0000
0000
,  // measure 38
0110
0000
0000
0000
,  // measure 39
0010
0100
0010
0100
,  // measure 40
0001
0010
0001
0010
,  // measure 41
0001
1000
0001
1000
,  // measure 42
0100
0100
0100
0100
,  // measure 43
0000
0000
0000
0000
,  // measure 44
1001
0100
0010
0000
,  // measure 45
0001
0100
0010
0000
,  // measure 46
0100
0010
0100
0000
,  // measure 47
0001
1000
0100
0000
,  // measure 48
0010
0001
0100
0000
,  // measure 49
0010
0100
0010
0000
,  // measure 50
1000
0100
0010
0000
,  // measure 51
0001
0010
0100
0000
,  // measure 52
1000
1000
1000
1000
,  // measure 53
0001
0001
0001
0001
,  // measure 54
1000
0000
1000
0000
1000
0000
0000
0110
;

//---------------dance-single - ----------------
#NOTES:
     dance-single:
     :
     Medium:
     8:
     0.383,0.443,0.120,0.175,0.000:
0000
0000
0000
0000
,
0000
0000
0000
0000
,
0000
0000
0000
0000
,
0000
0000
0000
0000
,
0000
0000
0000
0000
,
1000
1000
0001
0001
,
1000
1000
0001
0001
,
1000
1000
0001
0001
,
0010
0100
1000
0001
,
2002
0000
0000
3003
,
1000
0000
0001
0100
0002
0000
0000
0000
,
1003
0000
0002
0000
,
1003
0100
0010
0001
,
0100
0010
0100
0000
0001
1000
0001
0000
,
1000
0000
0010
0100
0020
0000
0000
0000
,
0130
0000
0002
0000
,
0013
0001
1000
0100
,
0010
0000
0001
0000
1000
0001
1000
0001
,
2000
3001
1000
0100
,
0020
0031
0100
0010
,
2000
3100
0010
0001
,
0200
0310
1000
0001
,
0020
0031
0100
0010
,
2000
3100
0010
0001
,
0200
0310
2000
3100
,
1000
0001
1000
0001
1000
0001
1000
0000
,
1001
0000
0010
0000
0100
0000
1000
0100
,
0010
0000
0001
0000
0010
0000
0100
1000
,
0100
0000
1000
0000
0010
0000
0100
0001
,
0010
0000
0001
0000
1000
0000
0100
0010
,
0100
0000
1000
0000
0010
0000
0100
0001
,
0010
0000
0100
0000
1000
0000
0001
1000
,
0001
0000
0010
0000
0001
0000
0100
0010
,
0100
0001
0010
0100
,
1100
0000
0000
1001
0000
0000
0001
0100
,
0001
0000
0000
0101
0000
0000
1000
0001
,
1000
0000
0000
1100
0000
0000
0010
0100
,
0010
0000
0000
0110
0000
0000
0010
0001
,
0010
0000
0001
0000
0010
0000
0100
1000
,
0010
0000
0100
0000
0010
0000
1000
0100
,
0010
0001
0101
0001
,
1001
1000
0100
0010
,
2002
0000
0000
3003
,
1000
0100
1000
0000
0001
1000
0001
0000
,
1000
0100
0010
0001
,
0100
0010
0100
0000
0001
1000
0001
0000
,
1000
0100
1000
0000
0001
1000
0001
0000
,
0010
0000
0001
0100
0010
0000
0100
0000
,
1001
0000
0001
0000
1000
0100
1000
0000
,
0001
1000
0001
0000
0100
0001
0010
0000
,
0100
0010
0100
0010
0100
0010
0100
0000
,
1000
0100
0000
1000
0100
0000
0000
0000
,
0010
0100
0000
0010
0100
0000
0000
0000
,
0010
0001
0000
0010
0001
1000
0010
1000
;

//---------------dance-single - ----------------
#NOTES:
     dance-single:
     :
     Hard:
     11:
     0.515,0.602,0.186,0.285,0.246:
0000
0000
0000
0000
,
0000
0000
0000
0000
,
0000
0000
0000
0000
,
0000
0000
0000
0000
,
0000
0000
0000
0000
,
2001
0100
0010
3001
,
2000
0100
0010
3001
,
1000
1000
0001
0010
0100
1000
0001
0100
,
0001
0001
1000
0010
0100
0001
0101
0000
,
0220
0000
0000
0330
,
0200
0000
0000
0001
0000
0000
0301
0000
1000
0000
0100
0000
0010
0000
0000
0000
,
0001
1000
0001
0000
0020
0000
0130
0000
,
2000
0000
0000
0001
0000
0000
3001
0000
0010
0000
0000
0000
1001
0000
0000
0000
,
0001
0100
1000
0000
0100
0010
0100
1000
,
0020
0000
0000
0100
0000
0000
0130
0000
0001
0000
0000
0000
0101
0000
0000
0000
,
0100
0010
0100
0000
0002
0000
1003
0000
,
0200
0000
0000
0320
0000
0000
0031
0000
,
1000
0100
0001
0000
0100
1000
0010
0100
,
2001
0000
0000
0000
3100
0000
0000
0000
0001
0000
0100
0000
0000
1000
0000
0000
,
2100
0000
0000
0000
3001
0000
0000
0000
1000
0000
0001
0000
0000
0100
0000
0000
,
2100
0000
0000
0000
3001
0000
0000
0000
0100
0000
0010
0000
0000
1000
0000
0000
,
1002
0000
0000
0000
0013
0000
0000
0000
1000
0000
0010
0000
0000
0001
0000
0000
,
0012
0000
0000
0000
1003
0000
0000
0000
0001
0000
1000
0000
0000
0100
0000
0000
,
0102
0000
0000
0000
1003
0000
0000
0000
0001
0000
1000
0000
0000
0010
0000
0000
,
0110
0100
0001
0010
0100
1000
0001
0010
,
0100
0100
0010
0010
0001
1000
0010
0100
,
0001
0000
0000
0001
0000
0000
1000
0000
0000
1000
0000
0000
0100
0000
0001
0000
,
0100
0000
0000
0100
0000
0000
1100
0000
0000
0000
0000
0000
0010
0000
0100
0000
,
0001
0000
0000
0001
0000
0000
0010
0000
0000
0010
0000
0000
0100
0000
0010
0000
,
0001
0000
0000
0001
0000
0000
1001
0000
0000
0000
0000
0000
1000
0000
0100
0000
,
0010
0000
0000
0010
0000
0000
0001
0000
0000
0001
0000
0000
0100
0000
0001
0000
,
0010
0000
0000
0010
0000
0000
0110
0000
0000
0000
0000
0000
0100
0000
1000
0000
,
0001
0000
0000
0001
0000
0000
0100
0000
0000
0100
0000
0000
1000
0000
0100
0000
,
0001
0000
0000
0001
0000
0000
0010
0000
0000
0010
0000
0000
0100
0000
1000
0000
,
0010
0000
0000
0100
0000
0000
0010
0000
0000
0100
0000
0000
0001
0000
1000
0000
,
0100
0000
0000
0010
0000
0000
0100
0000
0000
0000
0000
0000
1000
0000
0010
0000
,
0100
0000
0000
0001
0000
0000
0100
0000
0000
0001
0000
0000
0010
0000
0100
0000
,
1000
0000
0000
0001
0000
0000
1000
0000
0000
0000
0000
0000
0100
0000
1000
0000
,
0100
0000
0000
0010
0000
0000
0100
0000
0000
0010
0000
0000
0001
0000
0100
0000
,
1000
0000
0000
0100
0000
0000
0001
0000
0000
0100
0000
0000
0010
0000
1000
0000
,
0001
0000
0000
0001
0000
0000
0010
0000
0100
0000
0000
0100
0000
0000
1000
0000
,
0010
0000
0000
0010
0000
0000
0100
0000
0000
0001
0000
0000
1000
0000
0100
0000
,
2200
0000
0000
3300
,
2000
0000
0000
0001
0000
0000
3001
0000
1000
0000
0100
0000
0010
0000
0000
0000
,
0100
1000
0001
0010
0001
0010
0100
0000
,
2000
0000
0000
0010
0000
0000
3010
0000
1000
0000
0100
0000
0010
0000
0000
0000
,
0100
1000
0100
1000
0010
0100
0010
0000
,
2000
0000
0000
0010
0000
0000
3010
0000
1000
0000
0001
0000
0010
0000
0000
0000
,
0100
1000
0010
0100
0010
1000
0100
0000
,
0010
0001
0010
0001
0100
0010
1000
0001
,
1000
0100
0010
0001
1000
0100
0010
0001
,
1000
0000
0010
1000
0010
0000
1000
0000
0010
0100
0020
0000
0000
0000
0000
0000
,
1030
0000
0001
1000
0001
0000
1000
0000
0001
0010
0002
0000
0000
0000
0000
0000
,
0103
0000
0010
0100
0010
0000
0100
0000
0001
1000
0001
0000
0100
0000
0202
0000
,
0000
0000
0000
0000
,
0303
0000
0000
0000
;

//---------------dance-single - ----------------
#NOTES:
     dance-single:
     :
     Challenge:
     13:
     0.685,0.753,0.383,0.241,0.493:
0000
0000
0000
0000
,
0000
0000
0000
0000
,
0000
0000
0000
0000
,
0000
0000
0000
0000
,
0000
0000
0000
0000
,
1000
0000
0100
0000
1000
0000
0001
0000
0010
0000
0100
0000
0000
1000
0000
0000
,
0010
0000
0100
0000
0010
0000
1000
0000
0001
0000
0010
0000
0000
0001
0000
0000
,
0100
0000
0010
0100
0010
0000
1000
0000
0100
0010
0100
0000
1000
0000
0001
0000
,
0100
0000
0001
0100
0001
0000
1000
0000
0100
0010
0100
0000
1000
0001
1000
0001
,
2000
0000
0000
0000
0000
0000
0000
0000
0000
0000
0000
0000
3001
1000
0001
1000
,
0002
0000
0000
0203
0000
0000
0301
0000
1000
0000
0100
0000
0010
0000
0000
0000
,
0001
0100
0001
1000
0100
1000
0001
0000
,
0020
0000
0000
0230
0000
0000
1300
0000
0001
0000
0100
0000
0001
0000
0000
0000
,
0010
0100
0010
0001
1000
0010
1000
0001
,
0020
0000
0000
0230
0000
0000
1300
0000
0010
0000
0100
0000
0010
0000
0000
0000
,
1000
0001
1000
0100
0010
0001
0100
0000
,
0010
1000
0001
0010
0100
0010
0001
0000
,
0100
0010
0100
0001
0010
0100
1000
1000
,
0120
0000
0000
0100
0000
0000
0130
0000
0000
0000
0001
0100
0000
0100
0010
0000
,
1002
0000
0000
1000
0000
0000
1003
0000
0000
0000
0100
1000
0000
1000
0010
0000
,
0120
0000
0000
0100
0000
0000
0130
0000
0000
0000
0001
0100
0000
0100
0010
0000
,
2001
0000
0000
0100
0000
0000
3100
0000
0000
0000
0010
0001
0000
0001
1000
0000
,
1002
0000
0000
0100
0000
0000
0103
0000
0000
0000
0010
1000
0000
1000
0001
0000
,
0021
0000
0000
0100
0000
0000
0130
0000
0000
0000
1000
0100
0000
0100
0010
0000
,
1001
0000
1000
0100
1000
0000
0001
0000
0010
0001
0010
0000
0100
0000
1000
0000
,
0001
0100
0001
0000
1000
0001
1000
0000
0100
1000
0100
0000
1000
0001
1000
0000
,
1100
0000
0000
0100
0000
0000
0110
0000
0000
0010
0000
0000
0011
0000
0001
0000
,
1001
0000
0000
1000
0000
0000
0110
0000
0000
0000
0000
0000
0100
0000
0001
0000
,
1001
0000
0000
1000
0000
0000
1100
0000
0000
0100
0000
0000
0110
0000
0010
0000
,
1001
0000
0000
0001
0000
0000
0110
0000
0000
1000
0000
0000
0100
0000
0010
0000
,
0011
0000
0000
0001
0000
0000
0101
0000
0000
0100
0000
0000
0110
0000
0010
0000
,
1010
0000
0000
1000
0000
0000
0110
0000
0000
0000
0000
0000
1000
0000
0010
0000
,
0110
0000
0000
0100
0000
0000
0101
0000
0000
0001
0000
0000
1001
0000
1000
0000
,
1100
0000
0000
0100
0000
0000
0110
0000
0000
0010
0000
0000
0011
0000
0001
0000
,
1001
0000
0000
1000
0000
0000
0001
0000
0000
0001
0000
0000
1000
0000
0100
0000
,
0010
0000
0001
0100
0001
0000
1000
0001
1000
0000
0100
1000
0100
0000
1000
0001
,
1000
0000
0000
1000
0000
0000
0001
0000
0000
0001
0000
0000
0010
0000
0100
0000
,
1000
0000
0001
0010
0001
0000
1000
0001
1000
0000
0010
1000
0010
0000
0100
0000
,
0001
0000
1000
0100
1000
0000
0001
0000
0100
0010
0100
0000
0001
0000
1000
0000
,
0100
0000
0010
0001
0010
0000
0100
0000
1000
0001
1000
0000
0010
0000
0100
0000
,
0101
0000
0001
1000
0001
0000
1000
0000
1100
0000
0010
0100
0010
0000
0100
0000
,
0001
0000
1000
0100
1000
0000
0001
0100
0001
0000
1000
0001
1000
0000
0001
0000
,
1002
0000
0000
0000
0000
0000
0000
0000
0000
0000
0000
0000
1003
0001
1000
0001
,
2000
0000
0000
3020
0000
0000
0130
0000
0001
0000
0010
0000
0100
0000
0000
0000
,
0010
0001
0100
0010
0100
0001
0010
0000
,
0200
0000
0000
2300
0000
0000
3010
0000
0100
0000
0001
0000
1000
0000
0000
0000
,
0100
0010
0100
1000
0010
1000
0001
0010
,
0200
0000
0000
2300
0000
0000
3001
0000
0100
0000
0010
0000
0100
0000
0000
0000
,
1001
0001
0100
0001
1000
0100
0010
0000
,
1100
1000
0010
0100
0010
1000
0100
0010
,
0100
1000
0100
1000
0100
0000
0010
0000
0001
0100
0001
0100
0001
0000
1000
0000
,
0001
0000
0010
0100
1000
0000
0001
0000
0010
0100
1000
0000
0001
1000
0001
1000
,
0001
0000
0100
0010
1000
0000
0001
0000
0100
0010
1000
0000
0001
1000
0001
1000
,
0001
0000
1000
0100
0010
0000
0001
0000
1000
0100
0010
0000
0001
0000
2002
0000
,
0000
0000
0000
0000
,
3003
0000
0000
0000
;

//---------------dance-double - ----------------
#NOTES:
     dance-double:
     :
     Easy:
     5:
     0.244,0.295,0.175,0.099,0.000:
00000000
00000000
00000000
00000000
,
00000000
00000000
00000000
00000000
,
00000000
00000000
00000000
00000000
,
00000000
00000000
00000000
00000000
,
00000000
00000000
00000000
00000000
,
10000000
00000000
01000000
00000000
,
00100000
00000000
00010000
00000000
,
01000000
00000000
00100000
00000000
,
10000000
00010000
10000000
00000000
,
10010000
00000000
00000000
00000000
,
02100000
00000000
03002000
00000000
,
00013000
00000000
00000020
00000000
,
00000230
00000000
00000302
00000000
,
00000013
00000100
00000010
00000000
,
00000002
00000000
00001003
00000000
,
00000020
00000000
00020030
00000000
,
00031000
00000000
00200000
00000000
,
00310000
00000000
01000000
00100000
,
01100000
00000000
10000000
01000000
,
10000000
00000000
00001000
01000000
,
00001000
00000000
00010000
00001000
,
00010000
00000000
00000010
00000100
,
00000010
00000000
00001000
00000001
,
00001000
00000000
00000001
00000010
,
00000001
00001000
00000001
00001000
,
00000001
00000000
00000000
00000000
,
00011000
00000000
00001000
00000000
,
00100000
01000000
10000000
00010000
,
10010000
00000000
00010000
00000000
,
10000000
01000000
00100000
00001000
,
00011000
00000000
00010000
00000000
,
00000010
00000100
00000001
00001000
,
00001001
00000000
00000001
00000000
,
00000010
00000100
00010000
00001000
,
00011000
00000000
00000000
00000000
,
01100000
00000000
00000000
00000000
,
10010000
00000000
00000000
00000000
,
01100000
00000000
00000000
00000000
,
00001000
00010000
00001000
00010000
,
00000100
00000010
00000100
00000010
,
00000001
00001000
00000001
00001000
,
00000001
00000001
00000001
00000001
,
00000000
00000000
00000000
00000000
,
00011000
00001000
00100000
00000000
,
01000000
10000000
00100000
00000000
,
01000000
00100000
01000000
00000000
,
00010000
10000000
01000000
00000000
,
00100000
00001000
00010000
00000000
,
00000100
00000010
00000100
00000000
,
00001000
00000010
00001000
00000010
,
00001000
00000001
00001000
00000001
,
00010000
00010000
00011000
00000000
,
00100000
00100000
01100000
00000000
,
10000000
00000000
10000000
00000000
10010000
00000000
00000000
01100000
;

//---------------dance-double - ----------------
#NOTES:
     dance-double:
     :
     Medium:
     8:
     0.404,0.443,0.110,0.241,0.000:
00000000
00000000
00000000
00000000
,
00000000
00000000
00000000
00000000
,
00000000
00000000
00000000
00000000
,
00000000
00000000
00000000
00000000
,
00000000
00000000
00000000
00000000
,
20000000
00010000
00000000
30010000
,
02000000
00100000
00000000
03100000
,
10000000
01000000
00100000
00001000
,
00010000
00000100
00000010
00000001
,
00002002
00000000
00000000
00003003
,
00001000
00000000
00000100
00000010
00000200
00000000
00000000
00000000
,
00010300
00000000
00002000
00000000
,
01003000
00000000
00100000
10000000
00010000
00000000
00100000
00000000
,
01000000
10000000
01000000
00000000
00100000
01000000
00100000
00000000
,
00001000
00000000
00010000
00001000
00020000
00000000
00000000
00000000
,
00030010
00000100
00000002
00000000
,
00001003
00000001
00000010
00000100
,
00010000
00000000
00001000
00000000
01000000
00100000
01000000
00100000
,
02000000
03100000
10000000
01000000
,
00200000
00301000
00010000
00000010
,
00000200
00000301
00001000
00000100
,
00000020
00000031
00000100
00000010
,
00020000
00031000
00100000
01000000
,
00200000
00310000
10000000
00100000
,
02000000
03010000
20000000
30010000
,
01000000
00100000
01000000
00100000
01000000
00100000
01000000
00000000
,
01100000
00000000
00100000
00000000
10000000
01000000
00100000
00010000
,
01000000
00000000
00001000
00000000
00010000
00000000
00000010
00000100
,
00000001
00000000
00000010
00000000
00000100
00000000
00000010
00000001
,
00000100
00000010
00010000
00000000
00001000
00000000
00100000
01000000
,
00100000
00000000
00001000
00000000
01000000
00000000
00100000
10000000
,
00100000
01000000
00010000
00000000
00100000
00000000
00001000
00010000
,
00001000
00000000
00010000
00000000
00000100
00000000
00000010
00000001
,
00000010
00000001
00001000
00000100
,
00021000
00000000
00000000
00031000
00000000
00000000
01000000
00100000
,
02000000
00000000
00000000
03100000
00000000
00000000
10000000
01000000
,
20000000
00000000
00000000
31000000
00000000
00000000
00100000
00001000
,
00200000
00000000
00000000
00301000
00000000
00000000
00010000
00001000
,
00010000
00000000
00000010
00000100
00000010
00000000
00000100
00000001
,
00000100
00000000
00000001
00001000
00000001
00000000
00010000
00000100
,
00010000
00001000
00011000
00100000
,
01100000
11000000
00110000
11000000
,
02200000
00000000
00000000
03300000
,
01000000
00010000
01000000
00000000
00100000
10000000
01000000
00000000
,
00100000
00000000
00001000
00000000
00010000
00001000
00010000
00000000
,
00000010
00000100
00000001
00000000
00001000
00000100
00001000
00000000
,
00000010
00000100
00000010
00000000
00010000
00001000
00100000
00000000
,
01000000
00100000
00010000
10000000
00010000
00000000
01000000
00000000
,
01100000
00000000
00100000
00000000
01000000
00010000
01000000
00000000
,
00100000
01000000
00010000
00100000
00010000
00100000
00001000
00000000
,
00010000
00001000
00010000
00001000
00000100
00000010
00000100
00000000
,
00001000
00000010
00000000
00001000
00000010
00000000
00000000
00000000
,
00001000
00010000
00000000
00001000
00010000
00000000
00000000
00000000
,
01000000
00100000
00000000
01000000
00100000
10000000
01000000
00100000
;

//---------------dance-double - ----------------
#NOTES:
     dance-double:
     :
     Hard:
     11:
     0.510,0.602,0.142,0.230,0.246:
00000000
00000000
00000000
00000000
,
00000000
00000000
00000000
00000000
,
00000000
00000000
00000000
00000000
,
00000000
00000000
00000000
00000000
,
00000000
00000000
00000000
00000000
,
10000000
00010000
01000000
00010000
10000000
01000000
00100000
00000000
,
00001000
00010000
00000010
00000100
00000010
00001000
00000001
00000000
,
00000100
00000010
00010000
00000100
00010000
00001000
00100000
01000000
,
10000000
00010000
00100000
01000000
00100000
00001000
00010000
00000000
,
00022000
00000000
00000000
00033000
,
00020000
00000000
00000000
00000010
00000000
00000000
00030010
00000000
00000100
00000000
00000001
00000000
00000010
00000000
00000000
00000000
,
00000100
00000010
00000100
00000000
00010000
00000100
00010000
00000000
,
00002000
00000000
00000000
00100000
00000000
00000000
00103000
00000000
01000000
00000000
10000000
00000000
00100000
00000000
00000000
00000000
,
01000000
00100000
01000000
00000000
00001000
01000000
00001000
00010000
,
00000200
00000000
00000000
00000010
00000000
00000000
00000310
00000000
00000001
00000000
00001000
00000000
00000010
00000000
00000000
00000000
,
00010000
00000100
00010000
00000000
00001000
00010000
00001000
00000000
,
00200000
00000000
00000000
01300000
10000000
00100000
01000000
00000000
,
00010000
00100000
00010000
00000000
00100000
01000000
10000000
00001000
,
00021000
00000000
00000000
00000000
00030010
00000000
00000000
00000000
00000000
00000000
00000100
00000000
00000000
00000001
00000000
00000000
,
00001002
00000000
00000000
00000000
00000013
00000000
00000000
00000000
00000000
00000000
00000100
00000000
00000000
00010000
00000000
00000000
,
00012000
00000000
00000000
00000000
00103000
00000000
00000000
00000000
00000000
00000000
01000000
00000000
00000000
10000000
00000000
00000000
,
10020000
00000000
00000000
00000000
01030000
00000000
00000000
00000000
00000000
00000000
00100000
00000000
00000000
01000000
00000000
00000000
,
01020000
00000000
00000000
00000000
00031000
00000000
00000000
00000000
00000000
00000000
00000100
00000000
00000000
00000010
00000000
00000000
,
00000012
00000000
00000000
00000000
00001003
00000000
00000000
00000000
00000000
00000000
00000010
00000000
00000000
00010000
00000000
00000000
,
00011000
00001000
00100000
01000000
00100000
00001000
10000000
00100000
,
10000000
10000000
01000000
01000000
00100000
01000000
10000000
00010000
,
00100000
00000000
00000000
00100000
00000000
00000000
01000000
00000000
00000000
01000000
00000000
00000000
00100000
00000000
00001000
00000000
,
00000010
00000000
00000000
00000010
00000000
00000000
00000110
00000000
00000000
00000000
00000000
00000000
00000100
00000000
00000010
00000000
,
00001000
00000000
00000000
00001000
00000000
00000000
00000100
00000000
00000000
00000100
00000000
00000000
00000010
00000000
00000100
00000000
,
00010000
00000000
00000000
00100000
00000000
00000000
01100000
00000000
00000000
00000000
00000000
00000000
01000000
00000000
00100000
00000000
,
00010000
00000000
00000000
00010000
00000000
00000000
01000000
00000000
00000000
01000000
00000000
00000000
00001000
00000000
00010000
00000000
,
00000100
00000000
00000000
00000010
00000000
00000000
00000011
00000000
00000000
00000000
00000000
00000000
00000010
00000000
00000100
00000000
,
00001000
00000000
00000000
00001000
00000000
00000000
00000010
00000000
00000000
00000010
00000000
00000000
00010000
00000000
00001000
00000000
,
00100000
00000000
00000000
00100000
00000000
00000000
01000000
00000000
00000000
01000000
00000000
00000000
00100000
00000000
00001000
00000000
,
00010000
00000000
00000000
00000100
00000000
00000000
00001000
00000000
00000000
00000010
00000000
00000000
00000100
00000000
00000001
00000000
,
00000010
00000000
00000000
00000100
00000000
00000000
00010000
00000000
00000000
00000000
00000000
00000000
01000000
00000000
10000000
00000000
,
00010000
00000000
00000000
00100000
00000000
00000000
00001000
00000000
00000000
00100000
00000000
00000000
00010000
00000000
00001000
00000000
,
00000010
00000000
00000000
00000100
00000000
00000000
00000001
00000000
00000000
00000000
00000000
00000000
00000010
00000000
00000100
00000000
,
00000010
00000000
00000000
00000001
00000000
00000000
00000100
00000000
00000000
00000010
00000000
00000000
00001000
00000000
00010000
00000000
,
00100000
00000000
00000000
01000000
00000000
00000000
00100000
00000000
00000000
00010000
00000000
00000000
10000000
00000000
01000000
00000000
,
00100000
00000000
00000000
00100000
00000000
00000000
00001000
00000000
00010000
00000000
00000000
00010000
00000000
00000000
00000100
00000000
,
00000010
00000000
00000000
00000010
00000000
00000000
00000001
00000000
00000000
00000100
00000000
00000000
00000010
00000000
00010000
00000000
,
00022000
00000000
00000000
00033000
,
00002000
00000000
00000000
00100000
00000000
00000000
00103000
00000000
01000000
00000000
10000000
00000000
00100000
00000000
00000000
00000000
,
01000000
00100000
10000000
01000000
00100000
00001000
00010000
00000000
,
00000020
00000000
00000000
00000100
00000000
00000000
00000130
00000000
00000001
00000000
00000010
00000000
00000100
00000000
00000000
00000000
,
00010000
00001000
00010000
00001000
01000000
00100000
10000000
00000000
,
02000000
00000000
00000000
10000000
00000000
00000000
13000000
00000000
01000000
00000000
00100000
00000000
00001000
00000000
00000000
00000000
,
00010000
00001000
00010000
00000010
00000100
00000001
00000010
00000000
,
00000001
00001000
00000100
00000010
00000001
00000010
00000100
00010000
,
00001000
00010000
00001000
00100000
01000000
10000000
00010000
00100000
,
01000000
00000000
10000000
00010000
10000000
00000000
01000000
00000000
10000000
00010000
20000000
00000000
00000000
00000000
00000000
00000000
,
30001000
00000000
01000000
00100000
01000000
00000000
00001000
00000000
01000000
00100000
02000000
00000000
00000000
00000000
00000000
00000000
,
03001000
00000000
00010000
00001000
00010000
00000000
00000010
00000000
00010000
00001000
00010000
00000000
00000010
00000000
00000220
00000000
,
00000000
00000000
00000000
00000000
,
00000330
00000000
00000000
00000000
;

//---------------dance-double - ----------------
#NOTES:
     dance-double:
     :
     Challenge:
     13:
     0.663,0.783,0.372,0.241,0.487:
00000000
00000000
00000000
00000000
,
00000000
00000000
00000000
00000000
,
00000000
00000000
00000000
00000000
,
00000000
00000000
00000000
00000000
,
00000000
00000000
00000000
00000000
,
10000000
00000000
00010000
00100000
00010000
00000000
00100000
00000000
01000000
10000000
01000000
00000000
00100000
00000000
00000000
00000000
,
00001000
00000000
00010000
00000100
00010000
00000000
00000100
00000000
00000010
00000001
00000010
00000000
00000001
00000000
00000000
00000000
,
00000100
00000000
00000010
00000100
00000010
00000000
00010000
00000000
00001000
00100000
00001000
00000000
01000000
00000000
00100000
00000000
,
10000000
00000000
01000000
00100000
01000000
00000000
00100000
00000000
00001000
01000000
00001000
00000000
00010000
00001000
00010000
00001000
,
00020000
00000000
00000000
00000000
00000000
00000000
00000000
00000000
00000000
00000000
00000000
00000000
00030010
00000100
00000010
00000100
,
00000020
00000000
00000000
00002030
00000000
00000000
00003100
00000000
00000010
00000000
00000001
00000000
00000100
00000000
00000000
00000000
,
00000010
00000100
00000010
00000000
00010000
00001000
00100000
01000000
,
20000000
00000000
00000000
30020000
00000000
00000000
10030000
00000000
00100000
00000000
10000000
00000000
00001000
00000000
00000000
00000000
,
00010000
00001000
00010000
00000000
00000010
00000100
00000001
00001000
,
00000200
00000000
00000000
00000320
00000000
00000000
00000031
00000000
00001000
00000000
00000100
00000000
00010000
00000000
00000000
00000000
,
00001000
00010000
00001000
00000000
01000000
00100000
10000000
00000000
,
01000000
00100000
00010000
10000000
00010000
00100000
01000000
00000000
,
00100000
00001000
00010000
00000000
00000100
00000010
00000001
00001000
,
00001020
00000000
00000000
00001000
00000000
00000000
00000130
00000000
00000000
00000000
00000001
00000010
00000000
00000001
00000010
00000000
,
00002001
00000000
00000000
00000001
00000000
00000000
00003100
00000000
00000000
00000000
00010000
00001000
00000000
00010000
00001000
00000000
,
02100000
00000000
00000000
00100000
00000000
00000000
03010000
00000000
00000000
00000000
10000000
01000000
00000000
10000000
01000000
00000000
,
10020000
00000000
00000000
10000000
00000000
00000000
01030000
00000000
00000000
00000000
00001000
00010000
00000000
00001000
00010000
00000000
,
00000120
00000000
00000000
00000100
00000000
00000000
00001030
00000000
00000000
00000000
00000001
00000010
00000000
00000001
00000010
00000000
,
00020001
00000000
00000000
00000001
00000000
00000000
00030100
00000000
00000000
00000000
01000000
00100000
00000000
01000000
00100000
00000000
,
10000000
01000000
10000000
01000000
10000000
00000000
00010000
00000000
01000000
00100000
01000000
00100000
01000000
00000000
00001000
00000000
,
00010000
00001000
00010000
00000000
00000010
00000100
00000010
00000000
00000100
00000001
00000100
00000000
00000001
00001000
00000001
00000000
,
00001001
00000000
00000000
00001000
00000000
00000000
00010010
00000000
00000000
00010000
00000000
00000000
00011000
00000000
00001000
00000000
,
01001000
00000000
00000000
01000000
00000000
00000000
10010000
00000000
00000000
00000000
00000000
00000000
01000000
00000000
10000000
00000000
,
10100000
00000000
00000000
00100000
00000000
00000000
01100000
00000000
00000000
01000000
00000000
00000000
01001000
00000000
00001000
00000000
,
00011000
00000000
00000000
00010000
00000000
00000000
00010100
00000000
00000000
00000100
00000000
00000000
00000010
00000000
00000001
00000000
,
00001001
00000000
00000000
00001000
00000000
00000000
00010100
00000000
00000000
00010000
00000000
00000000
00011000
00000000
00001000
00000000
,
00101000
00000000
00000000
00100000
00000000
00000000
10010000
00000000
00000000
00000000
00000000
00000000
01000000
00000000
00010000
00000000
,
10010000
00000000
00000000
10000000
00000000
00000000
11000000
00000000
00000000
01000000
00000000
00000000
01001000
00000000
00001000
00000000
,
00011000
00000000
00000000
00010000
00000000
00000000
00010100
00000000
00000000
00000100
00000000
00000000
00000110
00000000
00000010
00000000
,
00000011
00000000
00000000
00000001
00000000
00000000
00000010
00000000
00000000
00000100
00000000
00000000
00010000
00000000
00001000
00000000
,
10000000
00000000
00000000
00100000
00000000
00000000
01000000
00000000
00000000
00000000
00000000
00000000
00010000
00000000
10000000
00000000
,
01000000
00000000
00000000
00100000
00000000
00000000
00001000
00000000
00000000
00010000
00000000
00000000
00000010
00000000
00000100
00000000
,
00000001
00000000
00000000
00010000
00000000
00000000
00001000
00000000
00000000
00000000
00000000
00000000
00100000
00000000
01000000
00000000
,
10000000
00000000
00010000
01000000
00010000
00000000
10000000
00000000
00001000
00100000
00001000
00000000
00010000
00000000
00000100
00000000
,
00000010
00000000
00000001
00000100
00000001
00000000
00000010
00000000
00000100
00010000
00000100
00000000
00010000
00000000
00001000
00000000
,
00101000
00000000
00100000
01000000
00100000
00000000
10000000
00000000
10010000
00000000
00010000
00100000
00010000
00000000
01000000
00000000
,
00001000
00000000
00010000
00001000
00010000
00000000
00000010
00000100
00000010
00000000
00001000
00000100
00001000
00000000
00000001
00000000
,
00000201
00000000
00000000
00000000
00000000
00000000
00000000
00000000
00000000
00000000
00000000
00000000
00000310
00000100
00000010
00000100
,
00000002
00000000
00000000
00000023
00000000
00000000
00000130
00000000
00010000
00000000
00001000
00000000
00010000
00000000
00000000
00000000
,
00001000
01000000
00100000
00000000
10000000
00100000
10000000
00000000
,
02000000
00000000
00000000
03200000
00000000
00000000
00301000
00000000
00010000
00000000
00000010
00000000
00000100
00000000
00000000
00000000
,
00000001
00001000
00000001
00000000
00000010
00000100
00001000
00000000
,
00020000
00000000
00000000
00032000
00000000
00000000
00103000
00000000
01000000
00000000
10000000
00000000
00100000
00000000
00000000
00000000
,
01100000
00100000
00010000
00100000
01000000
00001000
00010000
00000000
,
00000110
00000100
00000010
00000001
00000100
00000001
00000010
00000100
,
00000001
00001000
00000001
00001000
00000001
00000000
00000010
00000000
00000100
00010000
00000100
00010000
00000100
00000000
00010000
00000000
,
00001000
00000000
00100000
01000000
10000000
00000000
00001000
00000000
00100000
01000000
10000000
00000000
00001000
00010000
00001000
00010000
,
00001000
00000000
00010000
00000010
00000100
00000000
00000001
00000000
00010000
00000010
00000100
00000000
00000001
00001000
00000001
00001000
,
00000001
00000000
00000010
00000100
00001000
00000000
00000001
00000000
00000010
00000100
00001000
00000000
00100000
00000000
00220000
00000000
,
00000000
00000000
00000000
00000000
,
00330000
00000000
00000000
00000000
;

//---------------dance-single - ----------------
#NOTES:
     dance-single:
     :
     Beginner:
     2:
     0.105,0.148,0.153,0.000,0.000: // measure 1
0000
0000
0000
0000
,  // measure 2
0000
0000
0000
0000
,  // measure 3
0000
0000
0000
0000
,  // measure 4
0000
0000
0000
0000
,  // measure 5
0000
0000
0000
0000
,  // measure 6
1001
0000
0000
0000
,  // measure 7
0001
0000
0000
0000
,  // measure 8
1000
0000
0000
0000
,  // measure 9
1000
0000
0000
0000
,  // measure 10
1001
0000
0000
0000
,  // measure 11
0010
0000
0000
0000
,  // measure 12
0100
0000
0000
0000
,  // measure 13
0010
0000
0000
0000
,  // measure 14
0001
0000
0000
0000
,  // measure 15
1000
0000
0000
0000
,  // measure 16
0100
0000
0000
0000
,  // measure 17
0010
0000
0000
0000
,  // measure 18
0100
0000
0000
0000
,  // measure 19
1001
0000
0000
0000
,  // measure 20
0001
0000
0000
0000
,  // measure 21
1000
0000
0000
0000
,  // measure 22
1000
0000
0000
0000
,  // measure 23
1001
0000
0000
0000
,  // measure 24
0001
0000
0000
0000
,  // measure 25
1000
0000
0000
0000
,  // measure 26
1000
0000
0000
0000
,  // measure 27
0110
0000
0000
0000
,  // measure 28
0100
0000
0000
0000
,  // measure 29
0110
0000
0000
0000
,  // measure 30
0010
0000
0000
0000
,  // measure 31
0110
0000
0000
0000
,  // measure 32
0100
0000
0000
0000
,  // measure 33
0110
0000
0000
0000
,  // measure 34
0010
0000
0000
0000
,  // measure 35
1001
0000
0000
0000
,  // measure 36
0000
0000
0000
0000
,  // measure 37
1000
0000
0000
0000
,  // measure 38
0000
0000
0000
0000
,  // measure 39
1001
0000
0000
0000
,  // measure 40
0001
0000
0000
0000
,  // measure 41
1000
0000
0001
0000
,  // measure 42
1000
0000
0000
0000
,  // measure 43
0010
0000
0000
0000
,  // measure 44
0110
0000
0100
0000
,  // measure 45
0100
0000
0000
0000
,  // measure 46
0010
0000
0010
0000
,  // measure 47
0010
0000
0000
0000
,  // measure 48
1000
0000
1000
0000
,  // measure 49
1000
0000
0000
0000
,  // measure 50
0001
0000
0001
0000
,  // measure 51
0001
0000
0000
0000
,  // measure 52
1001
0000
0000
0000
,  // measure 53
1001
0000
0000
0000
,  // measure 54
1001
0000
0000
0000
0000
0000
0000
0010
;
