#TITLE:Verflucht;
#SUBTITLE:;
#ARTIST:Tyrfing;
#TITLETRANSLIT:;
#SUBTITLETRANSLIT:;
#ARTISTTRANSLIT:;
#CREDIT:DigiMindAxel;
#BANNER:Verflucht.png;
#BACKGROUND:Verflucht-bg.png;
#LYRICSPATH:;
#CDTITLE:beatmania IIDX.png;
#MUSIC:Verflucht.ogg;
#METERTYPE:DDR X;
#OFFSET:-3.221;
#SAMPLESTART:88.552;
#SAMPLELENGTH:12.000;
#SELECTABLE:YES;
#BPMS:0.000=180.000;
#STOPS:;
#BGCHANGES:;

//---------------dance-single - ----------------
#NOTES:
     dance-single:
     :
     Easy:
     6:
     0.313,0.350,0.043,0.078,0.000: // measure 1
1000
0000
0001
0000
,  // measure 2
1000
0000
0001
0000
,  // measure 3
0010
0000
0100
0000
,  // measure 4
0010
0000
0100
0000
,  // measure 5
1000
0000
0100
0000
,  // measure 6
1000
0000
0100
0000
,  // measure 7
1000
0000
0001
0000
,  // measure 8
0010
0100
0010
0100
,  // measure 9
1000
0010
1000
0000
,  // measure 10
0001
0100
0001
0000
,  // measure 11
1000
0001
1000
0000
,  // measure 12
0100
1000
0100
0000
,  // measure 13
0010
0001
0010
0000
,  // measure 14
0100
0010
0100
0000
,  // measure 15
1000
0100
1000
0100
,  // measure 16
1000
1000
1000
0000
,  // measure 17
1001
0000
0001
0000
,  // measure 18
0001
0000
2000
0000
,  // measure 19
3001
0000
0001
0000
,  // measure 20
1000
0000
1000
0000
,  // measure 21
0010
0000
0010
0000
,  // measure 22
0100
0000
0200
0000
,  // measure 23
0310
0000
0010
0000
,  // measure 24
1000
0000
1000
0000
,  // measure 25
1001
0001
0001
0001
,  // measure 26
1000
1000
1000
0000
,  // measure 27
0001
0001
0001
0001
,  // measure 28
1000
1000
1000
0000
,  // measure 29
0100
0100
0100
0100
,  // measure 30
0010
0010
0010
0000
,  // measure 31
0001
0001
0001
0001
,  // measure 32
0100
0100
0100
0000
,  // measure 33
0001
1000
0100
0010
,  // measure 34
0001
1000
0100
0010
,  // measure 35
0001
1000
0010
0100
,  // measure 36
0001
1000
0010
0100
,  // measure 37
0001
1000
0100
0010
,  // measure 38
0100
1000
0001
0000
,  // measure 39
1000
0001
0010
0100
,  // measure 40
0010
0001
1000
0000
,  // measure 41
1001
0010
0100
1000
,  // measure 42
0010
0100
0001
1000
,  // measure 43
0100
0010
0001
1000
,  // measure 44
0010
0100
0001
1000
,  // measure 45
0100
0010
0100
1000
,  // measure 46
0001
0100
0010
0100
,  // measure 47
0001
0010
0100
1000
,  // measure 48
0002
0000
0000
0000
,  // measure 49
2003
0000
0000
0000
,  // measure 50
0000
0000
0000
0000
,  // measure 51
3200
0000
0000
0000
,  // measure 52
0000
0000
0000
0000
,  // measure 53
0320
0000
0000
0000
,  // measure 54
0000
0000
0000
0000
,  // measure 55
0032
0000
0000
0000
,  // measure 56
0000
0000
0000
0000
,  // measure 57
1003
1000
1000
1000
,  // measure 58
0001
0001
0001
0000
,  // measure 59
0010
0010
0010
0010
,  // measure 60
0100
0100
0100
0000
,  // measure 61
1000
1000
1000
1000
,  // measure 62
0001
0001
0001
0000
,  // measure 63
0100
0100
0100
0100
,  // measure 64
0110
0000
0000
0000
,  // measure 65
0010
0100
0001
0100
,  // measure 66
0010
1000
0100
0010
,  // measure 67
0001
1000
0100
1000
,  // measure 68
0001
0100
0010
1000
,  // measure 69
0001
0010
0100
0010
,  // measure 70
0001
1000
0100
0010
,  // measure 71
0100
1000
0010
0100
,  // measure 72
0001
1000
0001
0000
,  // measure 73
1000
0100
0010
0001
,  // measure 74
0100
0010
1000
0100
,  // measure 75
0010
0100
1000
0001
,  // measure 76
1000
0100
1000
0000
,  // measure 77
0010
0100
0001
0100
,  // measure 78
0010
1000
0100
0010
,  // measure 79
0001
1000
0100
1000
,  // measure 80
0001
0010
0100
1000
,  // measure 81
2002
0000
0000
0000
,  // measure 82
3003
0000
0000
0000
;

//---------------dance-single - ----------------
#NOTES:
     dance-single:
     :
     Medium:
     11:
     0.566,0.596,0.095,0.138,0.000:
1000
1000
0001
0001
,
1000
0100
0010
0001
,
0100
0100
0010
0010
,
1000
0001
0010
0100
,
1000
1000
0010
0010
,
0100
0001
0010
0100
,
1000
1000
0001
0001
,
1000
0001
1000
0001
1000
0001
1000
0000
,
0010
1000
0100
0000
0010
0000
0001
0000
,
0100
0001
0010
0000
0100
0000
1000
0000
,
0100
1000
0010
0000
0100
0000
0001
0000
,
1000
0100
0010
0000
0001
0000
1000
0000
,
0010
0100
0001
0000
0010
0000
0100
0000
,
1000
0010
0100
0000
0001
0000
0010
0000
,
0100
1000
0100
1000
0100
1000
0100
1000
,
0001
1000
0001
1000
0001
1000
0001
0000
,
1001
1000
1000
1000
,
1000
0100
0020
0000
,
0031
0000
0001
1000
0001
0000
1000
0001
,
0000
1000
0001
0000
0100
0000
0010
0000
,
1000
1000
1000
1000
,
0010
0100
0002
0000
,
1003
0000
1000
0001
1000
0000
0001
1000
,
0000
0001
1000
0000
0200
0000
0000
0000
,
0310
0001
0010
0001
0010
0001
0010
0000
,
0100
0010
0100
0010
0100
0000
1000
0000
,
1000
0100
1000
0100
1000
0100
1000
0000
,
0010
0100
0010
0100
0010
0000
1000
0000
,
1000
0100
1000
0100
1000
0100
1000
0000
,
0001
0100
0001
0100
0001
0000
1000
0000
,
1000
0001
1000
0001
1000
0001
1000
0000
,
0010
0100
0010
0100
0010
0000
0110
0000
,
0100
1000
0010
0100
0010
0000
0010
0000
,
0100
0001
0100
0001
1000
0000
1000
0000
,
0010
1000
0010
0100
0001
0000
0001
0000
,
0010
0001
0010
0001
0100
0000
0100
0000
,
0001
1000
0001
1000
0100
0000
0100
0000
,
0010
0001
0010
0001
0100
0000
0100
0000
,
0010
1000
0010
1000
0001
0000
0001
0000
,
0010
0001
0010
0001
0100
0000
0100
0000
,
0010
1000
0010
1000
0100
0000
0100
0000
,
0010
0001
0010
0001
1000
0000
1000
0000
,
0001
1000
0001
1000
0100
0000
0100
0000
,
0010
0100
0010
0100
1000
0000
1000
0000
,
0001
1000
0001
1000
0010
0000
0010
0000
,
0100
0001
0100
0001
0010
0000
0010
0000
,
0100
1000
0100
1000
0010
0100
0010
0100
,
0001
0010
0100
1000
0001
0010
0100
0000
,
2010
0000
0000
0000
,
3200
0000
0000
0000
,
0320
0000
0000
0000
,
0032
0000
0000
0000
,
2003
0000
0000
0000
,
3002
0000
0000
0000
,
0023
0000
0000
0000
,
0230
0000
0000
0000
,
1300
0010
1000
0010
1000
0010
1000
0000
,
0100
0010
0100
0010
0100
0000
1000
0000
,
1000
0010
1000
0010
1000
0010
1000
0000
,
0001
0010
0001
0010
0001
0000
0100
0000
,
0100
0010
0100
0010
0100
0010
0100
0000
,
0001
1000
0001
1000
0001
0000
0010
0000
,
0010
0100
0010
0100
1000
0100
1000
0010
,
0200
0320
0230
0310
,
1001
0000
0001
0100
0010
0100
0001
1000
,
0001
0000
0010
0100
1000
0100
0010
0000
,
1001
0000
1000
0010
0100
0010
1000
0001
,
0010
0000
0001
0010
0100
0010
0001
0000
,
1001
0000
1000
0001
0010
0100
1000
0100
,
0010
0000
0001
1000
0010
1000
0001
0000
,
1001
0000
0001
1000
0100
0010
0001
1000
,
0010
0100
0010
0100
0001
0010
0100
0000
,
1001
0000
0001
0010
0100
0010
0001
0100
,
0010
0000
1000
0001
0010
0100
1000
0000
,
1001
0000
0001
1000
0100
1000
0001
0100
,
0010
0000
1000
0010
0100
0001
0010
0000
,
1001
0000
1000
0100
0010
0100
1000
0100
,
0010
0000
0001
0100
0001
1000
0001
0000
,
1000
0001
1000
0100
0010
0100
1000
0001
,
0100
0010
1000
0001
0010
0000
0100
0010
,
0220
0000
0000
0000
,
0330
0000
0000
0000
;

//---------------dance-single - ----------------
#NOTES:
     dance-single:
     :
     Hard:
     16:
     0.943,1.000,0.026,0.199,0.930:
1000
0100
0010
0100
1000
0001
1000
0001
,
1000
0010
0100
0010
1000
1000
0001
0000
,
0010
0100
0010
0001
1000
0010
1000
0010
,
1000
0001
0100
0001
0010
0010
0100
0000
,
1000
0001
0100
0001
1000
0100
1000
0100
,
1000
0010
0100
0010
1000
1000
0001
0000
,
0100
0010
0100
0001
1000
0001
1000
0100
,
0010
0000
0010
0000
0001
0000
0001
0000
1000
0001
1000
0001
0000
0000
0000
0000
,
1000
0000
0001
0010
0000
0001
0000
0000
0020
0000
0000
0230
0000
0000
1300
0000
,
0000
0000
0010
1000
0000
0010
0000
0000
2000
0000
0000
3002
0000
0000
0013
0000
,
0000
0000
0001
1000
0000
0001
0000
0000
0200
0000
0000
0320
0000
0000
1030
0000
,
0000
0000
0001
1000
0000
0001
0000
0000
0020
0000
0000
0230
0000
0000
0310
0000
,
0000
0000
0001
0010
0000
0001
0000
0000
0200
0000
0000
0320
0000
0000
1030
0000
,
0000
0000
0010
0100
0000
0010
0000
0000
2000
0000
0000
3200
0000
0000
0310
0000
,
0001
0100
0010
0100
0001
0010
0100
1000
,
0001
1000
0001
1000
0001
1000
0001
0000
0100
0010
0100
0010
0100
0010
0100
0000
,
0001
0001
1000
1000
0001
0001
1000
1000
,
0200
0000
0310
0001
2000
0000
0000
3000
,
0010
0100
0001
0010
0100
0000
0100
0010
,
0000
0010
0001
0000
0001
0100
0010
0000
,
1000
1000
0001
0001
1000
1000
0001
0001
,
2000
0000
3100
0010
0002
0000
0000
0003
,
1000
0010
1000
0100
0010
0000
0010
0001
,
0000
0001
0100
0010
0210
0000
0000
0000
,
0301
1000
0001
1000
0001
1000
0001
1000
0001
1000
0001
1000
0001
0000
1000
0000
,
0100
1000
0100
1000
0100
1000
0100
1000
0100
0000
0000
0000
1000
0000
0001
0100
,
0001
0100
0001
0100
0001
0100
0001
0100
0001
0100
0001
0100
0001
0000
0010
0000
,
0100
1000
0100
1000
0100
1000
0100
1000
0100
0000
1000
0001
1000
0001
1000
0000
,
0100
1000
0100
1000
0100
1000
0100
1000
0100
1000
0100
1000
0100
0000
0010
0000
,
0001
0100
0001
0100
0001
0100
0001
0100
0001
0000
0000
0000
1000
0000
0010
0100
,
0010
0100
0010
0100
0010
0100
0010
0100
0010
0100
0010
0100
0010
0000
1000
0000
,
0001
0100
0001
0000
1000
0100
0000
0100
0010
0000
0001
1000
0001
0000
0000
0000
,
0010
0000
0100
1000
0100
0000
1000
0001
1000
0000
0100
0000
0010
0000
0001
0000
,
1000
0000
0010
1000
0010
0000
1000
0001
1000
0000
0001
0000
1000
0000
0000
0000
,
0010
0000
0100
0001
0100
0000
0001
1000
0001
0000
0010
0000
0100
0000
1000
0000
,
0001
0000
1000
0100
1000
0000
0010
0100
0010
0000
1000
0000
0100
0000
0010
0000
,
0001
0000
1000
0100
1000
0000
0001
1000
0001
0000
0010
0000
0100
0000
1000
0000
,
0001
0000
0100
0001
0100
0000
0001
1000
0001
0000
1000
0000
0001
0000
0000
0000
,
1000
0000
0010
0100
0010
0000
1000
0100
1000
0000
0001
0000
0010
0000
0100
0000
,
0010
0000
0001
0100
0001
0000
1000
0001
1000
0000
0100
1000
0100
0000
0000
0000
,
1000
0000
0010
0100
0010
0000
1000
0100
0010
0000
0001
1000
0001
0000
0010
0000
,
0100
0000
1000
0010
1000
0000
0010
0100
0001
0000
0100
0000
0001
0000
0000
0000
,
0010
0000
0100
1000
0100
0000
1000
0100
0010
0000
0001
1000
0001
0000
0100
0000
,
0010
0000
1000
0010
1000
0000
0100
0010
0001
0010
0001
0000
1000
0001
1000
0000
,
0100
0000
0010
0001
0010
0000
0001
0100
0010
0000
1000
0001
1000
0000
0100
0000
,
0010
0000
0001
0100
0001
0000
1000
0100
0010
0000
0001
0000
0100
0000
0000
0000
,
0001
0000
0100
0010
0100
0000
0001
0010
0100
1000
0100
1000
0100
1000
0100
0000
,
0010
0000
0001
0000
0100
0001
0000
0001
0100
0010
0100
0010
0100
0010
0100
0000
,
0201
0000
0000
0000
0000
0000
0000
0000
0010
0000
0000
0010
0000
0000
0010
0000
,
0000
0000
0000
0000
0000
0000
0000
0000
0001
0000
0000
0001
0000
0000
0301
0000
,
2000
0000
0000
0000
0000
0000
0000
0000
0100
0000
0000
0100
0000
0000
0100
0000
,
0000
0000
0000
0000
0000
0000
0000
0000
0010
0000
0000
0010
0000
0000
3010
0000
,
0200
0000
0000
0000
0000
0000
0000
0000
0001
0000
0000
0001
0000
0000
0001
0000
,
0000
0000
0000
0000
0000
0000
0000
0000
0010
0000
0000
0010
0000
0000
0310
0000
,
2000
0000
0000
0000
0000
0000
0000
0000
0001
0000
0000
0001
0000
0000
3001
0000
,
1000
0100
0010
0001
,
1000
0010
1000
0010
1000
0010
1000
0010
1000
0010
1000
0010
1000
0000
0001
0000
,
0100
0010
0100
0010
0100
0010
0100
0010
0100
0000
0000
0000
0001
0000
1000
0100
,
1000
0100
1000
0100
1000
0100
1000
0100
1000
0100
1000
0100
1000
0000
0001
0000
,
0100
0010
0100
0010
0100
0010
0100
0010
0100
0000
0001
1000
0001
1000
0001
0000
,
1000
0100
1000
0100
1000
0100
1000
0100
1000
0100
1000
0100
1000
0000
0001
0000
,
0100
0001
0100
0001
0100
0001
0100
0001
0100
0000
0000
0000
0010
0000
1000
0001
,
1000
0001
1000
0001
1000
0001
1000
0001
1000
0001
1000
0001
1000
0000
0010
0000
,
0100
0001
0100
0000
0001
1000
0001
0000
1000
0010
1000
0000
0100
0010
0100
0000
,
1000
0001
1000
0000
0100
0000
0010
0000
0001
0100
0000
0001
0100
0000
0001
0000
,
1000
0000
0001
0000
0010
0000
0100
0000
1000
0010
0000
1000
0001
0000
0010
0000
,
0100
1000
0100
0000
1000
0000
0010
0000
0100
0001
0000
0100
0001
0000
0100
0000
,
0010
1000
0000
0000
0001
0000
0010
0000
0100
1000
0000
0010
0100
0000
0001
0000
,
0010
0100
0010
0000
0001
0000
1000
0000
0100
0010
0000
0100
0010
0000
0001
0000
,
0100
0000
0010
0000
0100
0000
0001
0000
0010
0100
0000
1000
0010
0000
1000
0000
,
0001
0100
0001
0000
1000
0000
0100
0000
0010
0001
0000
0010
0001
0000
0100
0000
,
0010
0100
0010
0000
1000
0000
0100
0000
0010
0001
0010
0001
0010
0000
0000
0000
,
0001
1000
0001
0000
1000
0000
0100
0000
0010
0001
0000
0010
0001
0000
0100
0000
,
0010
0000
0100
0000
0001
0000
0010
0000
0100
1000
0000
0001
0100
0000
0001
0000
,
0010
0100
0010
0000
0001
0000
1000
0000
0100
0010
0000
0100
0010
0000
0001
0000
,
1000
0010
1000
0000
0100
0000
0010
0000
0001
1000
0001
1000
0000
0000
0000
0000
,
0001
0100
0010
0000
1000
0000
0100
0000
0010
0001
0100
0010
0100
0000
0001
0000
,
1000
0000
0010
0000
0001
0000
0010
0000
1000
0001
1000
0100
0010
0000
0001
0000
,
0100
0001
0100
0001
1000
0100
1000
0000
0010
0100
0010
0100
0010
1000
0100
0000
,
0010
0001
0010
0001
0100
0010
0100
0000
0001
1000
0001
1000
0100
1000
0100
0000
,
2002
0000
0000
0000
,
3003
0000
0000
0000
;

//---------------dance-single - ----------------
#NOTES:
     dance-single:
     :
     Challenge:
     18:
     1.000,1.000,0.009,0.190,1.000:
1000
0000
0001
0000
1000
0000
0100
0010
0001
0000
0100
0000
0001
0000
0000
0000
,
0010
0000
0100
0000
0010
0000
0001
0100
0010
0000
1000
0000
0010
0000
0000
0000
,
1000
0000
0001
0000
1000
0000
0010
0100
0001
0000
0010
0000
0100
0000
0000
0000
,
0010
0000
0001
0000
1000
0000
0010
0100
0001
0000
0100
0000
0001
0000
0000
0000
,
0010
0000
0100
0000
1000
0000
0010
0100
0001
0000
0010
0000
0100
0000
0000
0000
,
1000
0000
0001
0000
0100
0000
0010
1000
0100
0000
0010
0000
0001
0000
0000
0000
,
0010
0000
0100
0000
0010
0000
0001
0100
0010
0000
1000
0000
0100
0000
0010
0000
,
0001
0000
0001
0000
1000
0000
1000
0000
0010
0100
0010
0100
0000
0000
0000
0000
,
1001
0000
0001
0100
0000
0001
1000
0000
0100
0000
0010
0001
0000
0100
0010
0000
,
0000
0000
1000
0100
0000
1000
0001
0000
0010
0000
0100
1000
0000
0010
0100
0000
,
0000
0000
0001
0100
0000
0010
0100
0000
0001
0000
1000
0100
0000
1000
0001
0000
,
0000
0000
0010
0100
0000
1000
0100
0000
0010
0000
0001
0100
0000
0001
1000
0000
,
0000
0000
0010
0100
0000
0010
1000
0000
0001
0000
0010
0001
0000
0010
0100
0000
,
0000
0000
1000
0001
0000
0100
0001
0000
0010
0000
0100
1000
0000
0010
0100
0000
,
0001
0000
1000
0100
0000
0010
0100
0000
1000
0000
0001
0100
0000
0001
1000
0000
,
0100
1000
0100
1000
0010
0100
0010
0100
0001
1000
0001
1000
0001
1000
0001
0000
,
0010
0010
0001
0001
0100
0100
0010
0010
,
1000
0100
0010
0100
2000
0000
0000
3000
,
0001
0001
0100
0020
1000
0000
2030
0100
,
0000
3200
0010
0000
0310
0001
1000
0000
,
0010
0010
0100
0100
0001
0001
0010
0010
,
0100
0000
0100
1000
0020
0000
0000
0000
,
0130
0100
0001
0020
0100
0000
0230
1000
,
0000
2300
0001
0000
3002
0000
0000
0000
,
1003
0100
0010
0100
1000
0100
0010
0100
1000
0100
0010
0100
1000
0000
0001
0010
,
0100
0010
0001
0010
0100
0010
0001
0010
0100
0000
0000
0000
1000
0000
0001
1000
,
0001
0100
0010
0100
0001
0100
0010
0100
0001
0100
0010
0100
0001
0000
1000
0010
,
0100
0010
1000
0010
0100
0010
1000
0010
0100
0000
0001
1000
0001
0000
1000
0100
,
1000
0001
1000
0100
1000
0001
1000
0100
1000
0001
1000
0100
1000
0000
0010
0100
,
0001
0100
0010
0100
0001
0100
0010
0100
0001
0000
0000
0000
1000
0000
0001
1000
,
0001
0100
0001
1000
0001
0100
0001
1000
0001
0100
0001
1000
0001
0000
0010
0100
,
1000
0100
0010
0100
1000
0100
0010
0001
1000
0000
0001
1000
0002
0000
0000
0000
,
1003
0000
0001
0010
0001
0000
0010
0100
0010
0000
0100
1000
0010
0000
0100
0000
,
0001
0000
0010
0100
1000
0000
0010
0100
0010
0000
0100
0001
0010
0000
0100
0000
,
1000
0000
0001
0100
0001
0000
0100
0010
0100
0000
0010
1000
0010
0000
1000
0000
,
0001
0000
0010
0001
0010
0000
0001
0010
0100
0000
1000
0001
1000
0000
0001
0000
,
1000
0000
0100
1000
0100
0000
0010
0100
0010
0000
0001
0010
0001
0000
0100
0000
,
0010
0000
1000
0010
0100
0000
0010
0100
0010
0000
1000
0100
0010
0000
0001
0000
,
1000
0000
0010
1000
0010
0000
0100
0001
0010
0000
0001
0010
0100
0000
1000
0000
,
0001
0000
0001
0000
0100
0010
0000
0010
1000
0001
2000
0000
0001
0000
3001
0000
,
1000
0000
0001
0100
0001
0100
0010
1000
0100
0010
0001
0100
0010
0100
0001
0000
,
0010
0000
0100
1000
0100
1000
0010
0100
0001
0010
0100
1000
0001
0010
0100
0000
,
1000
0000
0001
0010
0001
1000
0100
0010
0100
1000
0010
0100
0010
0100
0001
0000
,
0010
0000
0100
0010
0001
0100
0010
0100
0001
0010
0100
0000
0010
0100
1000
0000
,
0001
0000
1000
0100
1000
0010
0100
0010
1000
0001
0010
0001
1000
0010
0100
0000
,
0001
0000
0010
0001
0010
0001
0100
0010
0100
0001
1000
0100
1000
0010
0100
0000
,
0001
0000
1000
0100
1000
0010
0100
0010
1000
0100
0010
0001
1000
0100
0010
0000
,
0001
0000
0001
0000
0100
0001
0000
0001
1000
0100
0010
0001
0010
0100
1000
0001
,
2000
0000
0000
0000
0001
0001
0001
3002
,
0000
0000
0000
0010
0000
0000
0013
0000
,
0200
0000
0000
0000
1000
1000
1000
2300
,
0000
0000
0000
0001
0000
0000
3001
0000
,
0200
0000
0000
0000
0010
0010
0010
0320
,
0000
0000
0000
1000
0000
0000
1030
0000
,
0002
0000
0000
0000
,
0023
0000
0230
0000
,
1300
0010
0100
0010
1000
0010
0100
0010
1000
0010
0100
0010
1000
0000
0100
0010
,
0001
0010
0100
0010
0001
0010
0100
0010
0001
0000
0000
0000
0100
0000
0001
0100
,
0001
0010
0100
0010
0001
0010
0100
0010
0001
0010
0100
0010
0001
0000
1000
0001
,
1000
0010
1000
0001
1000
0010
1000
0001
1000
0000
0100
0010
0100
0010
0100
0000
,
1000
0100
0010
0100
1000
0100
0010
0100
1000
0100
0010
0100
1000
0000
0001
0000
,
0100
0010
0100
0001
0010
0001
0100
0010
0100
0000
0000
0000
0001
0000
1000
0001
,
1000
0100
1000
0001
1000
0100
1000
0001
1000
0100
1000
0001
1000
0000
0100
0000
,
0010
0001
0010
0001
0010
0100
0010
0100
1000
0100
1000
0000
0001
0010
0001
0000
,
0100
0010
1000
0000
0100
0000
0010
0000
0001
0100
0000
0100
0010
0000
0100
0000
,
0001
0000
1000
0001
1000
0000
0100
0000
0010
0001
0000
0001
0100
0000
0010
0000
,
1000
0001
0010
0000
0100
0000
1000
0000
0010
0100
0000
0100
0001
0000
0010
0000
,
0100
0010
0001
0000
1000
0000
0010
0000
0100
0001
0000
0001
1000
0000
0100
0000
,
0010
0100
1000
0000
0001
0000
0100
0000
0010
1000
0000
1000
0100
0000
0010
0000
,
0001
0000
1000
0010
1000
0000
0100
0000
0010
0001
0000
0001
1000
0000
0010
0000
,
0100
0001
0010
0000
0100
0000
1000
0000
0001
0100
0000
0100
0010
0000
1000
0000
,
0001
1000
0001
1000
0001
0100
0001
0100
0001
0010
0100
1000
0020
0000
0100
0000
,
0130
0001
0010
0000
0100
1000
0100
1000
0010
0100
0000
0100
0001
0000
1000
0000
,
0010
0000
1000
0100
0010
0001
1000
0010
1000
0001
0000
0001
0010
0000
0100
0000
,
1000
0100
0010
0000
0100
1000
0100
1000
0001
0100
0000
0100
0010
0000
0100
0000
,
0001
0100
0001
0000
1000
0100
1000
0000
0001
1000
0001
1000
0001
0000
0010
0000
,
0100
0010
0001
0000
1000
0010
1000
0010
0100
0001
1000
0100
0010
0001
0100
0001
,
1000
0000
0100
0000
0010
0001
0010
0001
1000
0010
0100
0001
0100
0010
1000
0100
,
0010
0000
0001
0100
0001
0100
0010
1000
0010
1000
0001
0010
0100
0001
0100
0010
,
0001
1000
0010
0100
1000
0100
0010
1000
0001
0100
0000
0001
1000
0100
0010
0001
,
0200
0000
0000
0000
,
0300
0000
0000
0000
;

//---------------dance-double - ----------------
#NOTES:
     dance-double:
     :
     Easy:
     6:
     0.347,0.350,0.087,0.216,0.000:
10000000
00000000
01000000
00000000
,
10000000
00010000
10000000
00010000
,
10000000
00000000
00100000
00000000
,
01000000
00100000
01000000
00100000
,
01000000
00000000
00010000
00000000
,
00001000
00000100
00001000
00000100
,
00001000
00000000
00000010
00000000
,
00001000
00000001
00001000
00000001
,
00000010
00000100
00001000
00000000
,
00000100
00000010
00000001
00000000
,
00000100
00000010
00010000
00000000
,
00001000
01000000
00100000
00000000
,
10000000
00100000
10000000
00100000
,
01000000
00001000
00010000
00000000
,
00000100
00000010
00000100
00000010
,
00000001
00000001
00000001
00000000
,
00002001
00000000
00003002
00000000
,
00002003
00000000
00003200
00000000
,
00020300
00000000
00032000
00000000
,
00023000
00000000
00032000
00000000
,
20003000
00000000
32000000
00000000
,
03200000
00000000
00320000
00000000
,
20030000
00000000
30002000
00000000
,
00023000
00000000
00031000
00000000
,
00010001
00000001
00000001
00000001
,
00000010
00000010
00000010
00000000
,
00000110
00000100
00000100
00000100
,
00010000
00010000
00010000
00000000
,
00011000
00001000
00001000
00001000
,
00100000
00100000
00100000
00000000
,
01100000
01000000
01000000
01000000
,
10000000
10000000
10000000
00000000
,
00100000
01000000
00010000
10000000
,
00100000
01000000
00001000
00010000
,
00000100
00000010
00000001
00001000
,
00000100
00000010
00000001
00010000
,
00001000
01000000
00100000
01000000
,
00001000
01000000
00100000
00000000
,
01000000
00100000
10000000
01000000
,
00100000
00001000
00010000
00000000
,
00011000
00010000
00000010
00000100
,
00000010
00010000
00000100
00000010
,
00000001
00000010
00000100
00010000
,
00001000
00010000
00100000
01000000
,
00100000
00010000
10000000
00100000
,
01000000
00100000
10000000
00001000
,
00100000
00001000
00010000
00000100
,
00000220
00000000
00000000
00000330
,
00000020
00000000
00000000
00000000
,
00000000
00000000
00000000
00000000
,
00000032
00000000
00000000
00000000
,
00000000
00000000
00000000
00000000
,
00020003
00000000
00000000
00000000
,
00000000
00000000
00000000
00000000
,
00032000
00000000
00000000
00000000
,
00000000
00000000
00000000
00003000
,
01100000
01000000
01000000
01000000
,
00100000
00100000
00100000
00000000
,
10000000
10000000
10000000
10000000
,
01000000
01000000
01000000
00000000
,
00100000
00100000
00100000
00100000
,
00001000
00001000
00001000
00000000
,
00010000
00010000
00010000
00010000
,
00022000
00000000
00000000
00033000
,
00010000
00000010
00000100
00000010
,
00010000
00000100
00000010
00000001
,
00000010
00000100
00010000
00000001
,
00010000
00001000
10000000
01000000
,
00100000
01000000
10000000
00010000
,
01000000
00001000
00010000
00001000
,
00010000
00000100
00000010
00000001
,
00000010
00000100
00000010
00000000
,
00000001
00000100
00000001
00010000
,
00001000
01000000
00100000
01000000
,
00001000
00100000
01000000
00100000
,
01000000
10000000
00100000
00000000
,
10000000
00010000
00100000
00010000
,
10000000
01000000
00100000
00001000
,
00010000
00000100
00000010
00000100
,
00001000
00000001
00000100
00000010
,
00000220
00000000
00000000
00000000
,
00000330
00000000
00000000
00000000
;

//---------------dance-double - ----------------
#NOTES:
     dance-double:
     :
     Medium:
     12:
     0.618,0.631,0.173,0.130,0.000:
10000000
00010000
10000000
00000000
00100000
01000000
00100000
00000000
,
10000000
01000000
00100000
00000000
00001000
00000000
00011000
00000000
,
00000010
00000100
00000010
00000000
00000100
00000001
00000100
00000000
,
00000001
00000010
00000100
00000000
00010000
00000000
00011000
00000000
,
01000000
00100000
01000000
00000000
10000000
01000000
10000000
00000000
,
00010000
01000000
00100000
00000000
10000000
00000000
10010000
00000000
,
00100000
01000000
00100000
00000000
01000000
00001000
01000000
00000000
,
00001000
00010000
00001000
00010000
00001000
00010000
00001000
00000000
,
00010000
00000010
00010000
00000010
00000100
00000000
00000001
00000000
,
00000010
00000100
00000010
00000100
00010000
00000000
00001000
00000000
,
00100000
01000000
00100000
01000000
10000000
00000000
00100000
00000000
,
01000000
00010000
10000000
01000000
10000000
00000000
00001000
00000000
,
00010000
00001000
00010000
00000010
00000100
00000000
00000001
00000000
,
00000010
00000100
00000010
00000100
00010000
00000000
00001000
00000000
,
00100000
01000000
00100000
01000000
00100000
01000000
00100000
01000000
,
10000000
01000000
10000000
01000000
10000000
01000000
00100000
00000000
,
10020000
10000000
10000000
10000000
,
10030000
00000000
00100000
01000000
00002000
00000000
00000000
00000000
,
00013000
00000000
00000001
00000100
00000001
00000000
00000100
00000001
,
00000000
00000100
00000001
00000000
00000010
00000000
00000100
00000000
,
00002001
00000000
00000001
00000000
00000001
00000000
00003001
00000010
,
00000100
00000000
00010000
00001000
00020000
00000000
00000000
00000000
,
00031000
00000000
01000000
00100000
01000000
00000000
00100000
01000000
,
00000000
00100000
01000000
00000000
10020000
00000000
00000000
00000000
,
10030000
01000000
00100000
01000000
10000000
01000000
00100000
00000000
,
00001000
01000000
00010000
01000000
00001000
00000000
00010000
00000000
,
00010000
00000100
00000010
00000100
00010000
00000100
00000010
00000000
,
00000001
00000100
00000010
00000100
00000001
00000000
00000010
00000000
,
00000010
00000100
00010000
00000100
00000010
00000100
00010000
00000000
,
00001000
00100000
01000000
00100000
00001000
00000000
01000000
00000000
,
01000000
00100000
10000000
00100000
01000000
00100000
10000000
00000000
,
01000000
00100000
00001000
00100000
01000000
00000000
01100000
00000000
,
00100000
01000000
10000000
00010000
01000000
00010000
10000000
00000000
,
01000000
00100000
01000000
00100000
00001000
00010000
00000100
00000000
,
00000010
00000001
00000010
00000001
00000100
00000010
00001000
00000000
,
00000100
00010000
00000100
00010000
00001000
00100000
01000000
00000000
,
00100000
01000000
00100000
01000000
10000000
00010000
01000000
00000000
,
00100000
10000000
00001000
00010000
00000100
00000010
00000100
00000000
,
00001000
00000001
00001000
00000001
00000100
00000010
00010000
00000000
,
00001000
00100000
00001000
00100000
01000000
10000000
00010000
00000000
,
01000000
00100000
01000000
00100000
10000000
01000000
00100000
00000000
,
00001000
00100000
00001000
00100000
00010000
00001000
00000010
00000000
,
00000100
00000001
00000100
00000001
00010000
00000100
00000010
00000000
,
00000100
00010000
00000100
00010000
00001000
00100000
01000000
00000000
,
00100000
01000000
00100000
01000000
10000000
00001000
01000000
00000000
,
00100000
01000000
00001000
00100000
00001000
00010000
00000010
00000000
,
00000100
00000001
00000010
00000100
00010000
00001000
00010000
00001000
,
00100000
01000000
10000000
00001000
00100000
01000000
10000000
00000000
,
12000000
00000000
00000000
00000000
,
03200000
00000000
00000000
00000000
,
00302000
00000000
00000000
00000000
,
00023000
00000000
00000000
00000000
,
00030020
00000000
00000000
00000000
,
00000230
00000000
00000000
00000000
,
00000302
00000000
00000000
00000000
,
00020003
00000000
00000000
00000000
,
00031000
01000000
00100000
01000000
00001000
01000000
00100000
00000000
,
10000000
01000000
00100000
01000000
10000000
00000000
01000000
00000000
,
01000000
10000000
00100000
10000000
01000000
10000000
00100000
00000000
,
01000000
00001000
00100000
01000000
00100000
00000000
00001000
00000000
,
00001000
00010000
00000100
00000010
00000100
00010000
00001000
00000000
,
00000010
00000100
00000001
00000100
00000010
00000000
00001000
00000000
,
00001000
00010000
00100000
01000000
00100000
00010000
00001000
01000000
,
01100000
10100000
01010000
10010000
,
01100000
00000000
00100000
00010000
10000000
00010000
00100000
01000000
,
00100000
00000000
00001000
00010000
00000100
00000010
00000001
00000000
,
00000011
00000000
00000010
00000001
00001000
00000001
00000010
00000100
,
00010000
00000000
00001000
01000000
00100000
10000000
01000000
00000000
,
11000000
00000000
01000000
10000000
00100000
01000000
00001000
00010000
,
00001000
00000000
00010000
00000100
00000010
00000100
00010000
00000000
,
00011000
00000000
00001000
00010000
00000001
00000100
00000001
00000010
,
00000100
00010000
00001000
00010000
00001000
01000000
00100000
00000000
,
01100000
00000000
00100000
10000000
00010000
10000000
00100000
01000000
,
00001000
00000000
00010000
00000100
00000010
00000100
00010000
00000000
,
00011000
00000000
00001000
00010000
00000010
00000100
00000010
00010000
,
00000001
00000000
00000010
00000100
00001000
00000100
00000010
00000000
,
00000110
00000000
00000100
00000001
00000010
00001000
00000010
00000001
,
00010000
00000000
00001000
00100000
10000000
00100000
00001000
00000000
,
01000000
00100000
10000000
01000000
00010000
01000000
10000000
00001000
,
00010000
00000100
00000010
00000001
00000100
00000000
00000001
00001000
,
00002002
00000000
00000000
00000000
,
00003003
00000000
00000000
00000000
;

//---------------dance-double - ----------------
#NOTES:
     dance-double:
     :
     Hard:
     16:
     0.938,1.000,0.009,0.199,0.935:
10000000
01000000
10000000
01000000
10000000
00100000
01000000
00000000
,
00001000
01000000
00001000
01000000
00010000
00001000
00000010
00000000
,
00000100
00000001
00000100
00000001
00001000
00000100
00000010
00000000
,
00000100
00010000
00000100
00010000
00001000
00100000
01000000
00000000
,
10000000
00100000
10000000
00100000
01000000
00001000
00010000
00000000
,
00000100
00000010
00000100
00000010
00000001
00010000
00000100
00000000
,
00010000
00001000
00010000
00001000
01000000
00100000
10000000
00000000
,
01000000
00000000
01000000
00000000
00100000
00000000
00100000
00000000
00001000
00010000
00001000
00010000
00000000
00000000
00000000
00000000
,
00000100
00000000
00000010
00000001
00000000
00000010
00000000
00000000
00000002
00000000
00000000
00000023
00000000
00000000
00000130
00000000
,
00000000
00000000
00010000
00001000
00000000
00010000
00000000
00000000
00002000
00000000
00000000
00203000
00000000
00000000
01300000
00000000
,
00000000
00000000
10000000
00100000
00000000
10000000
00000000
00000000
00020000
00000000
00000000
20030000
00000000
00000000
31000000
00000000
,
00000000
00000000
00100000
00001000
00000000
00100000
00000000
00000000
00002000
00000000
00000000
00023000
00000000
00000000
00030100
00000000
,
00000000
00000000
00000010
00000001
00000000
00000010
00000000
00000000
00000002
00000000
00000000
00000203
00000000
00000000
00000310
00000000
,
00000000
00000000
00001000
00010000
00000000
00001000
00000000
00000000
00020000
00000000
00000000
00230000
00000000
00000000
01300000
00000000
,
10000000
00010000
00100000
00010000
00100000
01000000
10000000
00100000
,
01000000
00001000
01000000
00001000
01000000
00001000
01000000
00000000
00001000
00010000
00001000
00010000
00001000
00010000
00001000
00000000
,
00010000
00000100
00010000
00000100
00000010
00000001
00000010
00000001
,
00000200
00000000
00000301
00000010
00000200
00000000
00000000
00000300
,
00010000
00001000
00100000
01000000
10000000
00000000
01000000
10000000
,
00000000
00100000
01000000
00000000
00100000
01000000
00001000
00000000
,
00010000
00000010
00010000
00000010
00000100
00000001
00000100
00000001
,
00002000
00000000
00003100
00010000
00002000
00000000
00000000
00003000
,
01000000
00100000
10000000
01000000
00100000
00000000
01000000
00100000
,
00000000
00001000
00010000
00000010
00000200
00000000
00000000
00000000
,
00000301
00001000
00000001
00001000
00000001
00001000
00000001
00001000
00000001
00001000
00000001
00001000
00000001
00000000
00000010
00000000
,
00000100
00010000
00000100
00010000
00000100
00010000
00000100
00010000
00000100
00000000
00000000
00000000
00010000
00000000
00001000
00100000
,
00001000
00100000
00001000
00100000
00001000
00100000
00001000
00100000
00001000
00100000
00001000
00100000
00001000
00000000
00100000
00000000
,
01000000
10000000
01000000
10000000
01000000
10000000
01000000
10000000
01000000
00000000
10000000
00010000
10000000
00010000
10000000
00000000
,
00010000
01000000
00010000
01000000
00010000
01000000
00010000
01000000
00010000
01000000
00010000
01000000
00010000
00000000
10000000
00000000
,
01000000
00100000
01000000
00100000
01000000
00100000
01000000
00100000
01000000
00000000
00000000
00000000
10000000
00000000
00001000
01000000
,
00001000
01000000
00001000
01000000
00001000
01000000
00001000
01000000
00001000
01000000
00001000
01000000
00001000
00000000
01000000
00000000
,
00100000
00000000
10000000
00000000
01000000
00100000
00000000
00001000
00010000
00000000
00000010
00000100
00000020
00000000
00000000
00000000
,
00000130
00000000
00000001
00000010
00000001
00000000
00000100
00000010
00000100
00000000
00000001
00000000
00000010
00000000
00000100
00000000
,
00001000
00000000
00100000
00001000
00100000
00000000
00010000
00100000
00010000
00000000
00100000
00000000
01000000
00000000
00000000
00000000
,
10000000
00000000
00010000
00100000
00010000
00000000
00100000
01000000
00100000
00000000
00001000
00000000
00010000
00000000
00000100
00000000
,
00000010
00000000
00000001
00000100
00000001
00000000
00001000
00000001
00001000
00000000
00000100
00000000
00000010
00000000
00000100
00000000
,
00010000
00000000
00001000
00010000
00001000
00000000
00100000
01000000
00100000
00000000
00001000
00000000
10000000
00000000
01000000
00000000
,
00100000
00000000
00001000
00100000
00001000
00000000
00010000
00001000
00010000
00000000
00000010
00000000
00000100
00000000
00000000
00000000
,
00000001
00000000
00000010
00000001
00000010
00000000
00000100
00000010
00000100
00000000
00010000
00000000
00001000
00000000
00100000
00000000
,
01000000
00000000
00100000
00010000
00100000
00000000
01000000
00100000
01000000
00000000
10000000
01000000
10000000
00000000
00000000
00000000
,
00010000
00000000
10000000
01000000
10000000
00000000
01000000
00100000
00010000
00000000
00001000
00100000
00001000
00000000
00010000
00000000
,
00000100
00000000
00000010
00000001
00000010
00000000
00000001
00000100
00000010
00000000
00000100
00000000
00000001
00000000
00000000
00000000
,
00001000
00000000
00000001
00000010
00000001
00000000
00000100
00000010
00001000
00000000
00000100
00010000
00000100
00000000
00010000
00000000
,
00001000
00000000
00100000
01000000
00100000
00000000
00010000
00100000
01000000
10000000
00100000
00000000
01000000
00100000
01000000
00000000
,
00010000
00000000
10000000
00100000
10000000
00000000
01000000
00100000
00010000
00000000
00001000
01000000
00001000
00000000
00010000
00000000
,
00000010
00000000
00000100
00000010
00000100
00000000
00000001
00000010
00000100
00000000
00000010
00000000
00000001
00000000
00000000
00000000
,
00000100
00000000
00000001
00000010
00000001
00000000
00000100
00000010
00010000
00001000
00010000
00001000
00010000
00001000
00010000
00000000
,
00001000
00000000
00100000
00000000
01000000
10000000
00000000
00100000
01000000
00001000
01000000
00001000
01000000
00001000
01000000
00000000
,
02100000
00000000
00000000
00000000
00000000
00000000
00000000
00000000
00001000
00000000
00000000
00001000
00000000
00000000
00001000
00000000
,
00000000
00000000
00000000
00000000
00000000
00000000
00000000
00000000
00100000
00000000
00000000
00100000
00000000
00000000
03100000
00000000
,
00002000
00000000
00000000
00000000
00000000
00000000
00000000
00000000
00010000
00000000
00000000
00010000
00000000
00000000
00010000
00000000
,
00000000
00000000
00000000
00000000
00000000
00000000
00000000
00000000
00000100
00000000
00000000
00000100
00000000
00000000
00003100
00000000
,
00000020
00000000
00000000
00000000
00000000
00000000
00000000
00000000
00000001
00000000
00000000
00000001
00000000
00000000
00000001
00000000
,
00000000
00000000
00000000
00000000
00000000
00000000
00000000
00000000
00000100
00000000
00000000
00000100
00000000
00000000
00000130
00000000
,
00020000
00000000
00000000
00000000
00000000
00000000
00000000
00000000
00001000
00000000
00000000
00001000
00000000
00000000
00031000
00000000
,
01000000
01000000
01000000
01000000
,
00100000
10000000
00100000
10000000
00100000
10000000
00100000
10000000
00100000
10000000
00100000
10000000
00100000
00000000
01000000
00000000
,
00001000
10000000
00001000
10000000
00001000
10000000
00001000
10000000
00001000
00000000
00000000
00000000
00010000
00000000
00000010
00000100
,
00000010
00000100
00000010
00000100
00000010
00000100
00000010
00000100
00000010
00000100
00000010
00000100
00000010
00000000
00001000
00000000
,
00000001
00000010
00000001
00000010
00000001
00000010
00000001
00000010
00000001
00000000
00000100
00000010
00000100
00000010
00000100
00000000
,
00000001
00001000
00000001
00001000
00000001
00001000
00000001
00001000
00000001
00001000
00000001
00001000
00000001
00000000
00010000
00000000
,
00000100
00010000
00000100
00010000
00000100
00010000
00000100
00010000
00000100
00000000
00000000
00000000
00001000
00000000
01000000
00100000
,
01000000
00100000
01000000
00100000
01000000
00100000
01000000
00100000
01000000
00100000
01000000
00100000
01000000
00000000
00001000
00000000
,
00100000
00010000
00100000
00000000
01000000
00100000
01000000
00000000
10000000
01000000
10000000
01000000
10000000
01000000
10000000
00000000
,
00100000
01000000
00100000
00000000
10000000
00000000
01000000
00000000
00100000
00010000
00000000
00001000
00010000
00000000
00000010
00000000
,
00000100
00000000
00000010
00000000
00001000
00000000
00000100
00000000
00000010
00000001
00000000
00000100
00000010
00000000
00010000
00000000
,
00001000
00010000
00001000
00000000
01000000
00000000
00100000
00000000
10000000
01000000
00000000
00100000
01000000
00000000
10000000
00000000
,
00010000
01000000
00010000
00000000
00100000
00000000
01000000
00000000
10000000
00100000
00000000
01000000
00001000
00000000
00010000
00000000
,
00000010
00000100
00000010
00000000
00001000
00000000
00000100
00000000
00000010
00000001
00000000
00001000
00000010
00000000
00010000
00000000
,
00001000
00000000
00100000
00000000
01000000
00000000
00100000
00000000
00010000
10000000
00000000
00100000
10000000
00000000
01000000
00000000
,
00100000
00010000
00100000
00000000
01000000
00000000
10000000
00000000
00010000
01000000
00000000
00001000
00010000
00000000
00000100
00000000
,
00000010
00000001
00000010
00000000
00000001
00000000
00000100
00000000
00000010
00000100
00000010
00000100
00000010
00000000
00000000
00000000
,
00010000
00001000
00100000
00000000
01000000
00000000
10000000
00000000
00100000
01000000
00000000
00010000
10000000
00000000
01000000
00000000
,
00010000
00000000
01000000
00000000
10000000
00000000
00001000
00000000
00010000
00001000
00000000
00000010
00000100
00000000
00000001
00000000
,
00000100
00000001
00000010
00000000
00000100
00000000
00010000
00000000
00001000
00100000
00000000
01000000
00100000
00000000
00001000
00000000
,
00100000
01000000
10000000
00000000
00010000
00000000
01000000
00000000
00001000
00010000
00001000
00010000
00000000
00000000
00000000
00000000
,
00000100
00000010
00000001
00000000
00000100
00000000
00000001
00000000
00000010
00000100
00001000
00000100
00001000
00000000
00010000
00000000
,
00001000
00000000
01000000
00000000
00100000
00000000
10000000
00000000
01000000
00100000
01000000
00100000
00010000
00000000
00001000
00000000
,
00000010
00000100
00000010
00000100
00000001
00000010
00000001
00000000
00000100
00000010
00000100
00000010
00010000
00000100
00010000
00000000
,
00001000
00100000
00001000
00100000
01000000
10000000
01000000
00000000
00100000
00001000
00100000
00001000
00010000
00000100
00010000
00000100
,
00000020
00000000
00000000
00000000
,
00000030
00000000
00000000
00000000
;

//---------------dance-double - ----------------
#NOTES:
     dance-double:
     :
     Challenge:
     18:
     1.000,1.000,0.000,0.190,1.000:
10000000
00000000
01000000
00000000
00100000
00000000
00010000
10000000
00100000
00000000
01000000
00000000
00001000
00000000
00000000
00000000
,
00010000
00000000
00000010
00000000
00000100
00000000
00000010
00010000
00000100
00000000
00000010
00000000
00000001
00000000
00000000
00000000
,
00000100
00000000
00000001
00000000
00000010
00000000
00000100
00000010
00000001
00000000
00010000
00000000
00000100
00000000
00000000
00000000
,
00010000
00000000
00100000
00000000
01000000
00000000
10000000
00010000
00100000
00000000
00010000
00000000
01000000
00000000
00000000
00000000
,
00010000
00000000
00100000
00000000
01000000
00000000
10000000
00010000
00100000
00000000
00001000
00000000
00010000
00000000
00000000
00000000
,
00000100
00000000
00000010
00000000
00000001
00000000
00001000
00000010
00000100
00000000
00000001
00000000
00010000
00000000
00000000
00000000
,
00001000
00000000
00100000
00000000
01000000
00000000
10000000
00010000
01000000
00000000
00010000
00000000
10000000
00000000
01000000
00000000
,
00100000
00000000
00100000
00000000
00001000
00000000
00001000
00000000
00010000
00000100
00000010
00000001
00000000
00000000
00000000
00000000
,
00001000
00000000
00000001
00000100
00000000
00000010
00000100
00000000
00000001
00000000
00000010
00000100
00000000
00010000
00001000
00000000
,
00000000
00000000
01000000
00010000
00000000
01000000
00100000
00000000
10000000
00000000
01000000
00100000
00000000
00001000
01000000
00000000
,
00000000
00000000
00010000
00001000
00000000
00000010
00000100
00000000
00000010
00000000
00001000
00000100
00000000
00000010
00000001
00000000
,
00000000
00000000
00001000
00000001
00000000
00000100
00000001
00000000
00010000
00000000
00001000
01000000
00000000
00100000
01000000
00000000
,
00000000
00000000
00010000
10000000
00000000
00010000
00100000
00000000
01000000
00000000
00100000
00001000
00000000
00010000
00001000
00000000
,
00000000
00000000
00010000
00000010
00000000
00000100
00000010
00000000
00000100
00000000
00000001
00000010
00000000
00000100
00000010
00000000
,
00000001
00000000
00000100
00000001
00000000
00001000
00000100
00000000
00010000
00000000
00001000
01000000
00000000
00100000
01000000
00000000
,
00010000
10000000
00010000
10000000
01000000
10000000
01000000
10000000
00001000
01000000
00001000
01000000
00001000
00010000
00001000
00000000
,
00010000
00010000
00000100
00000100
00000010
00000010
00000100
00000100
,
00010000
00000001
00000010
00000100
00002000
00000000
00000000
00003000
,
00000001
00000001
00000010
00000200
00001000
00000000
00020300
00001000
,
00000000
00032000
01000000
00000000
01003000
00100000
01000000
00000000
,
00001000
00001000
01000000
01000000
10000000
10000000
01000000
01000000
,
00001000
10000000
01000000
00100000
00020000
00000000
00000000
00030000
,
01000000
01000000
00100000
20000000
01000000
00000000
30002000
01000000
,
00000000
00023000
00001000
00000000
00030020
00000000
00000000
00000000
,
00001030
00000100
00000010
00000100
00001000
00000100
00000010
00000100
00001000
00000100
00000010
00000100
00001000
00000000
00000001
00000100
,
00000010
00000100
00000001
00000100
00000010
00000100
00000001
00000100
00000010
00000000
00000000
00000000
00010000
00000000
00001000
00010000
,
00001000
00100000
01000000
00100000
00001000
00100000
01000000
00100000
00001000
00100000
01000000
00100000
00001000
00000000
01000000
00100000
,
10000000
00100000
01000000
00100000
10000000
00100000
01000000
00100000
10000000
00000000
00001000
00100000
00001000
00010000
00000100
00000010
,
00000100
00010000
00000100
00000010
00000100
00010000
00000100
00000010
00000100
00010000
00000100
00000010
00000100
00000000
00001000
00000001
,
00000100
00000001
00001000
00000001
00000100
00000001
00001000
00000001
00000100
00000000
00000000
00000000
00000001
00000000
00000010
00000100
,
00001000
00000100
00000010
00000100
00001000
00000100
00000010
00000100
00001000
00000100
00000010
00000100
00001000
00000000
00010000
00001000
,
01000000
00100000
01000000
00001000
00010000
00001000
01000000
00100000
01000000
00000000
00010000
10000000
00020000
00000000
00000000
00000000
,
10030000
00000000
00100000
10000000
00100000
00000000
10000000
01000000
00100000
00000000
01000000
00100000
00010000
00000000
00001000
00000000
,
00000010
00000000
00000100
00000010
00000100
00000000
00000001
00000010
00000100
00000000
00000010
00000001
00001000
00000000
00000100
00000000
,
00010000
00000000
00100000
01000000
00100000
00000000
00010000
10000000
00100000
00000000
10000000
01000000
00100000
00000000
00001000
00000000
,
00010000
00000000
00000010
00000100
00000010
00000000
00001000
00000100
00000010
00000000
00000100
00000010
00000001
00000000
00001000
00000000
,
00000010
00000000
00010000
00001000
00010000
00000000
00001000
00100000
01000000
00000000
00100000
00010000
01000000
00000000
00100000
00000000
,
10000000
00000000
00100000
01000000
00100000
00000000
10000000
01000000
00100000
00000000
01000000
00100000
00001000
00000000
00010000
00000000
,
00000100
00000000
00000010
00000001
00000010
00000000
00000001
00000100
00000010
00000000
00000100
00000010
00010000
00000000
00001000
00000000
,
01000000
00000000
01000000
00000000
00100000
10000000
00000000
10000000
01000000
00100000
00002000
00000000
00010000
00000000
00013000
00000000
,
00000010
00000000
00000100
00000001
00000100
00000001
00001000
00000100
00000010
00000001
00001000
00000010
00010000
00001000
00010000
00000000
,
00001000
00000000
00100000
01000000
00100000
01000000
10000000
00010000
00100000
01000000
10000000
00001000
01000000
00001000
00010000
00000000
,
00000010
00000000
00001000
00000100
00000010
00000100
00001000
00000001
00000100
00000010
00001000
00000001
00000010
00000001
00010000
00000000
,
00001000
00000000
01000000
00100000
01000000
00100000
10000000
00100000
01000000
10000000
01000000
00100000
10000000
00001000
00100000
00000000
,
00001000
00000000
00010000
00000100
00010000
00000100
00000010
00000001
00000100
00000010
00010000
00000100
00010000
00001000
00100000
00000000
,
01000000
00000000
10000000
00100000
10000000
00100000
01000000
00010000
00100000
01000000
10000000
00001000
00100000
01000000
00100000
00000000
,
00001000
00000000
00010000
00000010
00000100
00000010
00010000
00000100
00000010
00000001
00001000
00000100
00010000
00001000
01000000
00000000
,
00100000
00000000
00100000
00000000
10000000
00010000
00000000
00010000
10000000
01000000
00100000
00001000
00010000
00000100
00000010
00000001
,
00000200
00000000
00000000
00000000
00000010
00000010
00000010
00000320
,
00000000
00000000
00000000
00000100
00000000
00000000
00000130
00000000
,
00000002
00000000
00000000
00000000
00000010
00000010
00000010
00000023
,
00000000
00000000
00000000
00000100
00000000
00000000
00000130
00000000
,
00020000
00000000
00000000
00000000
00001000
00001000
00001000
00032000
,
00000000
00000000
00000000
01000000
00000000
00000000
01003000
00000000
,
00200000
00000000
00000000
00000000
,
20300000
00000000
30020000
00000000
,
00130000
01000000
10000000
01000000
00100000
01000000
10000000
01000000
00100000
01000000
10000000
01000000
00100000
00000000
00001000
01000000
,
00100000
01000000
00001000
01000000
00100000
01000000
00001000
01000000
00100000
00000000
00000000
00000000
01000000
00000000
00001000
00010000
,
00001000
00010000
00000100
00000010
00000100
00010000
00000100
00000010
00000100
00010000
00000100
00000010
00000100
00000000
00001000
00000001
,
00000100
00000001
00001000
00000001
00000100
00000001
00001000
00000001
00000100
00000000
00000001
00001000
00000001
00001000
00000001
00000000
,
00010000
00000100
00000010
00000100
00010000
00000100
00000010
00000100
00010000
00000100
00000010
00000100
00010000
00000000
00001000
00000000
,
00100000
01000000
10000000
01000000
00100000
01000000
10000000
01000000
00100000
00000000
00000000
00000000
00010000
00000000
01000000
00100000
,
01000000
00010000
01000000
00100000
01000000
00010000
01000000
00100000
01000000
00010000
01000000
00100000
01000000
00000000
00010000
00000000
,
10000000
01000000
10000000
01000000
00100000
00001000
00100000
00001000
00010000
00000010
00000100
00000000
00000001
00000100
00000010
00000000
,
00001000
00000100
00000010
00000000
00000100
00000000
00010000
00000000
00001000
00100000
00000000
00100000
01000000
00000000
10000000
00000000
,
00010000
00000000
01000000
00010000
00100000
00000000
00001000
00000000
00010000
00000010
00000000
00000010
00000100
00000000
00000001
00000000
,
00000010
00000100
00001000
00000000
01000000
00000000
00100000
00000000
10000000
00010000
00000000
00010000
00100000
00000000
00001000
00000000
,
00010000
00000100
00000010
00000000
00000001
00000000
00000100
00000000
00000010
00010000
00000000
00010000
00001000
00000000
00100000
00000000
,
01000000
10000000
00100000
00000000
01000000
00000000
00010000
00000000
10000000
01000000
00000000
01000000
00100000
00000000
00001000
00000000
,
00010000
00000000
00000010
00000100
00000001
00000000
00000100
00000000
00000010
00010000
00000000
00010000
00001000
00000000
00100000
00000000
,
01000000
10000000
00100000
00000000
10000000
00000000
01000000
00000000
00100000
00001000
00000000
00001000
00010000
00000000
00000010
00000000
,
00000100
00000001
00000100
00000001
00010000
00001000
00010000
00001000
00100000
01000000
10000000
00010000
20000000
00000000
00010000
00000000
,
30010000
10000000
01000000
00000000
00100000
00001000
00100000
00001000
00010000
00000010
00000100
00000010
00010000
00000010
00000100
00000000
,
00000001
00000000
00000100
00000010
00000001
00000010
00000100
00000001
00001000
00000010
00001000
00000010
00010000
00001000
00100000
00000000
,
01000000
10000000
00100000
00000000
10000000
00010000
10000000
00010000
00100000
00001000
00100000
00001000
00010000
00000100
00000010
00000001
,
00000100
00000010
00000100
00000000
00000001
00000010
00000100
00000000
00010000
00001000
00010000
00001000
00010000
00000000
00001000
00000000
,
00100000
01000000
10000000
00000000
01000000
10000000
01000000
10000000
00010000
00100000
01000000
00100000
00001000
00010000
00001000
00010000
,
00000010
00000000
00001000
00000000
00000100
00000010
00000100
00000010
00000001
00000100
00000010
00000100
00000001
00001000
00000100
00000000
,
00010000
00001000
00100000
00010000
00100000
00010000
10000000
01000000
10000000
01000000
00100000
00001000
00100000
00001000
00010000
00000010
,
00000100
00000001
00000100
00000010
00001000
00000100
00010000
00001000
00100000
01000000
10000000
00010000
00100000
01000000
00100000
00001000
,
00020000
00000000
00000000
00000000
,
00030000
00000000
00000000
00000000
;

//---------------dance-single - ----------------
#NOTES:
     dance-single:
     :
     Beginner:
     3:
     0.151,0.242,0.173,0.000,0.000: // measure 1
0000
0000
0000
0000
,  // measure 2
0000
0000
0000
0000
,  // measure 3
0000
0000
0000
0000
,  // measure 4
0000
0000
0000
0000
,  // measure 5
1000
0000
0000
0000
,  // measure 6
0100
0000
0000
0000
,  // measure 7
1000
0000
0000
0000
,  // measure 8
0001
0000
0000
0000
,  // measure 9
0010
0000
0100
0000
,  // measure 10
0010
0000
0000
0000
,  // measure 11
0001
0000
0100
0000
,  // measure 12
0001
0000
0000
0000
,  // measure 13
1000
0000
0001
0000
,  // measure 14
1000
0000
0000
0000
,  // measure 15
0100
0000
1000
0000
,  // measure 16
0100
0000
0000
0000
,  // measure 17
0110
0000
0000
0000
,  // measure 18
0000
0000
0000
0000
,  // measure 19
0000
0000
0000
0000
,  // measure 20
0000
0000
0000
0000
,  // measure 21
0010
0000
0000
0000
,  // measure 22
0000
0000
0000
0000
,  // measure 23
0000
0000
0000
0000
,  // measure 24
0000
0000
0010
0000
,  // measure 25
1001
0000
0000
0000
,  // measure 26
1001
0000
0000
0000
,  // measure 27
0110
0000
0000
0000
,  // measure 28
0110
0000
0000
0000
,  // measure 29
1001
0000
0000
0000
,  // measure 30
1001
0000
0000
0000
,  // measure 31
0110
0000
0000
0000
,  // measure 32
0110
0000
0000
0000
,  // measure 33
0010
0000
0100
0000
,  // measure 34
0010
0000
0100
0000
,  // measure 35
0001
0000
0010
0000
,  // measure 36
0001
0000
0010
0000
,  // measure 37
0100
0000
1000
0000
,  // measure 38
0100
0000
1000
0000
,  // measure 39
0001
0000
0100
0000
,  // measure 40
0001
0000
0000
0000
,  // measure 41
1001
0000
1000
0000
,  // measure 42
0001
0000
1000
0000
,  // measure 43
0100
0000
0010
0000
,  // measure 44
0100
0000
0010
0000
,  // measure 45
0001
0000
0100
0000
,  // measure 46
0001
0000
0100
0000
,  // measure 47
0001
0000
1000
0000
,  // measure 48
0001
0000
0000
0000
,  // measure 49
1001
0000
0000
0000
,  // measure 50
0000
0000
0000
0000
,  // measure 51
0000
0000
0000
0000
,  // measure 52
0000
0000
0000
0000
,  // measure 53
1000
0000
0000
0000
,  // measure 54
0000
0000
0000
0000
,  // measure 55
0001
0000
0000
0000
,  // measure 56
0000
0000
0000
0000
,  // measure 57
1001
0000
0000
0000
,  // measure 58
1001
0000
0000
0000
,  // measure 59
0110
0000
0000
0000
,  // measure 60
0110
0000
0000
0000
,  // measure 61
1001
0000
0000
0000
,  // measure 62
1001
0000
0000
0000
,  // measure 63
0110
0000
0000
0000
,  // measure 64
0110
0000
0000
0000
,  // measure 65
0010
0000
0100
0000
,  // measure 66
0010
0000
1000
0000
,  // measure 67
0100
0000
1000
0000
,  // measure 68
0100
0000
0010
0000
,  // measure 69
0001
0000
0100
0000
,  // measure 70
0001
0000
0100
0000
,  // measure 71
0010
0000
1000
0000
,  // measure 72
0001
0000
0001
0000
,  // measure 73
1000
0000
0100
0000
,  // measure 74
1000
0000
0001
0000
,  // measure 75
1000
0000
0100
0000
,  // measure 76
1000
0000
0010
0000
,  // measure 77
0100
0000
0001
0000
,  // measure 78
0010
0000
0100
0000
,  // measure 79
1000
0000
0001
0000
,  // measure 80
1000
0001
1000
0000
,  // measure 81
1001
0000
0000
0000
;
