#TITLE:Utopiosphere;
#SUBTITLE:;
#ARTIST:Mili;
#TITLETRANSLIT:;
#SUBTITLETRANSLIT:;
#ARTISTTRANSLIT:;
#CREDIT:DigiMindAxel;
#BANNER:Utopiosphere.png;
#BACKGROUND:Utopiosphere-bg.png;
#LYRICSPATH:Utopiosphere.lrc;
#CDTITLE:Deemo.png;
#MUSIC:Utopiosphere.ogg;
#METERTYPE:DDR X;
#OFFSET:-13.433;
#SAMPLESTART:95.262;
#SAMPLELENGTH:12.000;
#SELECTABLE:YES;
#BPMS:0.000=88.000;
#STOPS:;
#BGCHANGES:-20.000=Utopiosphere.avi=1.000=1=1=0,
99999=-nosongbg-=1.000=0=0=0 // don't automatically add -songbackground-
;

//---------------dance-single - ----------------
#NOTES:
     dance-single:
     :
     Easy:
     3:
     0.104,0.141,0.000,0.141,0.000:
0001
0000
0000
0000
,
0010
0000
0000
0000
,
0001
0000
0000
0000
,
0100
0000
0000
0000
,
0020
0000
0000
0000
,
0130
0000
0010
0000
,
0100
0000
0000
0000
,
0001
0000
0010
0000
,
0001
0000
0000
0000
,
2000
0000
3001
0000
,
2000
0000
3001
0000
,
1000
0000
0010
0000
,
0100
0000
0001
0000
,
1000
1000
0000
0001
,
0001
0000
1000
1000
,
0000
0001
0001
0000
,
0010
0000
0000
0100
,
0000
0000
1000
0000
,
0000
0001
0000
0000
,
2000
0000
0000
3002
,
0000
0000
2003
0000
,
0000
3200
0000
0000
,
0320
0000
0000
0000
,
0230
0000
0000
0000
,
0320
0000
0000
0000
,
0032
0000
0000
0000
,
1003
0100
0010
0000
,
0001
0000
1000
0000
,
0001
0010
0100
0000
,
1000
0000
0001
0000
,
1000
0100
1000
0100
,
2000
0000
3002
0000
,
0103
0010
0100
0010
,
0200
0000
0320
0000
,
0130
0001
0100
0001
,
1000
0100
0010
0001
,
0010
0001
0100
0010
,
1000
0000
0010
0000
,
0200
0000
0000
0000
,
0320
0000
0000
0000
,
0230
0000
0000
0000
,
0320
0000
0000
0000
,
0030
0000
0000
0000
;

//---------------dance-single - ----------------
#NOTES:
     dance-single:
     :
     Medium:
     5:
     0.189,0.218,0.022,0.141,0.000:
0001
0010
0001
0100
,
0020
1000
2030
0000
,
3001
0000
1000
0100
1000
0000
0100
0000
,
1000
0001
1000
0010
0100
0000
0000
0000
,
0001
0001
0001
0001
,
1001
0000
1000
0000
,
1000
0000
0000
0000
,
0010
0000
0010
0000
,
0010
0000
0000
0000
,
0200
0000
0000
0000
0310
0100
0000
0000
,
0020
0000
0000
0000
0130
0010
0000
0000
,
2000
0000
3002
0000
,
2003
0000
3002
0000
,
1003
0000
0000
0001
0000
0000
0010
0000
,
0000
0001
0000
0000
0100
0000
0000
0010
,
0000
0000
1000
0000
0000
0100
0000
0000
,
0010
0000
0000
0010
0000
0000
0100
0000
,
0000
0100
0000
0000
1000
0000
0000
1000
,
0000
0000
0001
0000
0000
0001
0000
0000
,
1000
0100
1000
0100
1000
0000
0010
0100
,
0010
0100
0010
0000
1000
0001
1000
0001
,
0010
0000
0001
1000
0001
1000
0000
0000
,
0002
0000
0023
0000
,
0032
0000
0203
0000
,
0320
0000
2030
0000
,
3002
0000
2003
0000
,
3001
1000
0100
0000
,
0010
0010
0010
0000
,
0001
1000
0100
0000
,
1000
1000
1000
1000
,
1001
0000
0001
0100
0010
0000
0100
0010
,
0200
0001
0010
0301
,
1000
0100
0010
0000
0100
1000
0100
0000
,
2000
0010
0100
3010
,
0100
0001
0010
0000
0001
1000
0001
0000
,
0020
0000
0001
0000
0100
0000
0001
0030
,
1001
0000
1000
0100
0010
0000
0001
1000
,
0100
0000
1000
0010
0100
0000
0010
0100
,
0001
1000
0001
0000
0010
0000
0100
0000
,
0010
0001
0100
0000
0010
0000
0100
0000
,
0010
1000
0100
0000
1000
0000
0100
0000
,
1000
0100
0010
0000
0001
0000
0010
0001
;

//---------------dance-single - ----------------
#NOTES:
     dance-single:
     :
     Hard:
     10:
     0.411,0.483,0.067,0.290,0.316: // measure 1
0001
0000
0010
0000
0001
0000
1000
0010
1000
0000
0010
0000
0001
0000
0010
0000
,  // measure 2
2000
0000
0000
3002
0000
0000
0103
0000
0002
0000
0000
0000
0003
0000
1000
0001
,  // measure 3
1000
0100
0010
0001
0001
0010
0100
1000
,  // measure 4
1000
0100
0010
0001
1000
0100
0010
0001
,  // measure 5
1000
0010
0100
0000
0001
0000
0001
0000
1000
0100
0010
0000
0001
0100
0001
0100
,  // measure 6
0002
0000
0023
0000
,  // measure 7
0032
0000
0203
0000
,  // measure 8
0320
0000
2030
0000
,  // measure 9
3200
0000
0320
0000
,  // measure 10
0031
1000
0100
0010
0001
0020
0000
0030
,  // measure 11
0001
0100
0010
1000
0010
1000
0001
0001
,  // measure 12
1000
0200
0000
0300
1000
0010
0000
0000
,  // measure 13
0100
0001
0000
0000
0010
0100
0010
0000
,  // measure 14
0002
0000
0000
0000
1003
0100
0001
0000
0100
0000
1000
0000
0020
0000
0000
0000
,  // measure 15
1030
0010
0001
0000
0010
0000
1000
0000
0002
0000
0000
0000
1003
0010
0001
0000
,  // measure 16
0010
0000
1000
0000
0200
0000
0000
0000
1300
0100
0001
0000
0100
0000
1000
0000
,  // measure 17
1001
0000
0001
0000
1000
0001
0010
0000
0100
0000
0110
0000
0001
0000
1000
0000
,  // measure 18
0001
1000
0100
0000
0010
0000
0110
0000
1000
0000
1000
0000
0010
0100
0001
0100
,  // measure 19
0010
0000
1000
0000
0001
0000
0001
0000
0010
0100
0020
0000
0000
0000
0030
0000
,  // measure 20
0101
0000
0100
0000
0001
1000
0100
0000
1000
0000
1001
0000
0011
0000
0010
0000
,  // measure 21
0001
0010
0100
0000
0010
0000
0011
0000
1001
0000
1000
0000
0100
0001
0100
0000
,  // measure 22
1000
0000
0001
0000
0010
1000
0010
0000
0001
0010
0200
0000
0000
0000
0000
0000
,  // measure 23
2300
0000
0000
0000
0000
0000
3001
0000
0200
0000
0000
0302
0000
0000
1003
0000
,  // measure 24
0200
0000
0000
0320
0000
0000
0031
0000
2000
0000
0000
0000
0000
0000
3000
0000
,  // measure 25
0020
0000
0000
0000
0000
0000
0130
0000
0002
0000
0000
2003
0000
0000
3100
0000
,  // measure 26
0020
0000
0100
0000
0200
0000
0000
0330
,  // measure 27
1002
0000
0000
0000
0000
0000
0103
0010
2000
0000
0000
0000
0001
0000
0001
0000
,  // measure 28
3002
0000
0000
0203
0000
0000
0310
0000
2000
0000
0000
0000
0001
0000
0000
0000
,  // measure 29
3002
0100
0010
0103
,  // measure 30
0002
1000
0100
1003
,  // measure 31
0001
1000
0010
1000
0001
0000
0010
0000
0100
0010
0001
0010
0100
0000
1000
0000
,  // measure 32
0002
0000
0000
0100
0000
0000
0103
0000
0010
0000
1000
0000
0001
0000
1000
0001
,  // measure 33
1000
0100
0010
0001
1000
0000
0100
0000
1000
0001
1000
0010
0100
0000
0001
0000
,  // measure 34
1000
0100
0010
0100
1000
0001
0010
0100
1000
0000
0010
0100
0001
0000
1000
0001
,  // measure 35
1000
0010
0100
0010
1000
0000
0001
0000
0010
0100
0010
0001
0100
0000
0010
0000
,  // measure 36
2000
0000
0000
0001
0000
0000
3001
0000
0010
0000
0100
0000
1000
0000
0001
1000
,  // measure 37
0001
0000
0100
0010
1000
0010
0001
0010
1000
0000
0001
0000
1000
0100
0001
0100
,  // measure 38
1000
0000
0001
0000
1000
0010
0001
0010
1000
0000
0001
0000
1000
0100
0001
0100
,  // measure 39
1000
0001
1000
0000
0001
1000
0100
1000
0010
1000
0100
0010
0001
0100
1000
0100
,  // measure 40
0001
1000
0001
0000
1000
0001
0010
0100
1000
0001
0010
0001
1000
0100
0001
0100
,  // measure 41
1000
0001
1000
0000
0001
0100
0001
1000
0100
0010
0001
1000
0100
0010
0001
1000
,  // measure 42
0010
0100
0010
0000
1000
0010
1000
0001
0100
0010
1000
0010
0100
0001
1000
0100
;

//---------------dance-double - ----------------
#NOTES:
     dance-double:
     :
     Easy:
     4:
     0.095,0.141,0.000,0.119,0.000:
10000000
00000000
00000000
00000000
,
01000000
00000000
00000000
00000000
,
10000000
00000000
00000000
00000000
,
00100000
00000000
00000000
00000000
,
20000000
00000000
00000000
00000000
,
30010000
00000000
10000000
00000000
,
00010000
00000000
00000000
00000000
,
00100000
00000000
00001000
00000000
,
00100000
00000000
00000000
00000000
,
00002000
00000000
00013000
00000000
,
00002000
00000000
00013000
00000000
,
00000001
00000000
00000010
00000000
,
00000010
00000000
00000100
00000000
,
00001000
00001000
00000000
00000100
,
00000100
00000000
00010000
00010000
,
00000000
00001000
00001000
00000000
,
00100000
00000000
00000000
01000000
,
00000000
00000000
10000000
00000000
,
00000000
00010000
00000000
00000000
,
10000000
00000000
00000000
00100000
,
00000000
00000000
01000000
00000000
,
00000000
00001000
00000000
00000000
,
00020000
00000000
00000000
00000000
,
00000000
00000000
00000000
00030000
,
00002000
00000000
00000000
00000000
,
00000000
00000000
00000000
00003000
,
00010000
00000100
00010000
00000000
,
00000001
00000000
00001000
00000000
,
00000010
00000100
00000010
00000000
,
00010000
00000000
00001000
00000000
,
01000000
00100000
01000000
00100000
,
02000000
00000000
03020000
00000000
,
10030000
01000000
10000000
01000000
,
20000000
00000000
30020000
00000000
,
00130000
00001000
00100000
00001000
,
00020000
00000000
00030200
00000000
,
00020300
00000000
00030001
00001000
,
00000020
00000000
00000130
00000000
,
00000002
00000000
00000000
00000000
,
00020003
00000000
00000000
00000000
,
00000000
00000000
00000000
00000000
,
00032000
00000000
00000000
00000000
,
00003000
00000000
00000000
00000000
;

//---------------dance-double - ----------------
#NOTES:
     dance-double:
     :
     Medium:
     6:
     0.190,0.218,0.022,0.134,0.000:
10000000
01000000
00100000
00010000
,
02000000
00010000
03020000
00000000
,
10030000
00000000
00001000
00100000
00001000
00000000
00010000
00000000
,
00000010
00010000
00000010
00000100
00000010
00000000
00000100
00000000
,
00000001
00000001
00000001
00000000
00001000
00001000
00001000
00000000
,
00001001
00000000
00000010
00000000
,
00000010
00000000
00000000
00000000
,
00010000
00000000
00010000
00000000
,
00010000
00000000
00000000
00000000
,
00002000
00000000
00000000
00000000
01003000
00100000
00000000
00000000
,
20000000
00000000
00000000
00000000
30100000
01000000
00000000
00000000
,
00020000
00000000
20030000
00000000
,
32000000
00000000
03200000
00000000
,
00310000
00000000
00000000
01000000
00000000
00000000
00001000
00000000
,
00000000
01000000
00000000
00000000
00010000
00000000
00000000
10000000
,
00000000
00000000
01000000
00000000
00000000
10000000
00000000
00000000
,
00001000
00000000
00000000
00010000
00000000
00000000
00000010
00000000
,
00000000
00000100
00000000
00000000
00000001
00000000
00000000
00000001
,
00000000
00000000
00001000
00000000
00000000
00001000
00000000
00000000
,
00000001
00000010
00000001
00000010
00000001
00000000
00010000
00000100
,
00010000
00000100
00010000
00000000
00001000
00010000
00001000
00010000
,
00001000
00000000
01000000
00100000
01000000
00100000
00000000
00000000
,
20000000
00000000
32000000
00000000
,
03200000
00000000
00320000
00000000
,
00000000
00000000
02030000
00000000
,
03002000
00000000
02003000
00000000
,
03001000
00010000
00001000
00000000
,
00010000
00000100
00010000
00000000
,
00000001
00000010
00000001
00000000
,
00000100
00000100
00000100
00000100
,
00001001
00000000
00000001
00001000
00000100
00000000
00010000
00000100
,
00000020
00000001
00000100
00000031
,
00001000
00000100
00000010
00000000
00000100
00001000
00000100
00000000
,
00020000
00000100
00000010
00030100
,
00010000
00001000
01000000
00000000
00100000
01000000
00100000
00000000
,
20000000
00010000
00100000
30010000
,
10010000
00000000
10000000
01000000
00100000
00000000
00001000
00100000
,
00001000
00000000
00010000
00000010
00000100
00000000
00000001
00000010
,
00000100
00001000
00000001
00000000
00000001
00000000
00000001
00000000
,
00000010
00000100
00010000
00000000
00010000
00000000
00010000
00000000
,
00001000
00100000
01000000
00000000
01000000
00000000
01000000
00000000
,
10000000
00100000
01000000
00000000
00001000
00000000
00001000
00010000
;

//---------------dance-double - ----------------
#NOTES:
     dance-double:
     :
     Hard:
     10:
     0.416,0.483,0.082,0.290,0.316:
00010000
00000000
00001000
00000000
00010000
00000000
00000001
00000100
00000001
00000000
00000010
00000000
00000100
00000000
00001000
00000000
,
00000020
00000000
00000000
00010000
00000000
00000000
00010030
00000000
00000001
00000000
00000000
00000000
00010000
00000000
00000100
00001000
,
00000100
00010000
00000010
00000100
00000001
00000100
00000010
00010000
,
00001000
00100000
01000000
10000000
01000000
00100000
00001000
00010000
,
00000010
00000100
00000010
00000000
00001000
00000000
00001000
00000000
00000010
00000100
00000010
00000000
00010000
00001000
00010000
00001000
,
00020000
00000000
00030200
00000000
,
00000320
00000000
00000032
00000000
,
00000023
00000000
00000230
00000000
,
00020300
00000000
00032000
00000000
,
00013000
00001000
00100000
01000000
10000000
00020000
00000000
00030000
,
10000000
00100000
01000000
00001000
00010000
00001000
00010000
00000010
,
00000100
00000020
00000000
00000030
00000100
00000001
00001000
00000000
,
00000100
00010000
00001000
00000000
00100000
01000000
10000000
00000000
,
00020000
00000000
00000000
00000000
10030000
01000000
00100000
00000000
00010000
00000000
00010000
00000000
20000000
00000000
00000000
00000000
,
30010000
00100000
01000000
00000000
10000000
00000000
10000000
00000000
00002000
00000000
00000000
00000000
00013000
00000010
00000100
00000000
,
00000001
00000000
00000001
00000000
00002000
00000000
00000000
00000000
00003010
00000100
00000001
00000000
00001000
00000000
00001000
00000000
,
00001100
00000000
00000100
00000000
00010000
00100000
01000000
00000000
10000000
00000000
10100000
00000000
00100000
00000000
01000000
00000000
,
00001000
00010000
00000100
00000000
00001000
00000000
00001100
00000000
00000100
00000000
00000100
00000000
00000010
00000001
00000010
00000001
,
00001000
00000000
00000100
00000000
00010000
00000000
00010000
00000000
00001000
01000000
00200000
00000000
00000000
00000000
00300000
00000000
,
10010000
00000000
10000000
00000000
01000000
10000000
00010000
00000000
00100000
00000000
00110000
00000000
00101000
00000000
00001000
00000000
,
00010000
00000100
00000010
00000000
00000001
00000000
00001001
00000000
00001100
00000000
00000100
00000000
00010000
00000010
00000100
00000000
,
00000010
00000000
00001000
00000000
00000001
00000010
00000100
00000000
00000010
00000100
00020000
00000000
00000000
00000000
00000000
00000000
,
00032000
00000000
00000000
00000000
00000000
00000000
10003000
00000000
02000000
00000000
00000000
23000000
00000000
00000000
30010000
00000000
,
00200000
00000000
00000000
00302000
00000000
00000000
00013000
00000000
00000200
00000000
00000000
00000000
00000000
00000000
00000000
00000000
,
00002300
00000000
00000000
00000000
00000000
00000000
00003100
00000000
00000020
00000000
00000000
00000032
00000000
00000000
00000103
00000000
,
00000020
00000000
00001000
00000000
00002000
00000000
00000000
00003030
,
00001002
00000000
00000000
00000000
00000000
00000000
00010003
00001000
00020000
00000000
00000000
00000000
00031000
00000000
00100000
00000000
,
02000000
00000000
00000000
23000000
00000000
00000000
30100000
00000000
02000000
00000000
00000000
00000000
03100000
00000000
00000000
00000000
,
10020000
01000000
10000000
01030000
,
20010000
00100000
00010000
30100000
,
10000000
01000000
00100000
01000000
10000000
00000000
00010000
00000000
01000000
00001000
00010000
00001000
01000000
00000000
00001000
00000000
,
00020000
00000000
00000000
00032000
00000000
00000000
00013000
00000000
00000010
00000000
00000100
00000000
00000010
00000000
00001000
00000001
,
00001000
00000100
00000010
00000001
00001000
00000000
00000100
00000000
00001000
00000001
00001000
00000010
00000100
00000000
00000001
00000000
,
00000010
00000100
00000010
00000001
00001000
00000000
00000100
00001000
00000100
00000000
00010000
00000100
00010000
00000000
00001000
10000000
,
00001000
01000000
00100000
01000000
00001000
00000000
00100000
01000000
10000000
01000000
00100000
00010000
01000000
00000000
00100000
00000000
,
02000000
00000000
00000000
03002000
00000000
00000000
00013000
00000000
00000100
00000000
00000010
00000000
00000001
00000000
00001000
00000001
,
00001000
00000000
00000010
00000100
00000001
00000100
00001000
00000100
00000001
00000000
00001000
00000000
00000001
00000010
00001000
00000010
,
00000001
00000000
00001000
00000000
00000001
00000100
00001000
00000100
00000001
00000000
00010000
00000000
00001000
01000000
10000000
01000000
,
00001000
10000000
00001000
00000000
00010000
00100000
01000000
10000000
01000000
00100000
00010000
10000000
00100000
01000000
00001000
00010000
,
00000010
00000100
00000001
00000000
00001000
00000001
00000010
00000100
00001000
00000100
00000010
00000001
00010000
00001000
01000000
00100000
,
10000000
00100000
01000000
00000000
00010000
10000000
00010000
10000000
01000000
00100000
00010000
10000000
01000000
00100000
00001000
00010000
,
00000010
00000100
00000001
00000000
00001000
00000010
00000100
00000001
00000010
00000100
00000010
00000001
00000100
00000010
00010000
00000010
;

//---------------dance-single - ----------------
#NOTES:
     dance-single:
     :
     Beginner:
     1:
     0.053,0.071,0.030,0.000,0.000:
0001
0000
0000
0000
,
0010
0000
0000
0000
,
0100
0000
0000
0000
,
1000
0000
0000
0000
,
0001
0000
0000
0000
,
1001
0000
0000
0000
,
0000
0000
0000
0000
,
1000
0000
0000
0000
,
0000
0000
0000
0000
,
0001
0000
0010
0000
,
0100
0000
1000
0000
,
0100
0000
0010
0000
,
0001
0000
1000
0000
,
0001
0000
0000
0001
,
0000
0000
0010
0000
,
0000
0100
0000
0000
,
1000
0000
0000
1000
,
0000
0000
0001
0000
,
0000
0001
0000
0000
,
0100
0000
0000
0100
,
0000
0000
0010
0000
,
0000
0010
0000
0000
,
1001
0000
0000
0000
,
0000
0000
0000
0000
,
0001
0000
0000
0000
,
0000
0000
0000
0000
,
1001
0000
0000
0000
,
0000
0000
0000
0000
,
1000
0000
0000
0000
,
0001
0000
0000
0000
,
1001
0000
1000
0000
,
0100
0000
0000
0000
,
1000
0000
0001
0000
,
1000
0000
0000
0000
,
0001
0000
0100
0000
,
0010
0000
0000
0000
,
0100
0000
0010
0000
,
0100
0000
0010
0000
,
1000
0000
0000
0000
;
