#TITLE:うさぬこぬんぬんファンタジー!;
#SUBTITLE:;
#ARTIST:ARM(IOSYS) feat.普透明度;
#TITLETRANSLIT:USANUKO NUN NUN FANTASY!;
#SUBTITLETRANSLIT:;
#ARTISTTRANSLIT:ARM(IOSYS) feat.FUTOUMEIDO;
#CREDIT:DigiMindAxel;
#BANNER:USANUKO NUN NUN FANTASY!.png;
#BACKGROUND:USANUKO NUN NUN FANTASY!-bg.png;
#LYRICSPATH:USANUKO NUN NUN FANTASY!.lrc;
#CDTITLE:pop'n music.png;
#MUSIC:USANUKO NUN NUN FANTASY!.ogg;
#METERTYPE:DDR X;
#OFFSET:-10.026;
#SAMPLESTART:71.460;
#SAMPLELENGTH:12.000;
#SELECTABLE:YES;
#BPMS:0.000=160.000;
#STOPS:;
#BGCHANGES:;

//---------------dance-single - ----------------
#NOTES:
     dance-single:
     :
     Easy:
     5:
     0.229,0.264,0.223,0.041,0.000:
0001
0000
1000
0000
,
0001
0000
1000
0000
,
0010
0000
0010
0000
,
0010
0000
0010
0000
,
1000
0000
0001
0000
,
1000
0000
0001
0000
,
1001
0000
1001
0000
,
0110
0000
0110
0000
,
0000
0000
0000
0000
,
0000
0000
0000
0000
,
0010
0000
0100
0000
,
0010
0000
0100
0000
,
0001
0000
0010
0000
,
0001
0001
1000
1000
,
0100
0000
0010
0000
,
0100
0000
0010
0000
,
0001
1001
0000
1001
,
1000
1000
1000
0000
,
0010
0000
0100
0000
,
0001
1000
0001
0000
,
0100
0000
0010
0000
,
1000
1000
0001
0001
,
1000
0000
0100
0000
,
0010
0100
0010
0000
,
1001
0000
1001
0000
,
0001
1000
0001
0000
,
1000
1000
1000
0000
,
0001
0001
0001
0000
,
1000
1000
0001
0001
,
0110
0000
0110
0000
,
0010
0010
0010
0000
,
0100
0100
0100
0000
,
0010
0010
0100
0100
,
1001
0000
1001
0000
,
0001
0000
0000
0000
,
1001
0000
0000
0000
,
1000
0000
0000
0000
,
0110
0000
0000
0000
,
0001
1000
0001
1000
,
0200
0000
0000
0000
,
0300
0000
0000
0000
,
1001
1000
0001
0000
,
0010
0001
0010
0000
,
0001
1000
0001
0000
,
0100
0010
0100
0000
,
0001
0010
0100
0000
,
0010
0001
0010
0000
,
1001
0000
0110
0000
,
1001
0000
0000
0000
,
1000
0100
1000
0000
,
0010
0100
0010
0000
,
1000
0100
0010
0000
,
0001
1000
0001
0000
,
1001
0000
1001
0000
,
0110
0000
0110
0000
,
0010
0100
0010
0100
,
0020
0000
0000
0030
,
1000
0000
0000
0000
,
0100
0000
0000
0000
,
0010
0000
0001
0000
,
0020
0000
0000
0030
,
0001
1000
0001
0000
,
0010
0001
0010
0000
,
0100
0010
0100
0010
,
0100
0010
0100
0010
,
0100
1000
0100
0000
,
1000
0001
1000
0000
,
1001
0000
1001
0000
,
0110
0000
0110
0000
,
0000
0000
0000
2002
,
0000
0000
0000
0000
,
3003
0000
0000
0000
;

//---------------dance-single - ----------------
#NOTES:
     dance-single:
     :
     Medium:
     9:
     0.373,0.469,0.264,0.281,0.103:
1000
0000
0000
0000
0010
0000
0000
1000
0000
0000
0000
0000
0100
0000
0000
0010
,
0000
0000
0000
0000
0001
0000
0000
1000
0000
0000
0000
0000
0001
0000
0000
0000
,
1000
0100
0100
0000
0000
1000
1000
0000
,
0000
0001
0001
0000
0000
1000
1000
0000
,
0010
0000
0000
0000
0100
0000
0000
0010
0000
0000
0000
0000
1000
0000
0000
0001
,
0000
0000
0000
0000
0010
0000
0000
0001
0000
0000
0000
0000
1000
0000
0000
0000
,
2002
3003
2200
3300
,
0022
0000
0033
0000
0100
0010
0100
0000
,
0002
0000
0000
0000
,
0000
0000
0003
0000
,
1000
0000
0100
0000
,
1000
0100
1000
0000
,
0100
0000
0010
0000
,
1001
1001
0110
0110
,
0001
0000
0100
0000
,
0001
0100
0001
0000
,
0100
1001
0100
1001
,
0110
0110
0110
0000
,
1000
0000
0000
0000
0010
0000
0000
1000
0000
0000
0000
0000
0100
0000
0010
0000
,
0100
0000
0000
0000
1000
0000
0000
0001
0000
0000
0000
0000
0000
0000
0000
0000
,
0100
0000
0000
0000
0001
0000
0000
0100
0000
0000
0000
0000
0010
0000
0000
0000
,
0101
0101
1010
1010
,
0010
0000
0000
0000
0100
0000
0000
0010
0000
0000
0000
0000
1000
0000
0001
0000
,
1000
0000
0000
0000
0100
0000
0000
1000
0000
0000
0000
0000
0000
0000
0000
0000
,
0010
0010
0010
0000
0100
0100
0100
0000
,
0001
1000
0100
1000
0001
0000
0000
0000
,
1000
0100
0001
0100
,
1000
0100
0001
0100
,
1000
1000
0001
0001
,
1000
1000
1000
0000
0001
0001
0001
0000
,
1000
0010
0001
0010
,
1000
0010
0001
0010
,
1000
1000
0001
0001
,
1000
1000
1000
0000
0001
0001
0001
0000
,
0220
0000
0000
0330
,
2002
0000
0000
3003
,
0220
0000
0000
0330
,
2002
0000
0000
3003
,
1000
0100
0010
0001
,
0200
0010
0010
0010
,
0310
0000
0000
0000
,
1001
0000
0000
0000
0001
0000
0000
0100
0000
0000
0000
0000
0010
0000
0100
0000
,
0010
0000
0000
0000
1000
0000
0000
0100
0000
0000
0000
0000
1000
0000
0000
0000
,
0001
0000
0000
0000
1000
0000
0000
0100
0000
0000
0000
0000
1000
0000
0001
0000
,
1000
0010
0100
0001
,
1000
0000
0001
0000
1000
0000
0000
0010
0000
0000
0000
0000
0100
0000
0000
0000
,
0010
0000
0100
0000
0010
0000
0000
1000
0000
0000
0000
0000
0000
0000
0000
0000
,
0012
0000
0203
0000
,
0320
0000
0130
0000
,
1001
0000
0000
0000
1000
0000
0000
0100
0000
0000
0000
0000
1000
0000
0000
0000
,
0010
0000
0100
0000
0010
0000
0000
0100
0000
0000
0000
0000
0001
0000
0000
0000
,
0010
0000
0001
0000
0010
0000
0000
0001
0000
0000
0000
0000
1000
0000
0000
0000
,
0010
0100
0010
0100
0010
0100
0010
0000
,
1000
1000
0000
0000
0001
0001
0000
0000
,
1000
1000
0000
0000
0001
0001
0000
0000
,
1000
0010
0100
0001
,
2000
0000
3001
0000
,
1000
0100
0010
0110
,
0001
0010
0100
0110
,
2002
3003
0220
0330
,
2002
0000
0000
3003
,
1000
0000
0100
0000
1000
0000
0000
0001
0000
0000
0000
0000
0010
0000
0000
0100
,
0000
0000
0000
0000
1000
0000
0000
0010
0000
0000
0000
0000
1000
0000
0001
0000
,
1000
1000
1000
0000
0000
0001
0001
0000
,
0000
1000
1000
0000
0000
0001
0001
0000
,
0100
0000
0010
0000
0100
0000
0000
0001
0000
0000
0000
0000
0010
0000
0000
0100
,
0000
0000
0000
0000
1000
0000
0000
0001
0000
0000
0000
0000
0000
0000
0000
0000
,
2002
3003
2200
3300
,
0022
0000
0033
0000
0100
0010
0100
0000
,
0000
0000
0000
2002
,
0000
0000
0000
0000
,
3003
0000
0000
0000
;

//---------------dance-single - ----------------
#NOTES:
     dance-single:
     :
     Hard:
     13:
     0.644,0.674,0.603,0.050,0.376: // measure 1
0001
0000
0100
0000
0001
1000
0000
1000
0000
0000
0010
0000
0100
0010
0000
0010
,  // measure 2
0000
0000
0001
0000
1000
0001
0000
0001
0000
0000
1000
0000
0100
0000
0010
0000
,  // measure 3
0001
1000
1000
0001
0100
0001
0001
1000
,  // measure 4
0010
1000
1000
0001
0100
0001
0001
0000
,  // measure 5
1000
0000
0100
0000
1000
0001
0000
0001
0000
0000
0100
0000
0010
0100
0000
0100
,  // measure 6
0000
0000
1000
0000
0001
1000
0000
1000
0000
0000
0001
0000
0100
0000
0010
0000
,  // measure 7
1010
0000
0000
1010
0000
0000
0000
0000
0110
0000
0000
0110
0000
0000
0000
0000
,  // measure 8
0101
0000
0000
0101
0000
0000
0000
0000
1001
0000
1001
0000
0110
0000
0000
0000
,  // measure 9
0100
1000
0001
0000
0010
0000
0100
0000
,  // measure 10
1000
0001
2000
3001
,  // measure 11
0010
0001
0100
0000
0010
1000
0100
0000
,  // measure 12
1000
0100
0001
0100
1000
0001
0010
0100
,  // measure 13
1000
0001
0010
0000
0001
1000
0100
0000
,  // measure 14
1000
1000
0001
0001
0100
0100
0010
0010
,  // measure 15
1000
0100
0010
0000
0100
0010
0001
0000
,  // measure 16
1000
0010
0001
0010
1000
0100
0010
0001
,  // measure 17
1000
0100
1100
0000
0010
0001
1001
0000
,  // measure 18
0110
0000
0000
0000
0110
0000
0000
0000
0110
0000
1000
0010
1000
0000
0001
0100
,  // measure 19
0001
0000
1000
0000
0100
1000
0000
1100
0000
0000
0010
0000
0001
0000
1000
0000
,  // measure 20
0100
0000
0010
0000
0100
1000
0000
1100
0000
0000
0001
0000
0001
0000
1000
0000
,  // measure 21
1000
0000
0010
0000
0100
0001
0000
0101
0000
0000
0010
0000
1000
0000
0001
0000
,  // measure 22
0010
0010
0001
0001
1000
1000
0010
0010
,  // measure 23
0100
0000
0001
0000
0010
0001
0000
0011
0000
0000
0100
0000
1000
0000
0010
0000
,  // measure 24
0100
0000
0010
0000
1000
0001
0000
1001
0000
0000
0000
0000
0110
0000
0000
0000
,  // measure 25
0100
1000
0100
1000
0100
0000
0000
0000
0010
0001
0010
0001
0010
0000
0000
0000
,  // measure 26
0001
0000
1000
0010
1000
0000
0010
0000
0100
0000
0000
0000
0101
0000
0000
0000
,  // measure 27
0001
0001
0100
0100
0001
0010
0100
0000
,  // measure 28
1000
1000
0010
0010
1000
0100
0010
0000
,  // measure 29
0001
0001
0001
0000
1000
1000
1000
0000
,  // measure 30
1010
1010
1010
0000
0101
0101
0101
0000
,  // measure 31
0001
0001
1000
1000
0010
0100
0001
0000
,  // measure 32
1000
1000
0001
0001
0100
0010
1000
0000
,  // measure 33
0001
0001
0001
0000
1000
1000
1000
0000
,  // measure 34
1100
1100
1100
0000
0011
0011
0011
0000
,  // measure 35
1001
0000
0000
0000
0000
1000
1000
0010
,  // measure 36
0110
0000
0000
0000
0000
0001
0001
1000
,  // measure 37
1100
0000
0000
0000
0000
0010
0010
0100
,  // measure 38
0101
0000
0000
0000
0000
0010
0010
1000
,  // measure 39
1001
0110
1001
0110
,  // measure 40
1001
0000
0000
0000
0001
1000
0001
1000
0001
1000
0001
1000
0001
1000
0001
1000
,  // measure 41
0200
0000
0000
1300
0000
0000
0000
0000
,  // measure 42
1001
0000
1000
0000
0001
0000
0000
0001
0000
0000
0001
0000
0010
0000
0001
0000
,  // measure 43
1000
0000
0010
0000
0100
0000
0000
0100
0000
0000
0010
0000
0100
0000
0000
0000
,  // measure 44
0001
0000
1000
0000
0100
0000
0000
0100
0000
0000
0100
0000
1000
0000
0010
0000
,  // measure 45
0100
0010
0100
0000
0010
1000
0010
0000
0100
0010
0100
0000
0001
0000
0000
0000
,  // measure 46
0010
0000
0100
0000
1000
0000
0000
2000
0000
0000
0000
0000
3000
0000
0000
0000
,  // measure 47
0001
0000
0100
0000
0010
0000
0000
0020
0000
0000
0000
0000
0030
0000
1000
0000
,  // measure 48
0001
0000
0000
0100
0000
0000
1000
0000
0100
0000
0000
0001
0000
0000
1000
0000
,  // measure 49
0010
0000
0000
0100
0000
0000
0001
0000
0100
0000
0000
0000
0110
0000
0000
0000
,  // measure 50
1001
0000
0001
0000
1000
0000
0000
1000
0000
0000
1000
0000
0010
0000
1000
0000
,  // measure 51
0100
0000
0010
0000
0100
0000
0000
0100
0000
0000
1000
0000
0001
0000
0000
0000
,  // measure 52
1000
0000
0010
0000
0100
0000
0000
0100
0000
0000
0100
0000
0010
0000
1000
0000
,  // measure 53
0001
0010
0001
0000
0010
0100
0010
0000
0001
0010
0001
0000
0100
0000
0000
0000
,  // measure 54
0101
0101
0000
0000
1010
1010
0000
0000
,  // measure 55
1001
0000
1001
0000
0000
0000
0000
0000
0010
0100
0000
0100
0000
0000
0001
0000
,  // measure 56
1001
0000
1000
0000
0100
0000
0010
0000
0001
0000
0010
0000
0100
1000
0100
1000
,  // measure 57
0010
0000
0000
0010
0000
0000
0010
0000
1001
0000
0000
0000
0000
0000
0000
0000
,  // measure 58
0001
0010
0001
0010
0000
0001
1000
0000
0100
0000
0100
0000
1001
0000
0000
0000
,  // measure 59
1000
0000
0000
0100
0000
0000
1000
0000
0000
0100
0000
0000
0000
0000
0000
1000
0000
0000
0001
0000
0000
0000
0000
0000
0010
0000
0000
0000
0001
0000
0000
0000
1000
0000
0000
0000
0100
0000
0000
0000
0000
0000
0000
0000
0000
0000
0000
0000
,  // measure 60
0010
0100
1000
0010
0000
0000
0100
0001
0010
0100
0000
0000
,  // measure 61
1000
0100
0010
0001
1000
0100
0010
0000
0000
0011
0000
0000
,  // measure 62
1001
0000
1000
0000
0001
0100
0000
0101
0000
0000
0010
0000
1000
0001
0000
1001
,  // measure 63
0000
0000
0010
0000
0001
0100
0000
0110
0000
0000
0100
0000
1000
0000
0001
0000
,  // measure 64
0100
0001
0001
0100
0010
1000
1000
0100
,  // measure 65
0010
0001
0001
0010
0100
1000
1000
0000
,  // measure 66
1001
0000
0001
0000
0010
0001
0000
1001
0000
0000
0100
0000
1000
0010
0000
0110
,  // measure 67
0000
0000
0100
0000
0010
1000
0000
1001
0000
0000
0001
0000
0100
0000
0010
0000
,  // measure 68
1010
0000
0000
1010
0000
0000
0000
0000
0101
0000
0000
0101
0000
0000
0000
0000
,  // measure 69
0110
0000
0000
0110
0000
0000
0000
0000
1001
0000
1001
0000
0110
0000
0000
0000
,  // measure 70
0000
0000
0000
2002
,  // measure 71
0000
0000
0000
0000
,  // measure 72
3003
0000
0000
0000
;

//---------------dance-double - ----------------
#NOTES:
     dance-double:
     :
     Medium:
     9:
     0.409,0.469,0.256,0.281,0.103:
10000000
00000000
00010000
00000000
10000000
00000000
00000000
10000000
00000000
00000000
00000000
00000000
01000000
00000000
00000000
00100000
,
00000000
00000000
00000000
00000000
00001000
00000000
00000000
00010000
00000000
00000000
00000000
00000000
00001000
00000000
00010000
00000000
,
00000001
00001000
00001000
00000000
00000000
00000100
00000100
00000000
,
00000000
00010000
00010000
00000000
00000000
00001000
00001000
00000000
,
01000000
00000000
00100000
00000000
01000000
00000000
00000000
01000000
00000000
00000000
00000000
00000000
00100000
00000000
00000000
10000000
,
00000000
00000000
00000000
00000000
00001000
00000000
00000000
00010000
00000000
00000000
00000000
00000000
00000001
00000000
00000000
00000000
,
00002002
00003003
00000220
00000330
,
00002002
00000000
00003003
00000000
00000100
00000010
00000100
00000000
,
00000020
00000000
00000000
00000000
,
00000000
00000000
00000030
00000000
,
00001000
00000001
00001000
00000001
,
00001000
00000001
00001000
00000001
,
00001000
00000010
00000100
00000010
,
00000110
00000110
00001001
00001001
,
00010000
00001000
00010000
00001000
,
00010000
00001000
01000000
00001000
,
01000000
10010000
01000000
10010000
,
01100000
01100000
01100000
00000000
,
00010000
00000000
10000000
00000000
01000000
00000000
00000000
01000000
00000000
00000000
00000000
00000000
10000000
00000000
01000000
00000000
,
00100000
00000000
00010000
00000000
00100000
00000000
00000000
00100000
00000000
00000000
00000000
00000000
00000000
00000000
00000000
00000000
,
00001000
00000000
00010000
00000000
00000100
00000000
00000000
00000100
00000000
00000000
00000000
00000000
00001000
00000000
00000000
00000000
,
00001001
00001001
00000110
00000110
,
00000100
00000000
00000001
00000000
00000010
00000000
00000000
00000010
00000000
00000000
00000000
00000000
00000001
00000000
00000010
00000000
,
00000100
00000000
00001000
00000000
00000010
00000000
00000000
00000010
00000000
00000000
00000000
00000000
00000110
00000000
00000000
00000000
,
00010000
00010000
00010000
00000000
00001000
00001000
00001000
00000000
,
10000000
00100000
01000000
00001000
00010000
00000000
00010000
00000000
,
00001000
10000000
00100000
01000000
,
00001000
00010000
00000001
00000010
,
00000100
00000100
00010000
00010000
,
00001000
00001000
00001000
00000000
00010000
00010000
00010000
00000000
,
00001000
10000000
00100000
01000000
,
00001000
00010000
00000001
00000010
,
00000100
00000100
00010000
00010000
,
00001000
00001000
00001000
00000000
00010000
00010000
00010000
00000000
,
00022000
00000000
00000000
00033000
,
02002000
00000000
00000000
03003000
,
00020200
00000000
00000000
00030300
,
00022000
00000000
00000000
00033000
,
00001000
10000000
01000000
00100000
,
00020000
00001000
00001000
00031000
,
00010000
00000000
00000000
00000000
,
00001000
00000000
00010000
00000000
00000010
00000000
00000000
00000010
00000000
00000000
00000000
00000000
00001000
00000000
00000001
00000000
,
00001000
00000000
00000100
00000000
00010000
00000000
00000000
00010000
00000000
00000000
00000000
00000000
00001000
00000000
00000000
00000000
,
00010000
00000000
00001000
00000000
01000000
00000000
00000000
01000000
00000000
00000000
00000000
00000000
00010000
00000000
10000000
00000000
,
00010000
10000000
00010000
10000000
00010000
10000000
01000000
00000000
,
10000000
00000000
00010000
00000000
01000000
00000000
00000000
01000000
00000000
00000000
00000000
00000000
00001000
00000000
01000000
00000000
,
00001000
00000000
01000000
00000000
00100000
00000000
00000000
00100000
00000000
00000000
00000000
00000000
00000000
00000000
00000000
00000000
,
02100000
00000000
03002000
00000000
,
00023000
00000000
00030001
00000000
,
00001000
00000000
00000001
00000000
00000100
00000000
00000000
00000100
00000000
00000000
00000000
00000000
00000001
00000000
00000010
00000000
,
00000001
00000000
00000100
00000000
00000010
00000000
00000000
00000010
00000000
00000000
00000000
00000000
00010000
00000000
00000000
00000000
,
00001000
00000000
00010000
00000000
00000010
00000000
00000000
00000010
00000000
00000000
00000000
00000000
00010000
00000000
00001000
00000000
,
00100000
00010000
00100000
00010000
00100000
00010000
00100000
00000000
,
00001000
00001000
00000000
00000000
00100000
00100000
00000000
00000000
,
00010000
00010000
00000000
00000000
10000000
10000000
00000000
00000000
,
00010000
10000000
00010000
10000000
00010000
10000000
00010000
10000000
,
02000000
00000000
13000000
00000000
,
00010000
10000000
01000000
11000000
,
10000000
00001000
00010000
00011000
,
00020200
00030300
00002020
00003030
,
00000220
00000000
00000000
00000330
,
00000010
00000000
00000100
00000000
00000001
00000000
00000000
00000001
00000000
00000000
00000000
00000000
00000010
00000000
00000000
00000100
,
00000000
00000000
00000000
00000000
00010000
00000000
00000000
00001000
00000000
00000000
00000000
00000000
00010000
00000000
00001000
00000000
,
10000000
01000000
01000000
00000000
00000000
10000000
10000000
00000000
,
00000000
00100000
00100000
00000000
00000000
01000000
01000000
00000000
,
00010000
00000000
10000000
00000000
00001000
00000000
00000000
00001000
00000000
00000000
00000000
00000000
00010000
00000000
00000000
00000010
,
00000000
00000000
00000000
00000000
00000100
00000000
00000000
00000010
00000000
00000000
00000000
00000000
00000000
00000000
00000000
00000000
,
00000220
00000330
00002002
00003003
,
00000220
00000000
00000330
00000000
00000100
00000010
00000100
00000000
,
00000000
00000000
00000000
00022000
,
00000000
00000000
00000000
00000000
,
00033000
00000000
00000000
00000000
;

//---------------dance-double - ----------------
#NOTES:
     dance-double:
     :
     Hard:
     13:
     0.610,0.674,0.454,0.066,0.351:
10000000
00000000
01000000
00000000
00100000
00010000
00000000
00100000
00000000
00000000
00001000
00000000
01000000
00100000
00000000
01000000
,
00000000
00000000
00001000
00000000
00010000
00000100
00000000
00010000
00000000
00000000
00000001
00000000
00000010
00000000
00000100
00000000
,
00002000
00000001
00000001
00000000
00000000
00000100
00000100
00000000
,
00000000
00000001
00000001
00000000
00000000
00000100
00003100
00000000
,
00010000
00000000
00001000
00000000
01000000
00100000
00000000
01000000
00000000
00000000
00100000
00000000
10000000
00010000
00000000
10000000
,
00000000
00000000
00001000
00000000
00010000
00000100
00000000
00010000
00000000
00000000
00001000
00000000
10000000
00000000
00010000
00000000
,
10010000
00000000
00000000
10010000
00000000
00000000
00000000
00000000
00011000
00000000
00000000
00011000
00000000
00000000
00000000
00000000
,
00001001
00000000
00000000
00001001
00000000
00000000
00000000
00000000
00000100
00000000
00000100
00000000
00010001
00000000
00000000
00000000
,
00000001
00000010
00000100
00010000
00001000
00100000
01000000
10000000
,
00001000
00001000
00020000
00031000
,
00010000
00001000
00100000
00000000
00001000
00100000
00010000
00000000
,
10000000
01000000
00010000
01000000
10000000
00001000
00010000
00000100
,
00001000
00000010
00000100
00000000
00000010
00010000
00001000
00000000
,
00010000
00010000
00000010
00000010
00000100
00000100
00000001
00000001
,
00010000
00001000
00100000
00000000
00010000
00100000
00001000
00000000
,
10000000
00100000
00010000
00100000
10000000
00001000
00010000
00000010
,
00000100
00000010
00000110
00000000
00000001
00000010
00000011
00000000
,
00001100
00000000
00000000
00000000
00011000
00000000
00000000
00000000
00001100
00000000
00000001
00001000
00000001
00000000
00001000
00000001
,
00001000
00000000
00000100
00000000
00010000
00000000
00000000
00010000
00000000
00000000
00001000
00000000
10000000
00000000
01000000
00000000
,
00100000
00000000
01000000
00000000
10000000
00000000
00000000
00001000
00000000
00000000
10000000
00000000
10000000
00000000
10000000
00000000
,
00010000
00000000
00100000
00000000
00001000
00000000
00000000
00001000
00000000
00000000
00010000
00000000
00000001
00000000
00000010
00000000
,
00000100
00000100
00000010
00000010
00000001
00000001
00010000
00010000
,
00001000
00000000
01000000
00000000
00100000
00000000
00000000
00100000
00000000
00000000
10000000
00000000
00010000
00000000
00100000
00000000
,
01000000
00000000
00100000
00000000
00001000
00000000
00000000
00001000
00000000
00000000
00000000
00000000
00011000
00000000
00000000
00000000
,
00010000
00000100
00010000
00000100
00010000
00000000
00000000
00000000
00001000
01000000
00001000
01000000
00001000
00000000
00000000
00000000
,
00010000
00001000
10000000
01000000
00100000
00000000
01100000
00000000
,
10000000
10000000
01000000
01000000
00010000
01000000
10000000
00000000
,
00010000
00010000
01000000
01000000
10000000
01000000
00001000
00000000
,
00010000
00010000
00010000
00000000
00001000
00001000
00001000
00000000
,
00011000
00011000
00011000
00000000
00001100
00001100
00001100
00000000
,
00000001
00000001
00000100
00000100
00001000
00000100
00000001
00000000
,
00001000
00001000
00000100
00000100
00000001
00000100
00010000
00000000
,
00001000
00001000
00001000
00000000
00010000
00010000
00010000
00000000
,
00011000
00011000
00011000
00000000
01010000
01010000
01010000
00000000
,
10010000
00000000
00000000
00000000
00000000
10000000
01000000
00100000
,
00011000
00000000
00000000
00000000
00000000
00000001
00000010
00000100
,
00011000
00000000
00000000
00000000
00000000
10000000
00100000
01000000
,
00011000
00000000
00000000
00000000
00000000
00000001
00000100
00000010
,
00011000
00010100
00011000
00010100
,
00011000
00000000
00000000
00000000
00001000
01000000
00001000
01000000
00001000
01000000
00001000
01000000
00001000
01000000
00001000
01000000
,
00020000
00000000
00000000
01030000
00000000
00000000
00000000
00000000
,
00010000
00000000
10000000
00000000
01000000
00000000
00000000
01000000
00000000
00000000
10000000
00000000
00100000
00000000
01000000
00000000
,
00001000
00000000
00010000
00000000
00000100
00000000
00000000
00000100
00000000
00000000
00001000
00000000
00000001
00000000
00000000
00000000
,
00000100
00000000
00000010
00000000
00001000
00000000
00000000
00001000
00000000
00000000
00000001
00000000
00000010
00000000
00000100
00000000
,
00010000
00001000
00010000
00000000
00000100
00010000
00000100
00000000
00010000
00001000
00010000
00000000
00000100
00000000
00000000
00000000
,
00010000
00000000
00001000
00000000
01000000
00000000
00000000
02000000
00000000
00000000
00000000
00000000
03100000
00000000
00000000
00000000
,
10000000
00000000
00100000
00000000
01000000
00000000
00000000
02000000
00000000
00000000
00000000
00000000
03010000
00000000
10000000
00000000
,
01000000
00000000
00000000
00001000
00000000
00000000
00000100
00000000
00000001
00000000
00000000
00000100
00000000
00000000
00010000
00000000
,
01000000
00000000
00000000
10000000
00000000
00000000
00010000
00000000
10000000
00000000
00000000
00000000
10010000
00000000
00000000
00000000
,
00010000
00000000
00100000
00000000
00001000
00000000
00000000
00001000
00000000
00000000
00010000
00000000
00000001
00000000
00000100
00000000
,
00000010
00000000
00000100
00000000
00000001
00000000
00000000
00000001
00000000
00000000
00000100
00000000
00000010
00000000
00000000
00000000
,
00001000
00000000
00000100
00000000
00010000
00000000
00000000
00010000
00000000
00000000
00001000
00000000
01000000
00000000
00100000
00000000
,
01000000
00001000
01000000
00000000
00001000
00010000
00001000
00000000
01000000
00001000
01000000
00000000
00001000
00000000
00000000
00000000
,
00011000
00011000
00000000
00000000
00001001
00001001
00000000
00000000
,
00011000
00011000
00000000
00000000
10001000
10001000
00000000
00000000
,
00011000
00000000
00010000
00000000
00000010
00000000
00000100
00000000
00000001
00000000
00000100
00000000
00000010
00010000
00000010
00010000
,
00000010
00000000
00000000
00010000
00000000
00000000
00001000
00000000
00100000
00000000
00000000
00000000
00000000
00000000
00000000
00000000
,
00010000
00100000
01000000
10000000
00000000
01000000
10000000
00000000
00100000
00000000
01000000
00000000
01010000
00000000
00000000
00000000
,
10000000
00000000
00000000
01000000
00000000
00000000
00100000
00000000
00000000
00010000
00000000
00000000
00000000
00000000
00000000
00100000
00000000
00000000
00010000
00000000
00000000
00000000
00000000
00000000
10000000
00000000
00000000
00000000
00100000
00000000
00000000
00000000
01000000
00000000
00000000
00000000
00001000
00000000
00000000
00000000
00000000
00000000
00000000
00000000
00000000
00000000
00000000
00000000
,
00010000
00000001
00000010
00000100
00000000
00000100
00010000
00000001
00000100
00000010
00000000
00000010
,
00010000
00001000
10000000
01000000
00100000
01000000
10000000
00000000
00000000
10010000
00000000
00000000
,
00100000
00000000
01000000
00000000
00001000
00010000
00000000
00001000
00000000
00000000
00010000
00000000
00000010
00001000
00000000
00000010
,
00000000
00000000
00001000
00000000
00000001
00000010
00000000
00000001
00000000
00000000
00000010
00000000
00000100
00000000
00010000
00000000
,
00002000
00010000
00010000
00000000
00000000
01000000
01000000
00000000
,
00000000
00010000
00010000
00000000
00000000
01000000
01003000
00000000
,
00001000
00000000
00010000
00000000
00000100
00001000
00000000
00000100
00000000
00000000
00001000
00000000
00000001
00000100
00000000
00000001
,
00000000
00000000
00000010
00000000
00000100
00001000
00000000
00000100
00000000
00000000
00010000
00000000
00001000
00000000
10000000
00000000
,
10010000
00000000
00000000
10010000
00000000
00000000
00000000
00000000
00011000
00000000
00000000
00011000
00000000
00000000
00000000
00000000
,
00001001
00000000
00000000
00001001
00000000
00000000
00000000
00000000
00000100
00000000
00000100
00000000
00010001
00000000
00000000
00000000
,
00000000
00000000
00000000
00022000
,
00000000
00000000
00000000
00000000
,
00033000
00000000
00000000
00000000
;

//---------------dance-double - ----------------
#NOTES:
     dance-double:
     :
     Easy:
     5:
     0.245,0.293,0.240,0.058,0.000:
10000000
00000000
01000000
00000000
,
00100000
00000000
00010000
00000000
,
10000000
00010000
10000000
00010000
,
10000000
00010000
10000000
00001000
,
00010000
00000000
00000100
00000000
,
00010000
00000000
00001000
00000000
,
00011000
00000000
00011000
00000000
,
00011000
00000000
00011000
00000000
,
00000000
00000000
00000000
00000000
,
00000000
00000000
00000000
00000000
,
00000010
00000000
00000100
00000000
,
00000010
00000000
00000100
00000000
,
00000001
00000000
00000010
00000000
,
00000001
00000001
00001000
00001000
,
00000001
00000000
00000100
00000000
,
00000001
00000000
00000100
00000000
,
00000000
00000110
00000000
00000110
,
00000010
00000010
00000010
00000000
,
00010000
00000100
00010000
00000000
,
00001000
00000000
00010000
00000000
,
00000010
00000100
00000010
00000000
,
00001000
00001000
00000001
00000001
,
00010000
00001000
00010000
00000000
,
00000010
00010000
00000010
00000000
,
00011000
00000000
00011000
00000000
,
00001000
00010000
00001000
00000000
,
10000000
10000000
10000000
00000000
,
00010000
00010000
00010000
00000000
,
10000000
00010000
10000000
00010000
,
10010000
00000000
10010000
00000000
,
00001000
00001000
00001000
00000000
,
00100000
00100000
00100000
00000000
,
00001000
00001000
00010000
00010000
,
00011000
00000000
00011000
00000000
,
00001000
00000000
00000000
00000000
,
00010001
00000000
00000000
00000000
,
00000110
00000000
00000000
00000000
,
00010001
00000000
00000000
00000000
,
00000010
00000100
00000010
00000100
,
00000002
00000000
00000000
00000000
,
00001003
00000000
00000000
00000000
,
00000001
00000010
00000001
00000010
,
00000001
00001000
00000001
00000000
,
00001000
00000100
00001000
00000100
,
00001000
00000001
00001000
00000000
,
00000010
00000100
00000010
00000000
,
00001000
00000001
00001000
00000000
,
00000001
00000000
00000100
00000000
,
00000020
00000000
00010030
00000000
,
00001000
00010000
00001000
00000000
,
00100000
00001000
00100000
00001000
,
00100000
00010000
00100000
00000000
,
01000000
00100000
01000000
00100000
,
01100000
00000000
01100000
00000000
,
10010000
00000000
10010000
00000000
,
00001000
00010000
00001000
00010000
,
00002000
00000000
00000000
00003000
,
00011000
00000000
00000000
00000000
,
00010001
00000000
00000000
00000000
,
00000110
00000000
00000110
00000000
,
00002002
00000000
00000000
00003003
,
00000001
00000010
00000001
00000000
,
00000100
00000000
00000010
00000000
,
00001000
00000001
00001000
00000100
,
00001000
00000001
00001000
00000100
,
00010000
00000001
00010000
00000000
,
00001000
00010000
00001000
00000000
,
00011000
00000000
00011000
00000000
,
10001000
00000000
10001000
00000000
,
00000000
00000000
00000000
02200000
,
00000000
00000000
00000000
00000000
,
03300000
00000000
00000000
00000000
;

//---------------dance-single - ----------------
#NOTES:
     dance-single:
     :
     Beginner:
     2:
     0.106,0.173,0.140,0.000,0.000:
0001
0000
0000
0000
,
0000
0000
0000
0000
,
1000
0000
0000
0000
,
0000
0000
0000
0000
,
0001
0000
0000
0000
,
0000
0000
0000
0000
,
1001
0000
0000
0000
,
0000
0000
0000
0000
,
0100
0000
0000
0000
,
0000
0000
0000
0000
,
0110
0000
0000
0000
,
0000
0000
0000
0000
,
0010
0000
0000
0000
,
1000
0000
1000
0000
,
0001
0000
0000
0000
,
0010
0000
0000
0000
,
0000
1001
0000
1001
,
0000
0000
0000
0000
,
0001
0000
0000
0000
,
1000
0000
0000
0000
,
0100
0000
0000
0000
,
0010
0000
0010
0000
,
0001
0000
0000
0000
,
0100
0000
0000
0000
,
0010
0000
0010
0000
,
0110
0000
0000
0000
,
1000
0000
0000
0000
,
1000
0000
0000
0000
,
1000
0000
0000
0000
,
1001
0000
0000
0000
,
0001
0000
0000
0000
,
0001
0000
0000
0000
,
0001
0000
0000
0000
,
1001
0000
0000
0000
,
0010
0000
0000
0000
,
0110
0000
0000
0000
,
0010
0000
0000
0000
,
0110
0000
0000
0000
,
1000
0000
1000
0000
,
1000
0000
0000
0000
,
0000
0000
0000
0000
,
0001
0000
0000
0000
,
0100
0000
0000
0000
,
0010
0000
0000
0000
,
1000
0000
0000
0000
,
0001
0000
0000
0000
,
1000
0000
0000
0000
,
1001
0000
0000
0000
,
0000
0000
0000
0000
,
1000
0000
0000
0000
,
0100
0000
0000
0000
,
0010
0000
0000
0000
,
0001
0000
0000
0000
,
1001
0000
0000
0000
,
1001
0000
0000
0000
,
0100
0000
0100
0000
,
0100
0000
0000
0000
,
0110
0000
0000
0000
,
0010
0000
0000
0000
,
0110
0000
0010
0000
,
0110
0000
0000
0000
,
1000
0000
0100
0000
,
1000
0000
0000
0000
,
0001
0000
0010
0000
,
0001
0000
0000
0000
,
0100
0000
0010
0000
,
0100
0000
0000
0000
,
0110
0000
0010
0000
,
0010
0000
0010
0000
,
0000
0000
0000
1001
;
