#TITLE:Tonight?;
#SUBTITLE:;
#ARTIST:dj REMO-CON;
#TITLETRANSLIT:;
#SUBTITLETRANSLIT:;
#ARTISTTRANSLIT:;
#CREDIT:DigiMindAxel;
#BANNER:Tonight.png;
#BACKGROUND:Tonight-bg.png;
#LYRICSPATH:;
#CDTITLE:beatmania IIDX.png;
#MUSIC:Tonight.ogg;
#METERTYPE:DDR X;
#OFFSET:-7.521;
#SAMPLESTART:28.823;
#SAMPLELENGTH:12.000;
#SELECTABLE:YES;
#BPMS:0.000=135.000;
#STOPS:;
#BGCHANGES:-22.000=Tonight.avi=1.000=1=1=0,
99999=-nosongbg-=1.000=0=0=0 // don't automatically add -songbackground-
;

//---------------dance-single - ----------------
#NOTES:
     dance-single:
     :
     Easy:
     4:
     0.190,0.230,0.019,0.204,0.000:
0001
0000
0001
0000
,
1000
0000
1000
0000
,
0001
0000
0001
0000
,
1000
0000
1000
0000
,
0100
0000
0010
0000
,
0100
0000
0010
0000
,
0100
0000
0010
0000
,
0100
0000
0010
0000
,
0002
0000
0000
0000
,
0023
0000
0000
0000
,
0230
0000
0000
0000
,
2300
0000
3000
0000
,
0001
1000
0001
0000
,
2000
0000
3000
0000
,
0010
0100
0010
0000
,
0200
0000
0300
0000
,
0001
0010
0001
0000
,
0020
0000
0030
0000
,
0100
1000
0100
0000
,
2000
0000
3000
0000
,
0001
1000
0001
0000
,
1000
0100
1000
0000
,
0001
1000
0001
0000
,
1000
0010
1000
0000
,
0100
0010
0100
0000
,
1000
0001
1000
0000
,
0010
0100
0010
0000
,
0100
0001
0100
0000
,
1001
0000
0000
0000
,
0000
0000
0000
0000
,
0000
0000
0000
0000
,
0000
0000
0000
0000
,
0020
0000
0230
0000
,
0320
0000
0230
0000
,
0320
0000
2030
0000
,
3020
0000
1030
0000
,
0001
1000
0001
0000
,
0020
0000
0031
0000
,
1000
0001
1000
0000
,
0020
0000
1030
0000
,
0001
1000
0001
0000
,
0200
0000
0310
0000
,
1000
0100
1000
0000
,
0002
0000
1003
0000
,
0010
0010
0010
0010
,
0110
0010
0100
0000
,
0001
0010
0001
0000
,
1000
0100
1000
0000
,
0010
0100
0010
0100
,
0001
1000
0001
0000
,
0100
0010
0100
0010
,
1000
0001
1000
0000
,
0002
0000
0000
0000
,
0023
0000
0000
0000
,
0032
0000
0000
0000
,
0003
0000
0000
0000
;

//---------------dance-single - ----------------
#NOTES:
     dance-single:
     :
     Medium:
     6:
     0.340,0.382,0.279,0.214,0.000:
1000
0001
1000
0001
,
1000
0001
1000
0001
,
1000
0100
1000
0100
,
1000
0100
0010
0000
,
0001
0100
0010
0100
,
0001
0100
0010
1000
,
0100
0010
0100
1000
,
0010
0010
0010
0110
,
0200
0000
0302
0000
,
0203
0000
0320
0000
,
2030
0000
3002
0000
,
2003
0000
3100
0000
,
1001
1001
1001
1000
,
0020
0000
0030
0000
,
0110
0110
0110
1000
,
0002
0000
0003
0000
,
0011
0011
0011
1000
,
0200
0000
0300
0000
,
1001
1001
1001
0100
,
2000
0000
3000
0000
,
0001
1000
0001
0000
1000
0001
1000
0000
,
0100
1000
0100
0000
0010
0001
0010
0000
,
0100
0010
0100
0000
1000
0100
1000
0000
,
0001
1000
0000
1000
0000
1000
0000
0000
,
0001
0100
0001
0000
1000
0010
1000
0000
,
0100
0010
0100
0000
1000
0001
1000
0000
,
0010
0100
0010
0000
0100
0001
0100
0000
,
0001
0001
0001
0000
,
2002
0000
0000
0000
,
0000
0000
0000
0000
,
0000
0000
0000
0000
,
0000
0000
0000
3003
,
0020
0000
0230
0000
,
0320
0000
0230
0000
,
0320
0000
0230
0000
,
0320
0000
0230
0300
,
1001
1100
1001
1100
,
1000
0001
1000
0001
0010
0000
0000
0000
,
1001
0011
1001
0011
,
0001
1000
0001
1000
0100
0000
0000
0000
,
1001
0110
1001
0110
,
0100
0010
0100
0010
1000
0000
0000
0000
,
1001
0110
1001
0110
,
0010
0100
0010
0100
0001
0000
0000
0000
,
0000
1000
0000
1000
0000
1000
0000
1000
,
0001
0010
0001
0000
0100
0010
0100
0000
,
0001
1000
0001
0000
1000
0100
1000
0000
,
0010
0100
0010
0000
1000
0100
1000
0000
,
0001
1000
0001
1000
0001
1000
0100
0000
,
1000
0001
1000
0001
1000
0001
0010
0000
,
0100
0010
0100
0010
0100
1000
0100
0000
,
1000
0001
1000
0001
1000
0001
0010
0000
,
0200
0000
0000
0000
,
0320
0000
0000
0000
0000
0000
0000
0030
,
0000
0001
0000
0001
0000
0001
0000
0001
;

//---------------dance-single - ----------------
#NOTES:
     dance-single:
     :
     Hard:
     9:
     0.467,0.434,0.177,0.372,0.000:
1000
0001
1000
0000
0001
1000
0001
0000
,
1000
0100
1000
0000
0001
0010
0001
0000
,
0100
0010
0100
0000
0001
1000
0001
0000
,
1000
0100
1000
0000
0001
0020
0000
0030
,
0001
1000
0001
1000
0001
1000
0100
0000
,
1000
0001
1000
0001
1000
0001
0010
0000
,
0001
0100
0001
0100
0001
0100
0010
0000
,
1000
0010
1000
0010
1000
0100
0010
0000
,
0002
0023
2030
3020
,
0032
0203
0320
1030
,
0002
0203
2300
3200
,
0302
0023
0230
0000
,
1300
0001
0010
0100
1000
0001
0000
0100
,
0002
0000
0000
0103
0000
0000
0000
0000
,
0001
1000
0100
0010
0001
1000
0000
0010
,
0200
0000
0000
0310
0000
1000
1000
0000
,
0100
1000
0010
0100
0001
0010
0000
0001
,
2000
0000
0000
3100
0000
0000
0000
0000
,
1000
0100
1000
0010
0100
0001
0000
0010
,
0200
0000
0000
1300
0000
0001
0001
0000
,
1000
0010
1000
0010
0100
0001
0100
0001
,
1000
0001
1000
0001
1000
0100
1000
0100
,
0010
0100
0010
0100
0010
0001
0010
0001
,
1000
0010
0000
0010
0000
0010
0000
0000
,
1000
0001
1000
0001
0010
1000
0010
1000
,
0010
0001
1000
0001
1000
0010
0001
0010
,
0001
0010
1000
0001
1000
0001
1000
0001
,
0010
0010
0010
0011
,
1002
0000
2003
0000
,
3002
0000
2003
0000
,
3002
0000
2003
0000
,
3002
0000
2003
0000
,
3200
0000
0320
0000
,
0032
0000
0023
0000
,
0230
0000
2300
0000
,
3020
0000
0130
0000
,
1001
1100
0011
1100
,
1000
0010
0001
0010
1000
0100
0010
0000
,
0101
1010
0101
1010
,
1000
0010
0001
0010
1000
0001
0001
0000
,
1100
0011
1100
0011
,
0001
0010
1000
0010
0001
0000
0000
0000
,
0011
1100
0011
1100
,
1000
0010
0001
0010
1000
0001
0001
0000
,
1000
0001
1000
0001
1000
0001
1000
0001
,
1000
1000
1000
0001
0010
1000
0010
0001
,
0100
0100
0010
0010
1000
0010
0001
0010
,
1000
1000
0001
0001
0010
0100
1000
0001
,
0010
0001
0100
0010
1000
0100
0001
0100
,
1000
0010
0100
0001
0010
0010
0010
0001
,
1000
0010
0001
0010
1000
0100
0010
0001
,
1000
0010
0100
0010
1000
0010
0100
0000
,
1002
0000
0000
0000
0000
0010
0000
0013
,
0200
0000
0000
0000
0000
1000
0000
1300
,
0000
0020
0030
0020
0030
0020
0030
0020
,
0030
0000
0000
0000
;

//---------------dance-single - ----------------
#NOTES:
     dance-single:
     :
     Challenge:
     11:
     0.544,0.588,0.149,0.149,0.214:
1000
1100
1000
1100
,
1000
1001
1000
1001
,
1000
1100
1000
1100
,
1000
0000
0000
0000
1001
0000
0000
0000
1000
0000
0001
0000
0000
0001
0000
0000
,
1000
0100
0010
0100
0010
0100
1000
0001
,
0100
0010
0100
0010
0100
0001
1000
0100
,
1000
0001
0100
0001
0100
0001
0010
0100
,
1000
0000
0000
1000
0100
0000
0000
0100
0010
0000
0001
0000
0000
0001
0000
0000
,
0100
0001
0100
0001
0100
0001
1000
0100
,
1000
0001
1000
0001
1000
0200
0000
0000
,
1300
0100
1000
0100
1000
0001
0100
0001
,
0100
0010
0100
0010
2000
0000
0000
0000
,
3001
0010
1000
0010
0001
1000
0010
0100
,
0001
0001
0001
0100
0010
0000
0000
0000
,
1000
0100
0001
0100
1000
0001
0010
0001
,
1000
1000
1000
0001
0100
0001
0101
0000
,
0001
0010
1000
0010
0001
1000
0100
1000
,
0001
0001
0001
1000
0100
0000
0000
0000
,
1000
0010
0001
0010
1000
0100
1000
0001
,
0100
0100
0100
0001
1000
0100
1100
0000
,
0001
0000
0100
0001
0100
0001
0100
0000
0001
0000
1000
0000
0100
0000
0010
0000
,
0001
1000
0001
0000
1000
0100
1000
0100
1000
0000
0001
0000
0100
0010
0100
0000
,
0001
0000
1000
0100
1000
0100
1000
0000
0001
0000
0100
0000
0010
0000
1000
0000
,
0200
0010
0000
0010
0000
0310
0000
0000
,
1000
0000
0001
0100
0001
0100
0000
0001
1000
0000
0100
0000
0010
0000
0001
1000
,
0000
0000
0100
0000
1000
0000
0010
0100
0000
0000
0001
0000
1000
0000
0100
1000
,
0000
0000
0001
0100
0001
0100
0000
0001
1000
0000
0100
0000
0010
0000
0001
1000
,
0010
0000
0000
0000
0010
0000
0000
0000
0010
0000
0100
0000
0001
1000
0000
0000
,
1001
0001
0001
0010
,
0100
0100
0100
1000
,
0001
0001
0001
0010
,
0100
0100
0100
1000
,
0002
0000
0203
0000
,
0320
0000
2030
0000
,
3020
0000
0230
0000
,
0302
0000
1003
0000
,
0001
1000
0001
0000
0010
0000
1000
0000
0010
0000
0001
0000
1000
0000
0010
0000
,
1000
1000
1000
0010
1000
0001
0011
0000
,
0100
1000
0100
0000
1000
0000
0001
0000
0010
0000
1000
0000
0010
0000
0001
0000
,
1000
1000
1000
0001
1000
0010
1010
0000
,
0100
0001
0100
0000
0001
0000
0100
0000
1000
0000
0100
0000
0001
0000
1000
0000
,
0010
0010
0010
1000
0001
0010
0011
0000
,
1000
0001
1000
0000
0100
0000
0001
0000
0100
0000
1000
0000
0001
0000
0010
0000
,
0100
0000
0100
0000
0100
0000
0010
0000
0001
0000
1000
0000
0010
1000
0000
0000
,
0000
1001
0000
1001
0000
1001
0000
1000
,
0001
0000
0001
0000
0001
0000
1000
0100
0000
0100
0000
0100
0010
0000
0100
0000
,
1000
0000
0001
0000
0100
0000
0100
0000
0001
0010
0100
0000
0010
0001
0010
0001
,
1000
0000
0100
0000
0010
0000
0010
0000
0100
0000
1000
0000
0001
0100
0001
0000
,
1000
0001
0010
1000
0010
0001
1000
0010
,
0100
0000
0001
1000
0001
1000
0001
0000
0010
0100
0010
0100
1000
0000
0001
0000
,
0100
0001
0000
1000
0000
0001
0100
0000
0010
1000
0010
1000
0100
1000
0100
0000
,
1000
0000
0100
0000
0001
0000
1000
0000
0010
0000
0001
0000
1000
0001
0000
0000
,
0200
0001
0000
0001
0000
0010
0000
0310
,
2000
0100
0000
0100
0000
0001
0000
3001
,
0000
2000
3000
2000
3000
2000
3000
2000
,
3000
0000
0000
0000
;

//---------------dance-double - ----------------
#NOTES:
     dance-double:
     :
     Easy:
     4:
     0.199,0.230,0.019,0.223,0.000:
10000000
00000000
10000000
00000000
,
00010000
00000000
00010000
00000000
,
10000000
00000000
10000000
00000000
,
00010000
00000000
00010000
00000000
,
00100000
00000000
00010000
00000000
,
00100000
00000000
00010000
00000000
,
00100000
00000000
00001000
00000000
,
00100000
00000000
00001000
00000000
,
00020000
00000000
00000000
00000000
,
00030020
00000000
00000000
00000000
,
00000230
00000000
00000000
00000000
,
00000302
00000000
00000003
00000000
,
00001000
00000100
00001000
00000000
,
00000002
00000000
00000003
00000000
,
00000100
00000010
00000100
00000000
,
00000002
00000000
00000003
00000000
,
00001000
00000010
00001000
00000000
,
00000002
00000000
00000003
00000000
,
00000010
00000100
00000010
00000000
,
00000002
00000000
00000003
00000000
,
00001000
00000100
00001000
00000000
,
00000100
00010000
00000100
00000000
,
00010000
00001000
00010000
00000000
,
00001000
00100000
00001000
00000000
,
01000000
00100000
01000000
00000000
,
00010000
10000000
00010000
00000000
,
10000000
01000000
10000000
00000000
,
00100000
01000000
00100000
00100000
,
02200000
00000000
00000000
00000000
,
00000000
00000000
00000000
00000000
,
00000000
00000000
00000000
00000000
,
00000000
00000000
00000000
03300000
,
20000000
00000000
30020000
00000000
,
20030000
00000000
30020000
00000000
,
20030000
00000000
30020000
00000000
,
20030000
00000000
30010000
00000000
,
10000000
00100000
10000000
00100000
,
02000000
00000000
03100000
00000000
,
10000000
00010000
10000000
00010000
,
00200000
00000000
00301000
00000000
,
00010000
00000100
00010000
00000100
,
00002000
00000000
00003001
00000000
,
00000100
00000010
00000100
00000010
,
00002000
00000000
00003001
00000000
,
00010000
00010000
00010000
00010000
,
00000001
00000010
00000001
00000000
,
00001000
00000100
00001000
00000000
,
00000001
00001000
00000001
00000000
,
00000010
00000100
00000010
00000100
,
00010000
00000010
00010000
00000000
,
00001000
00010000
00001000
00010000
,
01000000
00100000
01000000
00000000
,
10020000
00000000
00000000
00000000
,
20030000
00000000
00000000
00000000
,
32000000
00000000
00000000
00000000
,
03000000
00000000
00000000
00000000
;

//---------------dance-double - ----------------
#NOTES:
     dance-double:
     :
     Medium:
     6:
     0.345,0.382,0.316,0.214,0.000:
00001000
00010000
00001000
00010000
,
00001000
00010000
00001000
00010000
,
00001000
10000000
00001000
10000000
,
00001000
10000000
00001000
00000000
,
00010000
00001000
00010000
00001000
,
00010000
00001000
00010000
00000001
,
00010000
00000001
00010000
00000001
,
00001000
00001000
00001000
00001001
,
00000020
00000000
00000230
00000000
,
00000320
00000000
00002030
00000000
,
00003002
00000000
00020003
00000000
,
00032000
00000000
00013000
00000000
,
00011000
00011000
00011000
00001000
,
02000000
00000000
03000000
00000000
,
01100000
01100000
01100000
01000000
,
00002000
00000000
00003000
00000000
,
00011000
00011000
00011000
00010000
,
00000200
00000000
00000300
00000000
,
00000110
00000110
00000110
00000010
,
00020000
00000000
00030000
00000000
,
00001000
00010000
00001000
00000000
00010000
00000010
00010000
00000000
,
00001000
00010000
00001000
00000000
01000000
00100000
01000000
00000000
,
00001000
00100000
00001000
00000000
10000000
00010000
10000000
00000000
,
00001000
00010000
00000000
00010000
00000000
00010000
00000000
00000000
,
00000100
00010000
00000100
00000000
00010000
00001000
00010000
00000000
,
00000100
00000010
00000100
00000000
00001000
00000001
00001000
00000000
,
00000100
00001000
00000100
00000000
00010000
00001000
00010000
00000000
,
00001000
00001000
00011000
00000000
,
02200000
00000000
00000000
00000000
,
00000000
00000000
00000000
00000000
,
00000000
00000000
00000000
00000000
,
00000000
00000000
00000000
03300000
,
20000000
00000000
30020000
00000000
,
20030000
00000000
30020000
00000000
,
02030000
00000000
03002000
00000000
,
02003000
00000000
03002000
00003000
,
00011000
01001000
00011000
01001000
,
01000000
00001000
01000000
00001000
00010000
00000000
00000000
00000000
,
01001000
00011000
01001000
00011000
,
00001000
01000000
00001000
01000000
00100000
00000000
00000000
00000000
,
00011000
00010100
00011000
00010100
,
00000100
00010000
00000100
00010000
00001000
00000000
00000000
00000000
,
00011000
00101000
00011000
00101000
,
00100000
00001000
00100000
00001000
00010000
00000000
00000000
00000000
,
00000000
00011000
00000000
00011000
00000000
00011000
00000000
00010000
,
00000010
00000100
00000010
00000000
00001000
00000100
00001000
00000000
,
00000010
00010000
00000010
00000000
00010000
00001000
00010000
00000000
,
00000100
00001000
00000100
00000000
00010000
00001000
00010000
00000000
,
00001000
01000000
00001000
01000000
00001000
00100000
01000000
00000000
,
10000000
01000000
10000000
01000000
10000000
00010000
00100000
00000000
,
00001000
00010000
00001000
00010000
00000100
00001000
00000010
00000000
,
00001000
00000001
00001000
00000001
00001000
00000100
00000010
00000000
,
00000002
00000000
00000000
00000000
,
00000203
00000000
00000000
00000000
00000000
00000000
00000000
00000300
,
00000000
00000010
00000000
00000010
00000000
00000010
00000000
00000010
;

//---------------dance-double - ----------------
#NOTES:
     dance-double:
     :
     Hard:
     9:
     0.471,0.434,0.232,0.362,0.000:
00001000
00010000
00001000
00000000
01000000
00010000
01000000
00000000
,
00001000
00010000
00001000
00000000
00100000
00010000
00100000
00000000
,
00001000
00010000
00001000
00000000
00010000
00000100
00010000
00000000
,
00000100
00000010
00000100
00000000
00010000
00011000
00000000
00000000
,
00001000
01000000
00001000
01000000
00001000
01000000
00100000
00000000
,
01000000
00001000
01000000
00001000
01000000
00001000
00010000
00000000
,
00001000
00010000
00001000
00010000
00000100
00000010
00000100
00000000
,
00001000
00000010
00001000
00000010
00010000
00001000
00010000
00000000
,
00002000
02003000
03200000
20300000
,
30200000
02300000
03002000
00013000
,
00000200
00000320
00000032
00000023
,
00000230
00020300
00032000
00000000
,
00013000
00000001
00000010
00000100
00001000
00000010
00000000
00010000
,
00000200
00000000
00000000
00010300
00000000
00000000
00000000
00000000
,
00001000
10000000
01000000
00100000
00010000
10000000
00000000
00001000
,
02000000
00000000
00000000
03001000
00000000
00010000
00011000
00000000
,
00000100
00001000
00000010
00000100
00000001
00000010
00000000
00000001
,
00020000
00000000
00000000
00030100
00000000
00000000
00000000
00000000
,
10000000
01000000
10000000
00100000
01000000
00010000
00000000
01000000
,
00002000
00000000
00000000
00013000
00000000
00001000
00011000
00000000
,
00010000
00000100
00010000
00000100
00001000
00000001
00001000
00000001
,
00000010
00000001
00000010
00000001
00010000
00001000
00010000
00001000
,
00100000
01000000
00100000
01000000
10000000
00100000
10000000
00100000
,
01000000
00001000
00000000
00001000
00000000
00001000
00000000
00000000
,
00010000
00000010
00010000
00000010
00001000
00000001
00001000
00000001
,
00010000
00001000
00010000
00001000
01000000
00100000
01000000
00100000
,
10000000
00010000
10000000
00010000
00100000
00001000
00100000
00001000
,
00010000
00010000
00010000
00011000
,
00000120
00000000
00000230
00000000
,
00000320
00000000
00000230
00000000
,
00000320
00000000
00000230
00000000
,
00000320
00000000
00000230
00000000
,
00000302
00000000
00000023
00000000
,
00000230
00000000
00002300
00000000
,
00023000
00000000
00230000
00000000
,
02300000
00000000
13000000
00000000
,
10010000
01010000
10010000
01010000
,
00100000
01000000
00001000
00010000
00000010
00000100
00000010
00000000
,
00001001
00001010
00001001
00001010
,
00000010
00000100
00010000
00001000
00100000
01000000
10000000
00000000
,
10010000
00110000
10010000
00110000
,
01000000
10000000
00100000
01000000
00001000
00010000
00000010
00000000
,
00001001
00001100
00001001
00001100
,
00000010
00000001
00000100
00000010
00010000
00001000
00010000
00000000
,
00000000
00011000
00000000
00011000
00000000
00011000
00000000
00001000
,
00010000
00010000
00010000
00000001
00000100
00001000
00000100
00000001
,
00001000
00001000
00000100
00000100
00010000
00001000
01000000
00001000
,
10000000
10000000
00010000
00010000
00100000
01000000
10000000
00001000
,
00001000
01000000
00100000
01000000
00001000
00100000
10000000
00100000
,
00001000
00010000
00000100
00000010
00000001
00000001
00000001
00000010
,
00000001
00000100
00001000
00000100
00000001
00000010
00000100
00010000
,
00001000
01000000
00100000
01000000
00010000
01000000
00100000
00000000
,
20010000
00000000
00000000
00000000
00000000
01000000
00000000
31000000
,
00200000
00000000
00000000
00000000
00000000
00010000
00000000
00310000
,
00000000
00002000
00003000
00002000
00003000
00002000
00003000
00002000
,
00003000
00000000
00000000
00000000
;

//---------------dance-double - ----------------
#NOTES:
     dance-double:
     :
     Challenge:
     11:
     0.562,0.588,0.149,0.204,0.214:
00000001
00000011
00000010
00000110
,
00010000
00011000
00001000
01001000
,
10000000
10010000
00010000
00110000
,
00001000
00000000
00000000
00000000
00011000
00000000
00000000
00000000
00002000
00000000
00010000
00000000
00000000
00013000
00000000
00000000
,
00000001
00000100
00001000
00000100
00001000
00000100
00000001
00010000
,
00000100
00001000
00000100
00001000
00000100
00010000
00001000
10000000
,
00001000
01000000
10000000
01000000
10000000
01000000
00001000
00100000
,
01000000
00000000
00000000
01000000
10000000
00000000
00000000
10000000
00020000
00000000
10000000
00000000
00000000
10030000
00000000
00000000
,
00001000
00100000
00001000
00100000
00001000
00100000
00001000
00010000
,
00000010
00000100
00000010
00000100
00000010
00002000
00000000
00000000
,
00003100
00001000
00000100
00001000
00000100
00010000
00001000
00100000
,
01000000
00100000
01000000
00100000
00020000
00000000
00000000
00000000
,
10030000
01000000
00010000
01000000
10000000
00100000
01000000
00001000
,
00010000
00010000
00010000
00001000
00010000
00000000
00000000
00000000
,
00000001
00000100
00001000
00000100
00000001
00000010
00000100
00010000
,
00001000
00001000
00001000
00010000
00001000
01000000
01100000
00000000
,
10000000
00100000
00010000
00100000
10000000
01000000
00100000
00001000
,
00010000
00010000
00010000
00001000
00010000
00000000
00000000
00000000
,
00000001
00000010
00001000
00000010
00000001
00000100
00000010
00010000
,
00001000
00001000
00001000
00010000
00001000
01000000
01100000
00000000
,
10000000
00000000
00010000
01000000
00010000
01000000
00010000
00000000
10000000
00000000
00001000
00000000
00100000
00000000
01000000
00000000
,
10000000
00001000
10000000
00000000
00001000
00010000
00001000
00010000
00001000
00000000
00010000
00000000
00000010
00001000
00000010
00000000
,
00010000
00000000
00000100
00000010
00000100
00000010
00000100
00000000
00010000
00000000
00000010
00000000
00000100
00000000
00000001
00000000
,
00020000
00001000
00000000
00001000
00000000
00031000
00000000
00000000
,
00010000
00000000
00000010
00001000
00000010
00001000
00000000
00000000
00000001
00000000
00000010
00000000
00000100
00000000
00001000
00000001
,
00000000
00000000
00000100
00000000
00000001
00000000
00010000
00001000
00000000
00000000
00010000
00000000
00001000
00000000
00100000
01000000
,
00000000
00000000
10000000
00100000
10000000
00100000
00000000
10000000
00010000
00000000
00100000
00000000
01000000
00000000
10000000
00010000
,
00000000
00000000
01000000
00000000
00001000
00000000
00010000
00001000
00000000
00000000
00010000
00000000
00000010
00000100
00000000
00000000
,
00001002
00001000
00001000
00001003
,
00000200
00010000
00010000
00010300
,
00002000
01000000
01000000
01003000
,
00200000
01000000
01000000
01300000
,
00020000
01000000
02030000
00100000
,
03002000
00010000
00023000
00000010
,
00030020
00000100
00000230
00000001
,
00000302
00001000
00001003
00000000
,
00000001
00001000
00000001
00000000
00000100
00000000
00001000
00000000
00000100
00000000
00000001
00000000
00010000
00000000
00001000
00000000
,
01000000
01000000
01000000
00100000
10000000
00010000
10010000
00000000
,
10000000
00010000
10000000
00000000
00100000
00000000
00010000
00000000
00100000
00000000
10000000
00000000
00001000
00000000
00010000
00000000
,
00000010
00000010
00000010
00000100
00000001
00001000
00001001
00000000
,
00000001
00001000
00000001
00000000
00000010
00000000
00000100
00000000
00000001
00000000
00000100
00000000
00001000
00000000
00000001
00000000
,
00010000
00010000
00010000
00001000
01000000
00100000
01100000
00000000
,
10000000
00010000
10000000
00000000
00100000
00000000
01000000
00000000
10000000
00000000
01000000
00000000
00010000
00000000
10000000
00000000
,
00001000
00000000
00001000
00000000
00001000
00000000
00010000
00000000
00000010
00000000
00000100
00000000
00000010
00010000
00000000
00000000
,
00000000
00011000
00000000
00011000
00000000
00011000
00000000
00001000
,
01000000
00000000
01000000
00000000
01000000
00000000
00010000
10000000
00000000
10000000
00000000
10000000
00010000
00000000
00100000
00000000
,
00001000
00000000
00010000
00000000
00000100
00000000
00000100
00000000
00001000
00000010
00000100
00000000
00000001
00001000
00000001
00001000
,
00000100
00000000
00010000
00000000
00001000
00000000
00001000
00000000
00100000
00000000
01000000
00000000
10000000
00010000
10000000
00000000
,
00010000
10000000
01000000
00010000
01000000
10000000
00001000
00100000
,
00001000
00000000
00010000
00001000
00010000
00001000
00010000
00000000
00000010
00000100
00000010
00000100
00000001
00000000
00010000
00000000
,
00000010
00000100
00000000
00000001
00000000
00000100
00000010
00000000
00010000
00001000
00010000
00001000
01000000
00100000
01000000
00000000
,
00010000
00000000
01000000
00000000
10000000
00000000
00010000
00000000
00100000
00000000
10000000
00000000
00001000
01000000
00000000
00000000
,
00002000
01000000
00000000
01000000
00000000
00010000
00000000
00013000
,
00000020
00000100
00000000
00000100
00000000
00001000
00000000
00001030
,
00000000
00000002
00000003
00000002
00000003
00000002
00000003
00000002
,
00000003
00000000
00000000
00000000
;

//---------------dance-single - ----------------
#NOTES:
     dance-single:
     :
     Beginner:
     1:
     0.073,0.121,0.074,0.000,0.000: // measure 1
0001
0000
0000
0000
,  // measure 2
0000
0000
0000
0000
,  // measure 3
0001
0000
0000
0000
,  // measure 4
0000
0000
0000
0000
,  // measure 5
1000
0000
0000
0000
,  // measure 6
1000
0000
0000
0000
,  // measure 7
1000
0000
0000
0000
,  // measure 8
1000
0000
0000
0000
,  // measure 9
0110
0000
0000
0000
,  // measure 10
0000
0000
0000
0000
,  // measure 11
0010
0000
0000
0000
,  // measure 12
0000
0000
0000
0000
,  // measure 13
0110
0000
0000
0000
,  // measure 14
0100
0000
0000
0000
,  // measure 15
0010
0000
0000
0000
,  // measure 16
0100
0000
0000
0000
,  // measure 17
0001
0000
0000
0000
,  // measure 18
0010
0000
0000
0000
,  // measure 19
0001
0000
0000
0000
,  // measure 20
0010
0000
0000
0000
,  // measure 21
1001
0000
0000
0000
,  // measure 22
1000
0000
0000
0000
,  // measure 23
1000
0000
0000
0000
,  // measure 24
1000
0000
0000
0000
,  // measure 25
1001
0000
0000
0000
,  // measure 26
0001
0000
0000
0000
,  // measure 27
0001
0000
0000
0000
,  // measure 28
0001
0000
0000
0000
,  // measure 29
0110
0000
0000
0000
,  // measure 30
0000
0000
0000
0000
,  // measure 31
0000
0000
0000
0000
,  // measure 32
0000
0000
0000
0000
,  // measure 33
0100
0000
0000
0000
,  // measure 34
0100
0000
0000
0000
,  // measure 35
0100
0000
0000
0000
,  // measure 36
0100
0000
0000
0000
,  // measure 37
1001
0000
0000
0000
,  // measure 38
0001
0000
0000
0000
,  // measure 39
0010
0000
0000
0000
,  // measure 40
0100
0000
0000
0000
,  // measure 41
1000
0000
0000
0000
,  // measure 42
0001
0000
0000
0000
,  // measure 43
1000
0000
0000
0000
,  // measure 44
0100
0000
0000
0000
,  // measure 45
0110
0000
0000
0000
,  // measure 46
0001
0000
0000
0000
,  // measure 47
0010
0000
0000
0000
,  // measure 48
0100
0000
0000
0000
,  // measure 49
0010
0000
0000
0000
,  // measure 50
0001
0000
0000
0000
,  // measure 51
1000
0000
0010
0000
,  // measure 52
1000
0000
0000
0000
,  // measure 53
1001
0000
0000
0000
;
