#TITLE:Symmetry;
#SUBTITLE:;
#ARTIST:猫叉Master;
#TITLETRANSLIT:;
#SUBTITLETRANSLIT:;
#ARTISTTRANSLIT:Nekomata Master;
#CREDIT:DigiMindAxel;
#BANNER:Symmetry.png;
#BACKGROUND:Symmetry-bg.png;
#LYRICSPATH:;
#CDTITLE:beatmania IIDX.png;
#MUSIC:Symmetry.ogg;
#METERTYPE:DDR X;
#OFFSET:-12.855;
#SAMPLESTART:38.989;
#SAMPLELENGTH:12.000;
#SELECTABLE:YES;
#BPMS:0.000=163.000,248.000=81.500;
#STOPS:;
#BGCHANGES:;

//---------------dance-single - ----------------
#NOTES:
     dance-single:
     :
     Easy:
     6:
     0.241,0.267,0.063,0.222,0.000: // measure 1
2000
0000
0000
0000
,  // measure 2
3002
0000
0000
0000
,  // measure 3
2003
0000
0000
0000
,  // measure 4
3002
0000
0000
0000
,  // measure 5
2003
0000
0000
0000
,  // measure 6
3200
0000
0000
0000
,  // measure 7
0320
0000
0000
0000
,  // measure 8
0032
0000
0000
0000
,  // measure 9
1003
1000
1000
1000
,  // measure 10
0001
0001
0001
0001
,  // measure 11
1000
1000
1000
1000
,  // measure 12
0001
0001
0001
0000
,  // measure 13
0010
0010
0010
0010
,  // measure 14
0100
0100
0100
0100
,  // measure 15
1000
1000
1000
1000
,  // measure 16
0001
0001
0001
0001
,  // measure 17
1001
0000
0000
0000
,  // measure 18
0000
0000
0000
0000
,  // measure 19
0110
0000
0100
0000
,  // measure 20
0010
0000
1000
0001
,  // measure 21
0010
0000
0100
0000
,  // measure 22
1000
0001
1000
0000
,  // measure 23
0010
0000
0100
0000
,  // measure 24
0001
0010
0100
0000
,  // measure 25
0010
0000
0001
0000
,  // measure 26
1000
0010
0100
0000
,  // measure 27
0001
1000
0001
0000
,  // measure 28
1000
0100
0010
0000
,  // measure 29
0001
1000
0001
0000
,  // measure 30
0010
0100
1000
0000
,  // measure 31
0010
0100
0010
0000
,  // measure 32
0100
0001
0010
0000
,  // measure 33
0001
1000
0001
0000
,  // measure 34
0010
0001
0010
0100
,  // measure 35
2000
0000
3001
2002
,  // measure 36
0000
0000
0000
3003
,  // measure 37
0020
0000
0130
0220
,  // measure 38
0000
0000
0000
0330
,  // measure 39
0002
0000
1003
2002
,  // measure 40
0000
0000
0000
3003
,  // measure 41
0200
0000
0000
0320
,  // measure 42
0000
0000
1030
0001
,  // measure 43
1001
0000
0000
0000
,  // measure 44
1000
0000
1000
0000
,  // measure 45
1001
0000
0001
0000
,  // measure 46
0001
0000
1001
0000
,  // measure 47
0010
0100
0010
0100
,  // measure 48
0001
0100
0001
1000
,  // measure 49
0100
1000
0100
1000
,  // measure 50
0001
1000
0001
1000
,  // measure 51
0001
0100
0001
0010
,  // measure 52
0100
0010
0100
0010
,  // measure 53
0100
1000
0100
1000
,  // measure 54
0001
1000
0001
0000
,  // measure 55
0100
0001
0100
0001
,  // measure 56
0010
0001
0010
0001
,  // measure 57
1000
0001
1000
0100
,  // measure 58
1000
0100
1000
0010
,  // measure 59
0100
0001
0100
0001
,  // measure 60
1000
0001
1000
0001
,  // measure 61
1000
0100
1000
0100
,  // measure 62
1000
0001
0010
0100
,  // measure 63
2000
0000
3002
0000
,  // measure 64
0023
0000
0230
0000
,  // measure 65
2300
0000
3020
0000
,  // measure 66
0230
0000
0302
0000
,  // measure 67
2003
0000
0000
0000
,  // measure 68
0000
0000
3000
0000
;

//---------------dance-single - ----------------
#NOTES:
     dance-single:
     :
     Medium:
     9:
     0.362,0.374,0.135,0.261,0.000:
2000
0000
0000
0000
,
3200
0000
0000
0000
,
0320
0000
0000
0000
,
0032
0000
0000
0000
,
2003
0000
0000
0000
,
3002
0000
0000
0000
,
0203
0000
0000
0000
,
0320
0000
0000
0000
,
1030
0001
1000
0000
1000
0001
1000
0000
,
1000
0100
1000
0000
1000
0100
1000
0000
,
0001
1000
0001
0000
0001
1000
0001
0000
,
0001
0100
0001
0000
0002
0000
0000
0000
,
0013
0100
0010
0000
0010
0100
0010
0000
,
0001
0100
0001
0000
0001
0100
0001
0000
,
1000
0001
1000
0000
1000
0001
1000
0000
,
0100
1000
0100
0000
0100
1000
0100
0000
,
1200
0000
0000
0000
,
0320
0000
0000
0030
,
0001
0100
0010
0000
0100
0001
0010
0100
,
0000
1000
0001
1000
0000
0010
0100
0001
,
1000
0000
0100
0000
0010
0001
0100
0001
,
0000
0010
0100
1000
0001
0000
0100
0000
,
0110
0000
0010
0000
1000
0001
0010
0001
,
0000
0010
0100
1000
0000
0010
0100
0001
,
1000
0000
0100
0000
1000
0001
0000
0100
,
0000
0010
0000
1000
0001
0000
0001
0000
,
1001
0000
1000
0000
0010
1000
0100
0010
,
0000
0001
1000
0001
0000
0100
0010
1000
,
0100
0000
0010
0000
0100
1000
0010
1000
,
0000
0100
0010
0001
1000
0000
1000
0000
,
1001
0000
0001
0000
1000
0100
0010
0100
,
0000
1000
0010
0100
0000
0001
0100
0001
,
1000
0000
0100
0000
1000
0001
0000
0010
,
0000
0100
0000
1000
0000
0010
0000
0000
,
0102
0000
0000
0000
0103
0001
1000
0000
,
0000
1000
0000
0000
1000
0000
0001
0000
,
0021
0000
0000
0000
0031
0010
0100
0000
,
0000
0100
0000
0000
0100
0000
1000
0000
,
0120
0000
0000
0000
0130
0001
1000
0000
,
0000
1000
0000
0000
1000
0000
0001
0000
,
0010
0000
0000
0010
0000
0000
0100
0000
,
0000
0100
0000
0000
1000
0000
0001
0000
,
0022
0000
0000
0030
,
2000
0000
0000
3003
,
1020
0000
0230
0000
,
0302
0000
0000
0000
1003
0000
0001
1000
,
0100
0000
0001
0000
0100
1000
0001
0000
,
0010
0100
2000
3200
,
0302
0000
0103
1000
0010
0100
0001
0000
,
0010
0100
1000
0001
,
1001
0000
1000
0000
0010
0001
0010
0000
,
1000
0000
0100
1000
0001
0100
0001
0000
,
1000
0000
0001
0010
1000
0010
0001
0000
,
0010
0100
0010
0001
,
1001
0000
1000
0000
0100
0001
0100
0000
,
1000
0000
0010
0000
0100
0001
1000
0100
,
1000
0000
0001
0010
1000
0010
0001
0000
,
1000
0100
0001
0100
,
1001
0001
1001
1000
,
1001
0001
1001
1000
,
0100
0010
0001
0000
0001
1000
0010
0000
,
0010
1000
0100
0000
0100
0010
0001
1000
,
0020
0000
0230
0000
,
0302
0000
0000
0000
2003
0000
0000
3000
,
0210
0000
0320
0000
,
0230
0000
0000
0000
0302
0000
0000
0003
,
2002
0000
0000
0000
,
0000
0000
3003
0000
;

//---------------dance-single - ----------------
#NOTES:
     dance-single:
     :
     Hard:
     12:
     0.546,0.535,0.269,0.372,0.210:
2001
0000
0100
0000
,
3002
0000
0000
2003
0000
0000
3000
0000
,
0200
0000
0000
0320
0000
0000
0030
0000
,
0002
0000
0000
2003
0000
0000
3000
0000
,
1002
0000
0010
0000
,
2003
0000
0000
3002
0000
0000
0003
0000
,
0020
0000
0000
0230
0000
0000
0300
0000
,
2000
0000
0000
3002
0000
0000
1003
0000
,
0001
0000
0000
0100
0001
0000
0000
0100
0001
0000
0000
0100
0001
0000
0000
0100
,
0001
0000
0000
0010
0100
0000
0000
0010
0100
0000
0000
0010
0100
0000
0000
0010
,
0100
0000
0000
1000
0001
0000
0000
1000
0001
0000
0000
1000
0001
0000
0000
1000
,
0001
0000
0000
1000
0100
0000
0000
1000
0100
0000
0000
0000
1100
0000
0000
0000
,
1001
0000
0000
0001
0010
0000
0000
0001
0010
0000
0000
0001
0010
0000
0000
0001
,
0010
0000
0000
0001
1000
0000
0000
0001
1000
0000
0000
0001
1000
0000
0000
0001
,
1000
0000
0000
0010
1000
0000
0000
0010
1000
0000
0000
0010
1000
0000
0000
0010
,
1000
0000
0000
0100
0010
0000
0000
0100
0010
0000
0000
0100
0010
0000
0000
0000
,
0011
0000
0100
1000
0001
0100
0001
0000
,
0200
0010
0010
0310
,
1000
0100
1000
0100
1000
0001
0010
1000
,
0000
0010
0001
1000
0010
1000
0001
0010
,
0100
1000
0100
1000
0001
1000
0100
0001
,
0000
0100
1000
0001
0100
0010
0100
0000
,
0001
1000
0001
1000
0001
1000
0010
0001
,
0000
0010
1000
0001
0010
0100
0010
0001
,
1000
0010
1000
0010
1000
0001
0010
0100
,
1000
0100
0010
0001
1000
0000
1001
0000
,
1001
0001
0100
0001
0100
0001
0010
1000
,
0000
0010
0001
1000
0010
0100
0010
1000
,
0100
0010
0100
0010
0100
1000
0010
0001
,
0000
0010
1000
0001
0010
0100
0010
0001
,
1001
1000
0100
1000
0100
1000
0010
0001
,
0000
0010
1000
0001
0100
0010
0100
0001
,
1000
0100
1000
0100
1000
0010
0100
0001
,
0100
0010
1000
0001
0100
0000
0101
0000
,
2001
0000
0000
0000
0100
0000
0000
0000
3001
0000
1000
0000
0100
0000
0000
0100
,
0000
0000
0010
0000
0000
0010
0000
0000
0011
0000
0000
0000
0110
0000
0000
0000
,
0102
0000
0000
0000
1000
0000
0000
0000
0103
0000
1000
0000
0001
0000
0000
0001
,
0000
0000
0100
0000
0000
0100
0000
0000
1010
0000
0000
0000
0110
0000
0000
0000
,
1001
0000
0000
1000
0001
0000
0000
0001
1000
0000
0100
0000
0010
0000
0000
0010
,
0000
0000
0100
0000
0000
0100
0000
0000
1100
0000
0000
0000
0101
0000
0000
0000
,
0001
0000
0000
0001
0000
0000
0001
0000
0000
0100
0000
0000
0110
0000
0000
0110
,
0000
0000
1010
0000
0000
1000
0000
0000
0100
0000
0000
0010
0000
0000
0001
0000
,
0201
0320
2030
3002
,
0203
0320
2030
3002
,
2003
3200
0302
0203
,
2300
0000
0000
0000
3002
0000
0000
0000
0103
0000
0000
0000
0001
1000
0001
1000
,
0001
0000
0010
0000
0001
0000
0010
0000
0001
1000
0010
0000
1000
0000
0001
0000
,
0010
0100
0010
0100
1000
0010
0001
0010
,
1000
0001
1000
0001
0100
1000
0100
0001
,
0010
0100
0010
0100
0010
0001
1000
0010
,
0110
0000
0100
0001
1000
0100
0001
0100
,
1000
0001
1000
0010
0001
0010
1000
0100
,
0010
0100
0010
0001
0100
1000
0100
0001
,
0010
0100
0010
0100
1000
0010
0100
0000
,
0110
0000
0100
1000
0001
0010
1000
0010
,
0001
1000
0001
1000
0001
0100
1000
0100
,
0001
1000
0001
1000
0010
0001
0010
1000
,
0100
0010
0100
0010
0001
1000
0010
0100
,
0101
0101
1001
1001
,
1100
1100
0101
0101
,
1001
1000
0010
0100
0001
0100
1000
0100
,
0001
0000
0010
0000
0100
0000
1000
0000
0001
0100
0001
0000
1000
0010
1000
0000
,
0002
0000
0000
0000
0000
0000
0003
0000
0200
0000
0000
0002
0000
0000
0303
0000
,
0020
0000
0000
0200
0000
0000
0330
0000
2000
0000
0000
0020
0000
0000
3030
0000
,
0200
0000
0000
0000
0000
0000
0300
0000
0002
0000
0000
2000
0000
0000
3003
0000
,
0200
0000
0000
2000
0000
0000
3300
0000
0002
0000
0000
0200
0000
0000
0303
0000
,
0220
0000
0000
0000
,
0000
0000
0330
0000
;

//---------------dance-single - ----------------
#NOTES:
     dance-single:
     :
     Challenge:
     16:
     0.789,0.748,0.293,0.135,0.875:
1001
1000
0100
1000
,
0010
0000
0100
0001
0010
0000
0001
0000
,
0010
0000
0100
1000
0001
0000
0100
0000
,
0001
0000
0000
0000
0010
0000
0100
0000
1000
0000
0000
0000
0001
0100
0001
0000
,
1000
0100
1000
0001
,
0010
0000
0100
0010
0001
0000
1000
0000
,
0010
0000
0100
0010
1000
0001
1000
0001
,
0100
0001
0100
0001
0100
0001
0100
0001
0100
0001
1000
0100
1000
0000
0001
0000
,
1001
0000
1000
0010
1000
0000
0001
1000
0001
0000
1000
0010
1000
0000
0001
1000
,
0001
0000
0010
0001
0010
0000
0100
0010
0100
0000
0010
0001
0010
0000
0100
0010
,
0100
0000
1000
0001
1000
0000
0001
0010
0001
0000
1000
0001
1000
0000
0001
0010
,
0001
0000
0100
0010
0100
0000
0001
1000
0001
0000
0010
0100
1000
0100
0010
0000
,
1001
0000
0001
0100
0001
0000
1000
0100
1000
0000
0001
0100
0001
0000
1000
0100
,
1000
0000
0010
0100
0010
0000
1000
0001
1000
0000
0010
0100
0010
0000
1000
0001
,
1000
0000
0100
1000
0100
0000
0010
0100
0010
0000
0001
0010
0001
0000
0100
0010
,
0100
0000
0001
0100
0001
0000
0100
0010
0100
0000
0001
0100
0001
0000
1000
0001
,
1000
0100
0010
0001
1000
0100
0010
0001
,
1000
0000
1000
0000
0001
0000
0001
0000
1000
0000
0001
0000
1000
0100
0010
0001
,
1000
0000
0000
1000
0001
0000
0000
0001
0100
0000
0001
1000
0001
0000
0100
0000
,
0010
0000
1000
0001
1000
0000
0010
0000
0100
0000
0001
1000
0001
1000
0001
0000
,
0010
0000
0000
0010
0100
0000
0000
0100
1000
0000
0001
1000
0001
0000
0010
0000
,
0100
0000
1000
0010
1000
0000
0001
0000
0010
0100
0010
0100
0010
0000
0001
0000
,
1001
0000
0000
0001
0100
0000
0000
0100
0010
0000
1000
0010
1000
0000
0100
0000
,
0010
0000
0001
1000
0001
0000
1000
0000
0100
0000
0010
0100
0010
0100
0010
0000
,
0001
0000
0000
0001
1000
0000
0000
1000
0100
0000
0000
0100
0001
0000
0000
0001
,
0100
0000
0000
0100
1000
0000
0000
1000
0001
0000
0100
0001
0010
0100
1000
0001
,
0100
0000
0000
0001
1000
0000
0000
1000
0100
0000
1000
0100
1000
0000
0010
0000
,
0100
0000
0001
1000
0001
0000
0010
0000
0100
0000
0010
0001
0010
0001
1000
0000
,
0010
0000
0000
0010
0100
0000
0000
0100
0001
0000
1000
0100
1000
0000
0010
0000
,
0100
0000
0001
1000
0001
0000
1000
0000
0100
0010
0001
0010
0100
0000
1000
0000
,
1001
0000
0000
0001
0010
0000
0000
0010
0100
0000
1000
0010
1000
0000
0001
0000
,
0010
0000
0100
1000
0100
0000
1000
0000
0010
0000
0100
0001
0010
0001
0100
0000
,
0001
0000
0000
0001
1000
0000
0000
1000
0001
0000
0000
0001
0100
0000
0000
0100
,
1000
0000
0000
1000
0100
0000
0000
0100
0001
0000
0000
0000
1001
0000
0000
0000
,
1010
0000
0010
0000
0100
0000
0001
0000
0100
0000
1000
0000
1100
0000
0000
1001
,
0000
0000
1100
0000
0000
1001
0000
0000
1000
0100
1000
0000
0001
1000
0001
0000
,
0010
0000
0100
0000
0010
0000
0001
0000
0100
0000
1000
0000
0101
0000
0000
1001
,
0000
0000
0101
0000
0000
1001
0000
0000
0001
0100
0001
0000
1000
0001
1000
0000
,
1001
0000
0000
0001
0100
0000
0000
0100
0001
0000
1000
0000
1100
0000
0000
0110
,
0000
0000
1100
0000
0000
0110
0000
0000
1000
0001
1000
0000
0001
0010
0001
0000
,
1001
0000
0000
1010
0000
0000
1001
0000
0000
0101
0000
0000
0100
0001
0100
0001
,
1000
0100
1000
0100
1000
0001
1000
0001
1000
0000
0000
1001
0000
0000
0110
0000
,
0100
0001
0010
0100
1000
0001
0010
0100
1000
0001
0010
1000
,
0010
0001
0100
1000
0100
0001
1000
0010
0001
0010
1000
0001
,
1000
0100
0001
1000
0010
0001
1000
0100
0001
1000
0010
0001
,
1000
0000
0000
0000
0001
0000
0000
0000
0010
0000
0000
0000
0100
0000
0000
0000
1000
0000
0000
0000
0001
0000
0000
0000
0010
0000
0000
0000
0000
0000
0000
0000
0000
0000
0000
0000
0001
0000
0000
1000
0000
0000
0010
0000
0000
0100
0000
0000
,
0001
0000
1000
0001
1000
0000
0100
1000
0001
0010
0100
1000
0001
0000
1000
0100
,
1000
0000
0001
1000
0001
0000
1000
0100
1000
0000
0100
0010
0100
0000
0010
0001
,
0010
0000
0001
1000
0001
0000
0100
0001
1000
0100
0010
0001
1000
0000
0001
0100
,
0001
0000
1000
0001
1000
0000
0001
0100
0001
0000
1000
0001
1000
0000
0000
0000
,
1001
0000
0001
0010
0001
0000
0010
0001
1000
0010
0100
0001
1000
0000
0100
1000
,
0100
0000
1000
0001
1000
0000
0001
0010
0100
0000
1000
0001
0100
0000
0010
0100
,
0010
0000
1000
0010
1000
0000
0100
0010
0001
0010
0100
1000
0010
0000
0100
0001
,
0100
0000
0001
1000
0001
0000
1000
0010
1000
0000
0001
1000
0001
0000
0000
0000
,
1001
0000
1000
0010
1000
0000
0001
0010
0001
1000
0100
0010
0001
0000
0100
0001
,
0100
0000
0001
1000
0001
0000
1000
0010
0100
0000
0001
1000
0001
0000
1000
0100
,
0010
0000
0001
0100
0001
0000
1000
0100
1000
0001
0100
0010
1000
0000
0001
1000
,
0001
0000
0010
0001
0010
0000
0001
1000
0001
0000
0010
0100
1000
0000
0010
0000
,
0110
0000
0100
0001
0100
0000
0001
1000
0001
0000
0100
0001
0100
0000
0001
1000
,
0001
0000
1000
0100
1000
0000
0001
1000
0001
0000
1000
0100
1000
0000
0001
1000
,
0001
0000
0010
0000
0100
0000
1000
0001
1000
0010
0100
0010
1000
0000
0001
0000
,
0100
0001
0100
0001
1000
0100
1000
0100
1000
0001
0010
0100
1000
0010
0100
0001
,
0200
0000
0000
0000
0000
0000
0300
0000
2001
0000
0000
3002
0000
0000
0003
0000
,
1200
0000
0000
2300
0000
0000
3000
0000
0021
0000
0000
0032
0000
0000
0003
0000
,
0220
0000
0000
0000
0000
0000
0330
0000
1020
0000
0000
0230
0000
0000
0300
0000
,
0201
0000
0000
0320
0000
0000
0030
0000
1002
0000
0000
0023
0000
0000
0030
0000
,
0220
0000
0000
0000
,
0000
0000
0330
0000
;

//---------------dance-double - ----------------
#NOTES:
     dance-double:
     :
     Easy:
     7:
     0.244,0.267,0.079,0.222,0.000:
20000000
00000000
00000000
00000000
,
30200000
00000000
00000000
00000000
,
02300000
00000000
00000000
00000000
,
03200000
00000000
00000000
00000000
,
20300000
00000000
00000000
00000000
,
30002000
00000000
00000000
00000000
,
00203000
00000000
00000000
00000000
,
00302000
00000000
00000000
00000000
,
00013000
00010000
00010000
00010000
,
00000100
00000100
00000100
00000100
,
00000010
00000010
00000010
00000010
,
00000001
00000001
00000001
00000001
,
00000100
00000100
00000100
00000100
,
00000010
00000010
00000010
00000010
,
00010000
00010000
00010000
00010000
,
00001000
00001000
00001000
00001000
,
00011000
00000000
00000000
00000000
,
00000000
00000000
00000000
00000000
,
00011000
00000000
00001000
00000000
,
00010000
00000000
00100000
01000000
,
10000000
00000000
00100000
00000000
,
01000000
00100000
01000000
00000000
,
00001000
00000000
00010000
00000000
,
00000100
00000010
00000100
00000000
,
00001000
00000000
00000001
00000000
,
00010000
00000010
00010000
00000000
,
00001000
00010000
00001000
00000000
,
00100000
01000000
10000000
00000000
,
00100000
01000000
00010000
00000000
,
01000000
00001000
01000000
00000000
,
00001000
00010000
00001000
00000000
,
00010000
00000100
00000010
00000000
,
00000001
00000100
00000010
00000000
,
00001000
00000100
00010000
00001000
,
00020000
00000000
00031000
00022000
,
00000000
00000000
00000000
00033000
,
02000000
00000000
03100000
02200000
,
00000000
00000000
00000000
03300000
,
00002000
00000000
00013000
00022000
,
00000000
00000000
00000000
00033000
,
00000200
00000000
00000000
00000320
,
00000000
00000000
00000031
00001000
,
00000001
00000000
00000000
00000000
,
00010000
00000000
00010000
00000000
,
00011000
00000000
00010000
00000000
,
00001000
00000000
00011000
00000000
,
00100000
01000000
00100000
01000000
,
10000000
00100000
10000000
00100000
,
01000000
00001000
01000000
00001000
,
00010000
00001000
00010000
00001000
,
00010000
00000100
00010000
00000100
,
00001000
00000001
00001000
00000001
,
00000010
00000100
00000010
00000100
,
00010000
00001000
00010000
00000000
,
10010000
00100000
01000000
10000000
,
00010000
01000000
00010000
01000000
,
00100000
01001000
00010000
00000100
,
00010000
00000100
00010000
00000100
,
00000010
00000001
00000010
00000001
,
00000100
00000010
00010000
00001000
,
01000000
00100000
01000000
00100000
,
10000000
01000000
10000000
01000000
,
20010000
00000000
30200000
00000000
,
00302000
00000000
00203000
00000000
,
20300000
00000000
32000000
00000000
,
03200000
00000000
00320000
00000000
,
00032000
00000000
00000000
00000000
,
00000000
00000000
00003000
00000000
;

//---------------dance-double - ----------------
#NOTES:
     dance-double:
     :
     Medium:
     9:
     0.378,0.374,0.198,0.253,0.000:
20010000
00000000
00000000
00000000
,
32000000
00000000
00000000
00000000
,
03200000
00000000
00000000
00000000
,
00302000
00000000
00000000
00000000
,
00003020
00000000
00000000
00000000
,
00000230
00000000
00000000
00000000
,
00000302
00000000
00000000
00000000
,
00001003
00001000
00001000
00001001
,
00000010
00000100
00000010
00000000
00000010
00000100
00000010
00000000
,
00010000
00001000
00010000
00000000
00010000
00001000
00010000
00000000
,
00001000
01000000
00001000
00000000
00001000
01000000
00001000
00000000
,
10000000
00010000
10000000
00000000
20000000
00000000
00000000
00000000
,
30010000
00100000
00010000
00000000
00010000
00100000
00010000
00000000
,
01000000
00100000
01000000
00000000
01000000
00100000
01000000
00000000
,
00001000
10000000
00001000
00000000
00001000
10000000
00001000
00000000
,
00010000
00000010
00010000
00000000
00010000
00000010
00010000
00000000
,
00000210
00000000
00000000
00000000
,
00000320
00000000
00000000
00000030
,
00000100
00001000
00000001
00000000
00000010
00000100
00001000
00100000
,
00000000
01000000
10000000
01000000
00000000
10000000
00010000
01000000
,
00001000
00000000
00010000
00000000
00000010
00001000
00000001
00001000
,
00000000
00000100
00000010
00000001
00010000
00001000
00010000
00000000
,
00011000
00000000
00001000
00000000
01000000
00100000
10000000
00100000
,
00000000
10000000
00100000
01000000
00000000
00001000
00010000
00000100
,
00000010
00000000
00000001
00000000
00010000
00001000
00000000
01000000
,
00000000
00100000
00000000
10000000
00010000
00000000
00010000
00000000
,
10010000
00000000
10000000
00000000
00100000
01000000
00001000
00000100
,
00000000
00000010
00000001
00000010
00000000
00000001
00001000
00000100
,
00010000
00000000
00001000
00000000
00100000
01000000
10000000
01000000
,
00000000
10000000
00100000
01000000
00001000
00010000
00001000
00000000
,
00011000
00000000
00010000
00000000
00000010
00000100
00000001
00000100
,
00000000
00000001
00001000
00000100
00000000
00010000
00001000
00010000
,
00100000
00000000
01000000
00000000
10000000
00010000
00000000
01000000
,
00000000
00001000
00000000
00010000
00000000
00000010
00000000
00000000
,
00000210
00000000
00000000
00000000
00000301
00001000
00000100
00000000
,
00000000
00001100
00000000
00000000
00011000
00000000
01000000
00000000
,
02100000
00000000
00000000
00000000
03100000
01000000
00001000
00000000
,
00000000
00011000
00000000
00000000
00010010
00000000
00000010
00000000
,
00000120
00000000
00000000
00000000
00000130
00010000
00001000
00000000
,
00000000
00011000
00000000
00000000
01001000
00000000
01000000
00000000
,
01200000
00000000
00000000
10300000
00000000
00000000
10010000
00000000
,
00000000
01001000
00000000
00000000
00011000
00000000
00010000
00000000
,
00020100
00000000
00000000
00000000
,
00030200
00000000
00000000
00000300
,
00001002
00000000
00000023
00000000
,
00000032
00000000
00000000
00000000
00001003
00000000
00000001
00000100
,
00001000
00000000
00000100
00000000
00000001
00000100
00001000
00000000
,
00000100
00000001
00020000
00032000
,
00203000
00000000
01300000
10000000
00010000
00100000
01000000
00000000
,
10000000
00010000
01000000
00001000
,
00011000
00000000
00010000
00000000
00000001
00000010
00001000
00000000
,
00000010
00000000
00000001
00001000
00000100
00000010
00000001
00000000
,
00000100
00000000
00000001
00000100
00001000
00000100
00000001
00000000
,
00010000
00000100
00010000
00001000
,
10001000
00000000
10000000
00000000
00010000
01000000
10000000
00000000
,
01000000
00000000
00010000
00000000
00000100
00000010
00000001
00000010
,
00000100
00000000
00001000
00000010
00000001
00000010
00001000
00000000
,
00100000
00000000
01000000
00000000
10000000
01000000
00010000
01000000
,
10000000
10000000
10000000
10000000
,
00010000
00010000
00010000
00010000
,
00010000
00100000
00000010
00000000
00000010
00000100
00000001
00000000
,
00000001
00000010
00000100
00000000
00010000
00100000
01000000
10000000
,
02000000
00000000
03200000
00000000
,
00302000
00000000
00000000
00000000
00003020
00000000
00000000
00000030
,
00001002
00000000
00000023
00000000
,
00000230
00000000
00000000
00000000
00020300
00000000
00000000
00030000
,
00022000
00000000
00000000
00000000
,
00000000
00000000
00033000
00000000
;

//---------------dance-double - ----------------
#NOTES:
     dance-double:
     :
     Hard:
     12:
     0.551,0.535,0.269,0.388,0.202:
00022000
00000000
00000000
00033000
,
00002000
00000000
00000000
02003000
00000000
00000000
03000000
00000000
,
00020000
00000000
00000000
20030000
00000000
00000000
30000000
00000000
,
02000000
00000000
00000000
03200000
00000000
00000000
00300000
00000000
,
00022000
00000000
00000000
00033000
,
00020000
00000000
00000000
00030200
00000000
00000000
00000300
00000000
,
00020000
00000000
00000000
00030002
00000000
00000000
00000003
00000000
,
00000020
00000000
00000000
00000230
00000000
00000000
00000310
00000000
,
00000001
00000000
00000000
00010000
00000100
00000000
00000000
00010000
00000100
00000000
00000000
00010000
00000100
00000000
00000000
00010000
,
00000100
00000000
00000000
00001000
00010000
00000000
00000000
00001000
00010000
00000000
00000000
00001000
00010000
00000000
00000000
00001000
,
00010000
00000000
00000000
00100000
01000000
00000000
00000000
00100000
01000000
00000000
00000000
00100000
01000000
00000000
00000000
00100000
,
01000000
00000000
00000000
10000000
00010000
00000000
00000000
10000000
00010000
00000000
00000000
00000000
10010000
00000000
00000000
00000000
,
10000000
00000000
00000000
00001000
01000000
00000000
00000000
00001000
01000000
00000000
00000000
00001000
01000000
00000000
00000000
00001000
,
01000000
00000000
00000000
00010000
00001000
00000000
00000000
00010000
00001000
00000000
00000000
00010000
00001000
00000000
00000000
00010000
,
00001000
00000000
00000000
00000010
00000100
00000000
00000000
00000010
00000100
00000000
00000000
00000010
00000100
00000000
00000000
00000010
,
00000100
00000000
00000000
00000001
00001000
00000000
00000000
00000001
00001000
00000000
00000000
00000001
00001000
00000000
00000000
00000000
,
00001001
00001000
00000001
00000010
00000100
00010000
00001000
00100000
,
01000000
10000000
00001000
00010000
00001000
00010000
00011000
00000000
,
00010000
00000100
00010000
00000100
00010000
00000001
00000010
00001000
,
00000000
00000010
00000001
00010000
00001000
00010000
00100000
01000000
,
10000000
00010000
10000000
00010000
01000000
00001000
00010000
00000010
,
00000000
00000100
00000001
00001000
00000100
00001000
00000001
00000000
,
00000010
00000100
00000010
00000100
00000010
00000100
00010000
00001000
,
00000000
01000000
00100000
10000000
01000000
00100000
01000000
10000000
,
00001000
00100000
00001000
00100000
00001000
00010000
00000100
00000010
,
00000001
00000010
00000100
00010000
00001000
00000000
00011000
00000000
,
00010000
00000100
00010000
00000100
00010000
00000100
00000010
00000001
,
00000000
00001000
00000100
00010000
00001000
01000000
00100000
01000000
,
00001000
00100000
01000000
00100000
00001000
00010000
00000100
00000010
,
00000000
00000001
00001000
00000010
00000100
00001000
00000100
00000010
,
00010010
00010000
00001000
00010000
00001000
01000000
00100000
01000000
,
00000000
00010000
10000000
01000000
00010000
01000000
10000000
00010000
,
01000000
00100000
01000000
00100000
01000000
00001000
00010000
00001000
,
00000100
00000010
00000001
00001000
00000100
00000000
00001100
00000000
,
00001002
00000000
00000000
00000000
00000100
00000000
00000000
00000000
00001003
00000000
00000001
00000000
00000010
00000000
00000000
00000010
,
00000000
00000000
00000100
00000000
00000000
00000100
00000000
00000000
00010100
00000000
00000000
00000000
00011000
00000000
00000000
00000000
,
10002000
00000000
00000000
00000000
01000000
00000000
00000000
00000000
10003000
00000000
00001000
00000000
00100000
00000000
00000000
00100000
,
00000000
00000000
00001000
00000000
00000000
00001000
00000000
00000000
00011000
00000000
00000000
00000000
00010010
00000000
00000000
00000000
,
00002001
00000000
00000000
00000000
00000100
00000000
00000000
00000000
00003001
00000000
00001000
00000000
00000100
00000000
00000000
00000100
,
00000000
00000000
00010000
00000000
00000000
00010000
00000000
00000000
00011000
00000000
00000000
00000000
01001000
00000000
00000000
00000000
,
01100000
00000000
00000000
01000000
00000000
00000000
01000000
00000000
00000000
00100000
00000000
00000000
10100000
00000000
00000000
10100000
,
00000000
00000000
10001000
00000000
00000000
00001000
00000000
00000000
00010000
00000000
00000000
00000000
00000010
00000000
00000100
00000000
,
00000210
00000302
00000023
00000230
,
00002300
00023000
00230000
02300000
,
23000000
30200000
02300000
03002000
,
00023000
00000000
00000000
00000000
00030020
00000000
00000000
00000000
00000130
00000000
00000000
00000000
00000001
00001000
00000001
00001000
,
00000001
00000000
00000100
00000000
00000010
00000000
00000100
00000000
00000001
00000010
00000001
00000010
00000001
00000000
00000010
00000000
,
00000100
00010000
00001000
00010000
01000000
00100000
01000000
00100000
,
10000000
00010000
10000000
00010000
00100000
00001000
00010000
00000010
,
00001000
00000001
00001000
00000001
00001000
00000100
00000010
00000001
,
00001001
00000000
00000001
00001000
00000100
00010000
00001000
01000000
,
00100000
01000000
00010000
00100000
10000000
00100000
00010000
01000000
,
00001000
00010000
00001000
00010000
00000100
00000010
00000001
00001000
,
00000010
00000100
00000010
00001000
00000001
00000010
00000100
00000000
,
00000110
00000000
00000010
00000100
00000001
00000010
00001000
00000010
,
00000001
00010000
00001000
00010000
00001000
00100000
01000000
00100000
,
00001000
10000000
00001000
10000000
01000000
00010000
01000000
10000000
,
00001000
00010000
00001000
00010000
00000010
00000100
00000001
00010000
,
00010100
00010100
00011000
00011000
,
00110000
00110000
01100000
01100000
,
10010000
10000000
01000000
00100000
00010000
00001000
00000100
00000010
,
00000001
00000000
00000100
00000000
00000010
00000000
00010000
00000000
00001000
00100000
00001000
00000000
01000000
00100000
01000000
00000000
,
00020000
00000000
00000000
00000000
00000000
00000000
00030000
00000000
20000000
00000000
00000000
02000000
00000000
00000000
33000000
00000000
,
00200000
00000000
00000000
00002000
00000000
00000000
00303000
00000000
00020000
00000000
00000000
00000020
00000000
00000000
00030030
00000000
,
00000200
00000000
00000000
00000000
00000000
00000000
00000300
00000000
00000002
00000000
00000000
00000020
00000000
00000000
00000033
00000000
,
00000200
00000000
00000000
00020000
00000000
00000000
00030300
00000000
00002000
00000000
00000000
02000000
00000000
00000000
03003000
00000000
,
02200000
00000000
00000000
00000000
,
00000000
00000000
03300000
00000000
;

//---------------dance-double - ----------------
#NOTES:
     dance-double:
     :
     Challenge:
     16:
     0.792,0.748,0.301,0.214,0.875:
00001002
00000100
00001000
00000103
,
00000020
00000000
00000000
00020030
00000000
00000000
00031000
00000000
,
02000000
00000000
00000000
03200000
00000000
00000000
01300000
00000000
,
00020000
00000000
00000000
00000000
00000000
00000000
20030000
00000000
00000000
00000000
00000000
00000000
30001000
00100000
00001000
00000000
,
00020000
00000010
00000100
00030010
,
00000200
00000000
00000000
00000302
00000000
00000000
00001003
00000000
,
00000100
00001000
00000100
00010000
00001000
00010000
00001000
01000000
,
00100000
01000000
00100000
01000000
00100000
01000000
00100000
01000000
00100000
01000000
00100000
01000000
00100000
00000000
00000000
00000000
,
10000000
00000000
00001000
00100000
00001000
00000000
00100000
01000000
00100000
00000000
00001000
00010000
00001000
00000000
00100000
01000000
,
00100000
00000000
00001000
00010000
00001000
00000000
00010000
00000010
00010000
00000000
00001000
00010000
00001000
00000000
00010000
00000010
,
00010000
00000000
00000100
00000010
00000100
00000000
00001000
00000001
00001000
00000000
00000100
00000010
00000100
00000000
00001000
00000001
,
00001000
00000000
00000001
00000010
00000001
00000000
00000100
00000010
00000100
00000000
00000001
00000010
00000100
00010000
00001000
00000000
,
01001000
00000000
01000000
00100000
01000000
00000000
00010000
10000000
00010000
00000000
01000000
00100000
01000000
00000000
00001000
00010000
,
00001000
00000000
00100000
00010000
00100000
00000000
00001000
00010000
00001000
00000000
00100000
00010000
00100000
00000000
00001000
00010000
,
00001000
00000000
00000100
00000010
00000100
00000000
00001000
00010000
00001000
00000000
00000100
00000010
00000100
00000000
00001000
00000001
,
00001000
00000000
00000100
00010000
00000100
00000000
00001000
00000001
00001000
00000000
00000100
00010000
00000100
00000000
00010000
00001000
,
10000000
01000000
00100000
00001000
00010000
00000100
00000010
00000001
,
00001000
00000000
00001000
00000000
00000001
00000000
00000001
00000000
00010000
00000000
00001000
00000000
00100000
01000000
10000000
01000000
,
00100000
00000000
00000000
00010000
01000000
00000000
00000000
01000000
00001000
00000000
00010000
00001000
00010000
00000000
00000010
00000000
,
00000100
00000000
00000001
00001000
00000001
00000000
00000100
00000000
00000010
00000000
00010000
00001000
00010000
00001000
00010000
00000000
,
00100000
00000000
00000000
00100000
01000000
00000000
00000000
01000000
10000000
00000000
00010000
01000000
00010000
00000000
00100000
00000000
,
01000000
00000000
10000000
00100000
10000000
00000000
00001000
00000000
00010000
00001000
00010000
00001000
00010000
00000000
00000010
00000000
,
00000110
00000000
00000000
00000100
00000001
00000000
00000000
00000001
00001000
00000000
00000010
00000100
00000010
00000000
00010000
00000000
,
00001000
00000000
00100000
01000000
00100000
00000000
00010000
00000000
10000000
00000000
00100000
01000000
00100000
01000000
00100000
00000000
,
10000000
00000000
00000000
10000000
01000000
00000000
00000000
01000000
00100000
00000000
00000000
00100000
00001000
00000000
00000000
00001000
,
00010000
00000000
00000000
00010000
00000010
00000000
00000000
00000010
00000100
00000000
00000001
00000010
00000100
00001000
00000001
00000010
,
00000100
00000000
00000000
00000100
00010000
00000000
00000000
00010000
00001000
00000000
01000000
00100000
01000000
00000000
00010000
00000000
,
10000000
00000000
01000000
00100000
01000000
00000000
10000000
00000000
00010000
00000000
00100000
00001000
00100000
00001000
00100000
00000000
,
00001000
00000000
00000000
00001000
00010000
00000000
00000000
00010000
00000100
00000000
00000010
00000001
00000010
00000000
00000001
00000000
,
00000100
00000000
00000010
00010000
00000010
00000000
00010000
00000000
00001000
00100000
01000000
10000000
00001000
00000000
00010000
00000000
,
00011000
00000000
00000000
00001000
00100000
00000000
00000000
00100000
01000000
00000000
10000000
00010000
10000000
00000000
01000000
00000000
,
00100000
00000000
00001000
01000000
00001000
00000000
00010000
00000000
00000010
00000000
00000100
00000001
00000010
00000100
00001000
00000000
,
00000010
00000000
00000000
00000010
00010000
00000000
00000000
00010000
00001000
00000000
00000000
00001000
01000000
00000000
00000000
01000000
,
00100000
00000000
00000000
00100000
10000000
00000000
00000000
10000000
00010000
00000000
00000000
00000000
10010000
00000000
00000000
00000000
,
10100000
00000000
00100000
00000000
10000000
00000000
01000000
00000000
00100000
00000000
00001000
00000000
00011000
00000000
00000000
00010100
,
00000000
00000000
00000110
00000000
00000000
00000101
00000000
00000000
00000001
00001000
00000001
00000000
00000100
00000010
00000100
00000000
,
00000001
00000000
00000100
00000000
00000010
00000000
00010000
00000000
00001000
00000000
00100000
00000000
01100000
00000000
00000000
11000000
,
00000000
00000000
00110000
00000000
00000000
01100000
00000000
00000000
10000000
00100000
10000000
00000000
00001000
00010000
00001000
00000000
,
00011000
00000000
00000000
00010000
00000100
00000000
00000000
00000100
00000010
00000000
00000001
00000000
00001001
00000000
00000000
00001010
,
00000000
00000000
00000101
00000000
00000000
00000110
00000000
00000000
00000001
00001000
00000001
00000000
00010000
00000100
00010000
00000000
,
00011000
00000000
00000000
01001000
00000000
00000000
01100000
00000000
00000000
10100000
00000000
00000000
10000000
01000000
00100000
00010000
,
01000000
00100000
01000000
00100000
01000000
00001000
01000000
00001000
01000000
00000000
00000000
01001000
00000000
00000000
00011000
00000000
,
00010000
00000100
00000010
00000001
00000010
00000100
00010000
00001000
01000000
00100000
10000000
00100000
,
01000000
00001000
00010000
00000100
00000010
00000001
00000010
00000100
00010000
00001000
01000000
00100000
,
10000000
01000000
00010000
01000000
10000000
00010000
00001000
00000010
00000001
00000010
00001000
00010000
,
00100000
00000000
00000000
00000000
10000000
00000000
00000000
00000000
00100000
00000000
00000000
00000000
00010000
00000000
00000000
00000000
00001000
00000000
00000000
00000000
00000100
00000000
00000000
00000000
00000010
00000000
00000000
00000000
00000000
00000000
00000000
00000000
00000000
00000000
00000000
00000000
00000001
00000000
00000000
00001000
00000000
00000000
00000010
00000000
00000000
00000100
00000000
00000000
,
00000001
00000000
00010000
00000010
00010000
00000000
00000010
00000100
00000001
00000100
00000010
00010000
00001000
00000000
01000000
00001000
,
01000000
00000000
00100010
01000000
00100010
00000000
10000000
01000000
10000000
00000000
00010000
00100000
00010000
00000000
01000000
00001000
,
01000000
00000000
00001000
00010000
00001000
00000000
00010000
00000100
00000010
00000001
00000010
00000100
00010000
00000000
00000010
00000100
,
00000010
00000000
00010000
00000100
00010000
00000000
00001000
00010000
00001000
00000000
01000000
00010000
01000000
00000000
00000000
00000000
,
10010000
00000000
10000000
01000000
10000000
00000000
01000000
10000000
01000000
00100000
00001000
00010000
00001000
00000000
00010000
00000010
,
00010000
00000000
00000100
00000010
00000100
00000000
00010000
00000100
00000010
00000000
00000001
00000010
00000100
00000000
00010000
00000100
,
00010000
00000000
00001000
00010000
00001000
00000000
01000000
00100000
10000000
00100000
01000000
00010000
00100000
00000000
00001000
00010000
,
00001000
00000000
00010000
00000100
00010000
00000000
00000100
00000010
00000100
00000000
00000010
00000001
00000010
00000000
00000000
00000000
,
00001001
00000000
00000001
00000100
00000001
00000000
00001000
00000100
00000010
00000001
00000010
00000100
00001000
00000000
00000010
00000100
,
00000010
00000000
00010000
00001000
00010000
00000000
00001000
01000000
00100000
00000000
10000000
00100000
01000000
00000000
00010000
01000000
,
00010000
00000000
10000000
00010000
10000000
00000000
01000000
00100000
00010000
00100000
01000000
10000000
00100000
00000000
01000000
00001000
,
01000000
00000000
00001000
00010000
00001000
00000000
00010000
00000100
00000010
00000000
00000100
00000010
00000001
00000000
00001000
00000000
,
00001001
00000000
00000010
00000100
00000010
00000000
00010000
00001000
00010000
00000000
00001000
01000000
00001000
00000000
01000000
00100000
,
01000000
00000000
00010000
10000000
00010000
00000000
10000000
01000000
10000000
00000000
00001000
00010000
00001000
00000000
00010000
00000010
,
00000100
00000000
00000001
00000000
00000100
00000000
00000010
00010000
00000010
00010000
00001000
00010000
00001000
00000000
01000000
00000000
,
00100000
10000000
00100000
10000000
01000000
00100000
01000000
00100000
00001000
00010000
00001000
00010000
00000010
00000100
00000010
00000100
,
00000020
00000000
00000000
00000000
00000000
00000000
00000030
00000000
00001002
00000000
00000000
00002000
00000000
00000000
00003003
00000000
,
00021000
00000000
00000000
00002000
00000000
00000000
00033000
00000000
02100000
00000000
00000000
00200000
00000000
00000000
03300000
00000000
,
20020000
00000000
00000000
00000000
00000000
00000000
30030000
00000000
01002000
00000000
00000000
02000000
00000000
00000000
03003000
00000000
,
00021000
00000000
00000000
00000200
00000000
00000000
00030300
00000000
00000120
00000000
00000000
00000200
00000000
00000000
00000330
00000000
,
00002002
00000000
00000000
00000000
,
00000000
00000000
00003003
00000000
;

//---------------dance-single - ----------------
#NOTES:
     dance-single:
     :
     Beginner:
     3:
     0.101,0.157,0.119,0.000,0.000: // measure 1
1000
0000
0000
0000
,  // measure 2
0000
0000
0000
0000
,  // measure 3
1000
0000
0000
0000
,  // measure 4
0000
0000
0000
0000
,  // measure 5
1001
0000
0000
0000
,  // measure 6
0000
0000
0000
0000
,  // measure 7
0001
0000
0000
0000
,  // measure 8
0000
0000
0000
0000
,  // measure 9
1001
0000
0000
0000
,  // measure 10
1000
0000
0000
0000
,  // measure 11
0100
0000
0000
0000
,  // measure 12
0010
0000
0000
0000
,  // measure 13
1001
0000
0000
0000
,  // measure 14
0001
0000
0000
0000
,  // measure 15
0100
0000
0000
0000
,  // measure 16
0010
0000
0000
0000
,  // measure 17
0110
0000
0000
0000
,  // measure 18
0000
0000
0000
0000
,  // measure 19
1001
0000
0000
0000
,  // measure 20
0100
0000
0000
0000
,  // measure 21
0010
0000
0000
0001
,  // measure 22
0000
0000
0000
0000
,  // measure 23
0010
0000
0000
0000
,  // measure 24
0100
0000
0000
0000
,  // measure 25
1000
0000
0000
0000
,  // measure 26
0010
0000
0000
0000
,  // measure 27
0110
0000
0000
0000
,  // measure 28
0100
0000
0000
0000
,  // measure 29
0001
0000
0000
0000
,  // measure 30
0010
0000
0000
0000
,  // measure 31
1001
0000
0000
0000
,  // measure 32
1000
0000
0000
0000
,  // measure 33
0100
0000
0000
0000
,  // measure 34
0010
0000
0000
0000
,  // measure 35
1001
0000
0000
0001
,  // measure 36
0000
0000
0000
0000
,  // measure 37
1001
0000
0000
1000
,  // measure 38
0000
0000
0000
0000
,  // measure 39
0110
0000
0000
0010
,  // measure 40
0000
0000
0000
0000
,  // measure 41
0110
0000
0000
0100
,  // measure 42
0000
0000
0000
0000
,  // measure 43
1001
0000
0000
0000
,  // measure 44
0000
0000
0000
0000
,  // measure 45
1000
0000
0000
0000
,  // measure 46
0000
0000
0000
0000
,  // measure 47
1001
0000
0001
0000
,  // measure 48
1000
0000
0001
0000
,  // measure 49
0010
0000
0100
0000
,  // measure 50
0010
0000
0100
0000
,  // measure 51
1000
0000
0010
0000
,  // measure 52
1000
0000
0010
0000
,  // measure 53
1000
0000
0001
0000
,  // measure 54
1000
0000
0001
0000
,  // measure 55
0010
0000
0100
0000
,  // measure 56
0010
0000
0100
0000
,  // measure 57
1000
0000
0100
0000
,  // measure 58
1000
0000
0100
0000
,  // measure 59
0010
0000
0010
0000
,  // measure 60
0100
0000
0100
0000
,  // measure 61
1000
0000
1000
0000
,  // measure 62
0001
0000
0001
0000
,  // measure 63
1001
0000
0000
0000
,  // measure 64
0000
0000
0000
0000
,  // measure 65
1000
0000
0000
0000
,  // measure 66
0000
0000
0000
0000
,  // measure 67
1001
0000
0000
0000
;
