#TITLE:Southern Cross;
#SUBTITLE:;
#ARTIST:BlackY;
#TITLETRANSLIT:;
#SUBTITLETRANSLIT:;
#ARTISTTRANSLIT:;
#CREDIT:DigiMindAxel;
#BANNER:Southern Cross.png;
#BACKGROUND:Southern Cross-bg.png;
#LYRICSPATH:;
#CDTITLE:pop'n music.png;
#MUSIC:Southern Cross.ogg;
#METERTYPE:DDR X;
#OFFSET:-6.563;
#SAMPLESTART:76.230;
#SAMPLELENGTH:12.000;
#SELECTABLE:YES;
#BPMS:0.000=155.000;
#STOPS:;
#BGCHANGES:;

//---------------dance-single - ----------------
#NOTES:
     dance-single:
     :
     Easy:
     6:
     0.250,0.258,0.149,0.088,0.000:
0002
0000
0000
0000
,
0023
0000
0032
2003
,
3002
0000
2003
0000
,
0000
0000
3001
1000
,
0001
0100
0010
0000
,
0100
0010
0100
0001
,
1000
0100
0010
0001
,
0010
0100
1000
0001
,
1000
0000
0001
0000
,
0100
0010
0100
0010
,
1000
0100
0000
1000
,
0001
1000
0001
1000
,
0001
0100
0010
0100
,
0001
0000
0010
0000
,
0100
0010
0100
0010
,
0001
0000
0100
0010
,
1000
0010
1000
0010
,
1000
0100
1000
0100
,
0010
0001
0010
0001
,
2000
0000
0000
0000
,
3001
0000
0000
0000
,
0000
0000
0000
0000
,
1001
0000
0000
0000
,
0000
0000
0000
0000
,
1001
0000
0000
0000
,
0000
0000
0000
0000
,
1001
0000
0000
0000
,
0000
0000
0000
0000
,
0010
0100
0010
0100
,
0001
0010
0100
1000
,
0001
1000
0001
1000
,
0100
0010
0001
0100
,
0010
0100
0010
0100
,
0001
1000
0001
1000
,
0100
1000
0100
0010
,
0002
0000
0000
0000
,
1003
0000
0000
0000
,
1001
0000
0000
0000
,
0110
0000
0000
0000
,
0110
0000
0010
0000
,
0110
0000
0000
0000
,
1001
0000
0000
0000
,
1001
0000
0000
0000
,
0110
0000
0100
0000
,
0110
0000
0000
0000
,
0010
0100
0010
0100
,
0001
1000
0001
1000
,
0100
0010
0100
0010
,
0001
1000
0001
1000
,
0100
1000
0100
1000
,
0001
0100
0001
0100
,
0001
1000
0001
1000
,
0100
0010
0001
0010
,
0100
1000
0100
1000
,
0001
1000
0001
0100
,
0001
1000
0001
0100
,
0001
0010
0100
1000
,
0001
1000
0100
1000
,
0001
1000
0100
1000
,
0001
0100
0010
0100
,
0001
0000
0000
0000
,
1001
0000
0000
1001
,
0000
0110
0000
0000
,
0000
0110
0000
0000
,
0000
0000
0110
0000
,
2002
0000
0000
3003
0000
0000
0000
0000
;

//---------------dance-single - ----------------
#NOTES:
     dance-single:
     :
     Medium:
     10:
     0.412,0.457,0.219,0.061,0.114:
1000
1000
1000
1000
,
0001
0001
1000
0001
,
1000
1000
0010
0010
,
0100
0000
0100
0000
0001
1000
0001
1000
,
0100
1100
1000
0001
,
0100
0010
1000
0000
0100
0010
0001
0010
,
0100
0000
1100
0000
0100
1000
0010
0000
,
0100
0000
0010
0000
1000
0100
0010
0100
,
1000
0001
0100
0000
0001
0000
1000
0000
,
0001
0100
1000
0100
,
0001
1000
0001
0000
1000
0000
0010
0100
,
0010
0100
0001
1000
0001
1000
0001
0000
,
1001
1000
0010
0100
,
0001
0000
0100
0010
0100
0010
1000
0000
,
0001
1000
0100
0010
,
0001
0000
0010
0100
0010
0100
1000
0000
,
0001
0000
0100
0010
0100
0001
1000
0000
,
0100
0000
1000
0001
1000
0100
0010
0000
,
0001
1000
0001
1000
0100
0010
0100
0010
,
0001
0001
0001
0000
1000
0000
0001
0000
,
0110
0000
0000
0100
0000
0000
0000
0000
0000
0000
0000
0000
0000
0000
0000
0000
,
0010
0000
0000
0010
0000
0000
0010
0000
,
1001
0000
0000
1000
0000
0000
0000
0000
0000
0000
0000
0000
0000
0000
0000
0000
,
0200
0000
0000
0300
,
0110
0000
0000
0010
0000
0000
0000
0000
0000
0000
0000
0000
0000
0000
0000
0000
,
0000
0000
0000
0000
,
1001
0000
0000
0001
0000
0000
0000
0000
2000
0000
0000
0000
0000
0000
0000
0000
,
0000
0000
0000
3000
,
1001
0000
0000
0001
0000
0000
0000
0000
0010
0000
0000
0000
0100
0000
0000
0000
,
1000
0001
1000
0000
0010
0100
0010
0000
,
1001
0000
0000
0001
0000
0000
0000
0000
1000
0000
0000
0000
0010
0000
0000
0000
,
0100
0010
0100
0010
1000
0100
1000
0000
,
1001
0000
0000
1000
0000
0000
0000
0000
0100
0000
0000
0000
0010
0000
0000
0000
,
1001
0000
0000
0001
0000
0000
0000
0000
0010
0000
0000
0000
0100
0000
0000
0000
,
1001
0000
0000
1000
0000
0000
0000
0000
0010
0000
0100
0000
0010
0000
1000
0000
,
0000
0000
0001
0000
0000
0001
0000
0000
0001
0000
0000
0001
0000
0000
0001
0000
,
0100
0000
0000
0100
0000
0000
0000
0000
0000
0000
0000
0000
0000
0000
0000
0000
,
1001
0000
0000
0001
0000
0000
0000
0000
0000
0000
0000
0000
0000
0000
0000
0000
,
0110
0000
0000
0010
0000
0000
0000
0000
0000
0000
0000
0000
0000
0000
0000
0000
,
0210
0000
0320
0000
,
0130
0000
0000
0100
0000
0000
0000
0000
0000
0000
0000
0000
0000
0000
0000
0000
,
1001
0000
0000
0001
0000
0000
0000
0000
0000
0000
0000
0000
0000
0000
0000
0000
,
1001
0000
0000
1000
0000
0000
0000
0000
0000
0000
0000
0000
0000
0000
0000
0000
,
0120
0000
0230
0000
,
0310
0000
0000
0000
,
1000
0100
0010
0000
0100
1000
0010
0000
,
0100
0001
0010
0000
0001
0010
0100
1000
,
0100
0010
0001
0000
0100
0001
0010
0000
,
0001
1000
0100
0000
1000
0100
0010
0001
,
0010
0100
1000
0000
0001
0100
0010
0000
,
0100
0010
0100
0000
0001
1000
0010
0000
,
0100
0001
0010
0001
0100
0001
0010
0100
,
1000
0100
0010
0001
1000
0000
0000
0000
,
0010
0100
0010
0000
0100
0001
0010
0000
,
0100
1000
0010
0000
1000
0100
0010
0001
,
0010
0100
1000
0000
0001
1000
0010
0000
,
0100
0001
1000
0000
0100
0010
0100
1000
,
0100
0010
0001
0000
0100
0001
1000
0000
,
0100
0010
0100
0000
1000
0010
0100
0001
,
1000
0100
1000
0100
0010
0001
0010
0001
,
2000
0000
0000
0000
0000
0000
0000
0000
0000
0000
3001
0000
0000
1000
0000
0000
,
1001
0000
0000
0001
0000
0000
0000
0000
0000
0000
0000
0000
1001
0000
0000
1001
,
0000
0000
0000
0000
0101
0000
0000
0001
0000
0000
0001
0000
0000
0000
0100
0000
,
0000
0000
0000
0000
0110
0000
0000
0010
0000
0000
0010
0000
0000
0100
0000
0000
,
0001
0000
0000
1000
0000
0000
0001
0000
0000
1000
0000
0000
0001
0000
0000
0000
,
1001
0000
0000
1001
0000
0000
0000
0000
0000
0000
0000
0000
0000
0000
0000
0000
;

//---------------dance-single - ----------------
#NOTES:
     dance-single:
     :
     Hard:
     13:
     0.559,0.600,0.517,0.149,0.219: // measure 1
0002
0000
0000
0000
,  // measure 2
0203
0000
0320
2030
,  // measure 3
3002
0000
0000
0000
0000
0000
1003
0001
2000
0000
0000
0000
0000
0000
0000
0000
,  // measure 4
0000
0000
0000
0000
0000
0000
3001
1000
0001
0000
0010
0000
0100
0000
0010
0000
,  // measure 5
0001
2000
0000
0000
3010
0000
0100
0000
,  // measure 6
0010
1000
0100
0001
0100
1000
0001
0010
,  // measure 7
0100
0000
1000
0000
1000
0000
0000
0000
0001
0000
0000
0001
0000
0000
0001
0000
,  // measure 8
1000
0000
0001
0000
0100
0000
0010
0000
0100
0000
0000
0001
0000
1000
0000
0001
,  // measure 9
0000
0120
0000
0000
1030
0000
0001
0000
,  // measure 10
1000
0000
0001
0000
0000
0001
0000
0000
0001
0000
0010
0000
0100
0000
0010
0000
,  // measure 11
0001
1000
1002
0000
0000
0000
1003
0010
,  // measure 12
0100
0010
1000
0100
0001
0100
1000
0001
,  // measure 13
1001
0000
1000
0000
0000
0001
0000
0000
0100
0000
0000
0001
0000
0000
1000
0000
,  // measure 14
0100
0000
0000
0000
1000
0000
0001
0000
0010
0000
0000
0010
0000
0000
0010
0000
,  // measure 15
0000
0000
0001
0000
0000
1000
0000
0000
0010
0000
0000
1000
0000
0000
0100
0000
,  // measure 16
1000
0000
0010
0100
0001
0100
0010
1000
,  // measure 17
0000
0100
0010
0001
0010
1000
0010
0001
,  // measure 18
1000
0100
0001
0100
1000
0010
0100
0001
,  // measure 19
1000
0001
0010
1000
0010
0001
1000
0100
,  // measure 20
1000
0010
0001
0010
1000
0100
0010
0001
,  // measure 21
1001
0000
0000
1001
0000
0000
0000
0000
0000
0000
0000
0000
0000
0000
0000
0000
,  // measure 22
0002
0000
0000
0203
0000
0000
0310
0000
,  // measure 23
1001
0000
0000
1001
0000
0000
2000
0000
0000
0000
0000
0000
0000
0000
0000
0000
,  // measure 24
3001
0010
0100
1000
0100
0010
0001
1000
,  // measure 25
1001
0000
0000
1001
0000
0000
0000
0000
0010
0000
0000
0100
0000
0000
0020
0000
,  // measure 26
0000
0000
0000
0000
0000
0000
0130
0000
0000
0001
0000
0000
0100
0000
0001
0000
,  // measure 27
1001
0000
0000
1001
0000
0000
0000
0000
0001
0000
0010
0000
0100
0000
1000
0000
,  // measure 28
0100
0010
0001
1000
0010
0100
0001
1000
,  // measure 29
1001
0000
0000
1001
0000
0000
0001
0000
0000
0100
0000
0000
0010
0000
0100
0000
,  // measure 30
0001
0000
0000
0010
0000
0000
0100
0000
0000
1000
0000
0000
0001
0000
0100
0000
,  // measure 31
0001
0000
0000
1001
0000
0000
1000
0000
0000
0010
0000
0000
0100
0000
0010
0000
,  // measure 32
1000
0100
0001
0100
1000
0010
0100
0001
,  // measure 33
1001
0000
0000
1001
0000
0000
0000
0000
1100
0000
0000
0000
0011
0000
0000
0000
,  // measure 34
1001
0000
0000
1001
0000
0000
0000
0000
0101
0000
0000
0000
0100
0000
0000
0000
,  // measure 35
1001
0000
0000
1001
0000
0000
0001
0000
1000
0000
0010
0000
0100
0000
0001
0000
,  // measure 36
1000
0000
1100
0000
0000
1100
0000
0000
0011
0000
0000
0011
0000
0000
0100
0000
,  // measure 37
0110
0000
0000
0110
0000
0000
0000
0000
0000
0000
0000
0000
0000
0000
0000
0000
,  // measure 38
1001
0000
0000
1001
0000
0000
0000
0000
0000
0000
0000
0000
0000
0000
0000
0000
,  // measure 39
0110
0000
0000
0110
0000
0000
0000
0000
0000
0000
0000
0000
0000
0000
0000
0000
,  // measure 40
0102
0000
0000
0000
0000
0000
0000
0000
1000
0000
0000
1000
0000
0000
1003
0000
,  // measure 41
0101
0000
0000
0101
0000
0000
0000
0000
0000
0000
0000
0000
0000
0000
0000
0000
,  // measure 42
1010
0000
0000
1010
0000
0000
0000
0000
0000
0000
0000
0000
0000
0000
0000
0000
,  // measure 43
1001
0000
0000
1001
0000
0000
0000
0000
0000
0000
0000
0000
0000
0000
0000
0000
,  // measure 44
2100
0000
0000
0000
0000
0000
0000
0000
0001
0000
0000
0001
0000
0000
3001
0000
,  // measure 45
0200
0000
0000
0300
,  // measure 46
0001
0100
1000
0100
0001
0010
1000
0010
,  // measure 47
0001
1000
0100
0100
1000
1000
0001
0100
,  // measure 48
0010
1000
0100
0010
1000
0010
0100
1000
,  // measure 49
0001
0001
1000
1000
0100
1000
0010
0100
,  // measure 50
0001
0010
1000
0010
0001
1000
0100
0010
,  // measure 51
0100
0100
1000
1000
0010
0100
0010
1000
,  // measure 52
0100
0001
0100
1000
0010
0001
0010
1000
,  // measure 53
0001
0000
0100
0000
0010
0000
0100
0000
0001
0000
1000
0002
0000
0000
0000
0000
,  // measure 54
0013
0100
1000
0010
0100
0001
0100
0010
,  // measure 55
1000
0100
0010
0010
0100
0100
1000
0001
,  // measure 56
1000
0010
0001
0010
1000
0100
0001
0100
,  // measure 57
1000
0010
0100
0010
0100
0001
1000
0100
,  // measure 58
0010
0001
1000
0100
0010
1000
0010
0100
,  // measure 59
1000
0001
0010
1000
0010
0001
1000
0100
,  // measure 60
0010
0001
1000
0100
0010
0001
1000
0010
,  // measure 61
0110
0000
0000
0000
0000
0000
0000
0000
0110
0000
0000
0110
0000
0000
0101
0000
,  // measure 62
1001
0000
0000
1001
0000
0000
0000
0000
0000
0000
0000
0000
1000
0010
0000
1010
,  // measure 63
0000
0000
0000
0000
0110
0000
0000
0101
0000
0000
0101
0000
0000
0000
1001
0000
,  // measure 64
0000
0000
0000
0000
0110
0000
0000
1100
0000
0000
1100
0000
0000
1001
0000
0000
,  // measure 65
0001
1000
0000
1001
0000
0000
0100
0000
0001
0100
0000
0100
0000
0000
0001
0000
,  // measure 66
1001
0000
0000
1001
0000
0000
0000
0000
0000
0000
0000
0000
0000
0000
0000
0000
;

//---------------dance-single - ----------------
#NOTES:
     dance-single:
     :
     Challenge:
     17:
     0.865,0.885,0.473,0.245,1.000: // measure 1
2000
0100
0010
3100
,  // measure 2
0020
0001
0100
0031
,  // measure 3
0200
0010
1000
0010
,  // measure 4
1000
0000
0000
0000
0310
0000
1000
0001
1000
0001
1000
0100
1000
0100
1000
0000
,  // measure 5
0001
0000
1000
0010
1000
0000
0001
0000
0010
0000
0100
0010
0000
0010
0100
0000
,  // measure 6
1000
0001
1000
0001
1000
0100
0010
0001
1000
0001
1000
0001
1000
0100
0010
0001
,  // measure 7
0100
0000
0010
0000
0010
0000
0100
0000
0001
1000
0000
1000
0001
0000
0100
0010
,  // measure 8
1000
0010
0100
0010
1000
0001
1000
0001
1000
0010
0000
0100
0000
0010
0000
1000
,  // measure 9
0000
0000
0001
1000
0001
0000
1000
0000
0010
0000
0100
0001
0000
0001
0100
0000
,  // measure 10
0001
0000
1000
0000
0001
1000
0000
0001
1000
0100
1000
0100
0010
0100
0010
0001
,  // measure 11
0010
0001
1000
0001
2000
0000
0000
0000
0001
0000
0000
0000
3001
0100
0001
0100
,  // measure 12
0001
0010
0100
0010
0100
1000
0010
1000
0010
1000
0001
0010
0100
1000
0100
0010
,  // measure 13
0001
0000
0100
0000
0010
1000
0000
0010
1000
0000
0100
0010
0000
0100
0010
0000
,  // measure 14
0001
0000
0000
0000
0100
0000
0010
0000
1000
0001
0000
1000
0001
0000
0100
0000
,  // measure 15
0010
0000
1000
0000
0100
0010
0000
0100
0010
0000
0001
0100
0000
0001
0100
0000
,  // measure 16
0010
0000
0000
0000
0000
1000
0100
0010
0001
0010
0100
1000
0001
0010
0001
0010
,  // measure 17
0000
0000
0001
1000
0001
1000
0001
0100
0010
0100
0001
1000
0010
0100
0010
1000
,  // measure 18
0000
0001
1000
0001
1000
0001
1000
0100
0010
0100
1000
0001
0010
0100
0010
0001
,  // measure 19
0000
1000
0001
1000
0001
1000
0001
0100
0010
0100
0001
1000
0010
0100
0010
1000
,  // measure 20
0000
0001
0010
0100
1000
0001
0010
0100
1000
0001
0000
0001
0010
0000
0010
0000
,  // measure 21
1001
0000
0000
2002
0000
0000
0000
0000
0000
0000
0000
0000
3003
0000
0000
0000
,  // measure 22
1100
0000
0000
0000
0000
0000
0011
0000
0000
0000
0000
0000
0010
0100
0010
1000
,  // measure 23
0001
0000
0000
1001
0000
0000
2000
0000
0000
0000
0000
0000
3000
0000
0000
0000
,  // measure 24
0001
0000
0010
0000
0100
0000
1000
0000
0100
0000
0010
0000
0001
1000
0001
1000
,  // measure 25
0001
0000
0000
1001
0000
0000
0000
0000
0001
0000
1000
0100
0000
1000
0100
2000
,  // measure 26
0000
0000
0000
0000
0000
0000
3100
0000
0000
0010
0000
0000
0001
0100
0001
0100
,  // measure 27
0010
0000
0000
0110
0000
0000
0000
0000
0001
0000
0010
0000
0100
0000
1000
0000
,  // measure 28
0100
0000
0010
0000
0001
0000
1000
0000
0010
0000
0100
0000
0001
1000
0001
1000
,  // measure 29
0001
0000
0000
1001
0000
0000
1000
0000
0000
0010
0000
0000
1000
0000
0100
0000
,  // measure 30
0020
0000
0000
0001
0000
0000
0230
0000
0000
1000
0000
0000
0310
0000
0001
0000
,  // measure 31
1001
0000
0000
1001
0000
0000
2000
0000
0000
0001
0000
0000
3001
0000
1000
0000
,  // measure 32
0001
0010
0001
0010
0100
0010
0100
1000
0100
1000
0010
0100
0010
0100
0001
0000
,  // measure 33
1001
0000
0000
1001
0000
0000
0000
0000
0011
0000
0000
0000
1100
0000
0000
0000
,  // measure 34
1001
0000
0000
1001
0000
0000
0000
0000
1020
0000
0000
0000
0130
0000
0000
0000
,  // measure 35
1001
0000
1000
0001
1000
0001
0100
0010
0100
0010
1000
0100
0010
0001
0010
0100
,  // measure 36
1000
0000
1010
0000
0000
0101
0000
0000
1001
0000
0000
0110
0000
0000
1001
0000
,  // measure 37
1010
0000
0000
2020
0000
0000
0000
0000
0000
0000
0000
0000
3030
0000
0000
0000
,  // measure 38
0110
0000
0000
0220
0000
0000
0000
0000
0000
0000
0000
0000
0330
0000
0000
0000
,  // measure 39
0101
0000
0000
0202
0000
0000
0000
0000
0000
0000
0000
0000
0303
0000
0000
0000
,  // measure 40
0120
0000
0000
0000
0000
0000
0000
0000
1030
0000
0000
1001
0000
0001
1000
0100
,  // measure 41
1000
0000
0000
2002
0000
0000
0000
0000
0000
0000
0000
0000
3003
0000
0000
0000
,  // measure 42
1100
0000
0000
2200
0000
0000
0000
0000
0000
0000
0000
0000
3300
0000
0000
0000
,  // measure 43
0011
0000
0000
0022
0000
0000
0000
0000
0000
0000
0000
0000
0033
0000
0000
0000
,  // measure 44
0220
0000
0000
0000
0000
0000
0330
0000
1010
0000
0000
1010
0000
1000
0010
0100
,  // measure 45
0020
0000
0000
0000
,  // measure 46
1030
0001
0010
0100
0010
0100
0010
0001
1000
0100
0010
0100
0010
0100
1000
0001
,  // measure 47
0010
0100
0010
0100
0010
0001
1000
0010
0000
0000
0000
0000
1000
0001
1000
0100
,  // measure 48
0010
0001
0010
0100
1000
0010
0001
0010
1000
0100
0001
0100
1000
0100
0010
0100
,  // measure 49
0010
0001
1000
0001
1000
0010
0000
0100
0001
0010
0100
1000
0001
0010
0100
1000
,  // measure 50
0001
0100
0010
0100
0001
0000
0000
0010
0100
0010
0001
0010
0100
1000
0001
0100
,  // measure 51
0010
0000
0000
1000
0001
0000
1000
0001
0000
1000
0001
0000
1000
0001
0000
0000
,  // measure 52
1000
0100
0001
0100
1000
0100
0001
0100
1000
0010
0001
0010
1000
0010
0001
0010
,  // measure 53
1000
0010
0100
0001
0100
0010
1000
0001
0000
1000
0001
0010
0100
1000
0100
0000
,  // measure 54
1000
0001
0100
0010
0100
0010
0100
0001
1000
0001
0100
0010
0100
0010
0100
0001
,  // measure 55
1000
0001
0100
0010
0100
0001
1000
0100
0000
0000
0000
0000
1000
0001
1000
0100
,  // measure 56
0001
0100
1000
0010
0100
0010
0100
0001
0010
1000
0010
0001
1000
0001
1000
0001
,  // measure 57
1000
0010
0001
0010
1000
0000
0001
0100
0010
0100
0001
1000
0100
1000
0100
1000
,  // measure 58
0001
0010
0100
1000
0001
0000
0100
0001
0010
0001
1000
0100
0010
0001
1000
0010
,  // measure 59
1000
0001
0000
0010
0100
0000
0010
0100
0000
0010
0100
0000
0010
0100
0000
0000
,  // measure 60
1000
0010
1000
0010
0100
0001
0100
0001
0010
0100
0010
0100
1000
0010
0001
0010
,  // measure 61
1000
0100
0010
0001
1000
0100
0010
0001
1000
0010
0000
0010
1000
0100
0010
0000
,  // measure 62
1001
0000
0001
1000
0001
0000
0100
0000
0010
0000
1000
0000
0001
0010
0000
0011
,  // measure 63
0000
0000
0000
0000
1001
0000
0000
0110
0000
0000
1001
0000
0000
0000
1001
0000
,  // measure 64
0000
0000
0000
0000
1100
0000
0000
0011
0000
0000
1100
0000
0000
1001
0000
0000
,  // measure 65
0001
1000
0000
1001
0000
0000
1000
0001
0100
0001
0000
0101
0000
0000
1010
0000
,  // measure 66
1001
0000
0000
1001
0000
0000
0000
0000
0000
0000
0000
0000
0000
0000
0000
0000
;

//---------------dance-double - ----------------
#NOTES:
     dance-double:
     :
     Medium:
     10:
     0.416,0.485,0.219,0.053,0.114:
00010000
10000000
00010000
10000000
,
00001000
00010000
00001000
00010000
,
00000001
00000100
00000001
00000100
,
00000001
00000000
00000100
00000000
00000001
00000010
00000100
00010000
,
00001000
00011000
00001000
00010000
,
00000100
00001000
00000010
00000000
00100000
00001000
00010000
00001000
,
00100000
00000000
00011000
00000000
00001000
00010000
00000010
00000000
,
00000100
00000000
00000010
00000000
00000100
00000001
00010000
00000100
,
00010000
00001000
00100000
00000000
00010000
00000000
10000000
00000000
,
01000000
00010000
01000000
10000000
,
00100000
01000000
00001000
00000000
00010000
00000000
00001000
00010000
,
00000100
00010000
00001000
00010000
00000001
00000010
00000100
00000000
,
00001001
00000001
00000100
00001000
,
00000100
00000000
00000001
00000010
00000100
00010000
00001000
00000000
,
00100000
00001000
00010000
00001000
,
10000000
00000000
00010000
00100000
01000000
00100000
00010000
00000000
,
10000000
00000000
00001000
01000000
00010000
01000000
00001000
00000000
,
00010000
00000000
00000001
00001000
00000100
00001000
00000001
00000000
,
00000010
00000100
00000010
00000100
00010000
00001000
00010000
00001000
,
00100000
00100000
00100000
00001000
10000000
01000000
00100000
00010000
,
10000000
00000000
00000000
10000000
00000000
00000000
00000000
00000000
00000000
00000000
00000000
00000000
00000000
00000000
00000000
00000000
,
00010000
00000000
00000000
00100000
00000000
00000000
00001000
00000000
,
00011000
00000000
00000000
00010000
00000000
00000000
00000000
00000000
00000000
00000000
00000000
00000000
00000000
00000000
00000000
00000000
,
00000000
00000000
00000000
00000000
,
00011000
00000000
00000000
00001000
00000000
00000000
00000000
00000000
00000000
00000000
00000000
00000000
00000000
00000000
00000000
00000000
,
00000000
00000000
00000000
00000000
,
00000110
00000000
00000000
00000100
00000000
00000000
00000000
00000000
00000002
00000000
00000000
00000000
00000000
00000000
00000000
00000000
,
00000000
00000000
00000000
00000003
,
00000110
00000000
00000000
00000100
00000000
00000000
00000000
00000000
00000001
00000000
00000000
00000000
00001000
00000000
00000000
00000000
,
00000010
00010000
00000010
00000000
00010000
00001000
00010000
00000000
,
00010010
00000000
00000000
00010000
00000000
00000000
00000000
00000000
00001000
00000000
00000000
00000000
01000000
00000000
00000000
00000000
,
00100000
01000000
00100000
01000000
00010000
00100000
01000000
00000000
,
10010000
00000000
00000000
10000000
00000000
00000000
00000000
00000000
01000000
00000000
00000000
00000000
00100000
00000000
00000000
00000000
,
10010000
00000000
00000000
00010000
00000000
00000000
00000000
00000000
00100000
00000000
00000000
00000000
01000000
00000000
00000000
00000000
,
10010000
00000000
00000000
10000000
00000000
00000000
00010000
00000000
10000000
00000000
01000000
00000000
00100000
00000000
00001000
00000000
,
00000000
00000000
00010000
00000000
00000000
00001000
00000000
00000000
00010000
00000000
00000000
00001000
00000000
00000000
00010000
00000000
,
00000010
00000000
00000000
00000010
00000000
00000000
00000000
00000000
00000000
00000000
00000000
00000000
00000000
00000000
00000000
00000000
,
00011000
00000000
00000000
00001000
00000000
00000000
00000000
00000000
00000000
00000000
00000000
00000000
00000000
00000000
00000000
00000000
,
01100000
00000000
00000000
01000000
00000000
00000000
00000000
00000000
00000000
00000000
00000000
00000000
00000000
00000000
00000000
00000000
,
20010000
00000000
30002000
00000000
,
00013000
00000000
00000000
00010000
00000000
00000000
00000000
00000000
00000000
00000000
00000000
00000000
00000000
00000000
00000000
00000000
,
00000110
00000000
00000000
00000010
00000000
00000000
00000000
00000000
00000000
00000000
00000000
00000000
00000000
00000000
00000000
00000000
,
00001001
00000000
00000000
00001000
00000000
00000000
00000000
00000000
00000000
00000000
00000000
00000000
00000000
00000000
00000000
00000000
,
00001002
00000000
00020003
00000000
,
00031000
00000000
00000000
00000000
,
00010000
00001000
01000000
00000000
00001000
00010000
00000100
00000000
,
00001000
00000010
00000100
00000000
00000010
00000100
00001000
00100000
,
00001000
00000100
00000010
00000000
00001000
00000010
00000100
00000000
,
00000001
00010000
00000100
00000000
00001000
00000100
00000010
00000001
,
00000010
00000100
00001000
00000000
00000001
00000100
00000010
00000000
,
00010000
00001000
00010000
00000000
00000001
00001000
00000010
00000000
,
00000100
00000001
00000010
00000100
00010000
00100000
01000000
10000000
,
00010000
10000000
01000000
00100000
00001000
00000000
00000000
00000000
,
00100000
00001000
00100000
00000000
00010000
01000000
00100000
00000000
,
01000000
00001000
00100000
00000000
00001000
00010000
00000010
00000100
,
00000010
00010000
00001000
00000000
01000000
00001000
00100000
00000000
,
00001000
00100000
00000100
00000000
00010000
00000001
00000010
00000100
,
00001000
00000100
00000010
00000000
00000001
00001000
00000100
00010000
,
00001000
00000000
00010000
00000000
00000100
00010000
00001000
00010000
,
00000001
00000010
00000100
00010000
00100000
01000000
10000000
00010000
,
02000000
00000000
00000000
00000000
00000000
00000000
00000000
00000000
03010000
00000000
00000000
10000000
00000000
00000000
00001000
00000000
,
00011000
00000000
00000000
00011000
00000000
00000000
00000000
00000000
00000000
00000000
00000000
00000000
00000110
00000000
00000000
00000110
,
00000000
00000000
00000000
00000000
00011000
00000000
00000000
00010000
00000000
00000000
00010000
00000000
00000000
00000000
00001000
00000000
,
00000000
00000000
00000000
00000000
01100000
00000000
00000000
01000000
00000000
00000000
01000000
00000000
00000000
00100000
00000000
00000000
,
01000000
00000000
00000000
00001000
00000000
00000000
00010000
00000000
00000000
00000010
00000000
00000000
00000100
00000000
00000000
00000000
,
00001001
00000000
00000000
00001001
00000000
00000000
00000000
00000000
00000000
00000000
00000000
00000000
00000000
00000000
00000000
00000000
;

//---------------dance-double - ----------------
#NOTES:
     dance-double:
     :
     Hard:
     13:
     0.552,0.600,0.499,0.114,0.206:
00002000
00000000
00000000
00000000
,
00003002
00000000
00000023
00000230
,
00002300
00000000
00000000
00000000
00000000
00000000
00003001
00001000
00000002
00000000
00000000
00000000
00000000
00000000
00000000
00000000
,
00000000
00000000
00000000
00000000
00000000
00000000
00010003
00000001
00010000
00000000
00000001
00000000
00000010
00000000
00000100
00000000
,
00010000
00002000
00000000
00000000
00013000
00000000
00000100
00000000
,
00001000
00000010
00000100
00010000
00000100
00000010
00010000
00000001
,
00000010
00000000
00000100
00000000
00001000
00000000
00000000
00000000
00010000
00000000
00000000
00010000
00000000
00000000
00010000
00000000
,
00001000
10000000
01000000
00100000
01000000
10000000
00001000
00010000
,
00010000
00011000
00000000
00000000
00001000
00000000
00010000
00000000
,
00000100
00000000
00010000
00000000
00000000
00010000
00000000
00000000
00010000
00000000
00000001
00000000
00000010
00000000
00000100
00000000
,
00000010
00000001
00001001
00000000
00001000
00000000
00000100
00010000
,
00001000
00010000
00000001
00000100
00001000
00000100
00000001
00010000
,
00011000
00000000
00001000
00000000
00000000
01000000
00000000
00000000
00010000
00000000
00000000
01000000
00000000
00000000
00001000
00000000
,
00010000
00000000
00000000
00000000
00001000
00000000
01000000
00000000
00100000
00000000
00000000
00100000
00000000
00000000
00100000
00000000
,
00000000
00000000
01000000
00000000
00000000
00001000
00000000
00000000
00100000
00000000
00000000
00001000
00000000
00000000
00010000
00000000
,
00001000
00000000
10000000
01000000
00010000
01000000
10000000
00001000
,
00000000
10000000
01000000
00100000
00001000
00000100
00000010
00000001
,
00000100
00001000
00000100
00000001
00000100
00000010
00010000
01000000
,
00100000
10000000
01000000
00010000
01000000
10000000
00001000
00100000
,
00001000
00010000
00000100
00010000
00000001
00000010
00000100
00010000
,
00011000
00000000
00000000
00011000
00000000
00000000
00000000
00000000
00000000
00000000
00000000
00000000
00000000
00000000
00000000
00000000
,
00010000
00000000
00000000
00001000
00000000
00000000
01000000
00000000
,
01100000
00000000
00000000
01100000
00000000
00000000
00100000
00000000
00000000
00000000
00000000
00000000
00000000
00000000
00000000
00000000
,
10000000
01000000
00100000
00001000
00000100
00000010
00000001
00010000
,
00001000
00000000
00000000
00011000
00000000
00000000
00000000
00000000
00001000
00000000
00000000
00010000
00000000
00000000
00000020
00000000
,
00000000
00000000
00000000
00000000
00000000
00000000
00000130
00000000
00000000
00000001
00000000
00000000
00010000
00000000
00001000
00000000
,
00010000
00000000
00000000
00000100
00000000
00000000
00000000
00000000
00010000
00000000
00000001
00000000
00000100
00000000
00000010
00000000
,
00010000
01000000
00100000
10000000
01000000
00100000
00001000
00010000
,
00011000
00000000
00000000
00011000
00000000
00000000
00010000
00000000
00000000
00000100
00000000
00000000
00001000
00000000
00000100
00000000
,
00010000
00000000
00000000
00000001
00000000
00000000
00000100
00000000
00000000
00000010
00000000
00000000
00010000
00000000
00000100
00000000
,
00010000
00000000
00000000
00010100
00000000
00000000
00000100
00000000
00000000
00001000
00000000
00000000
00000001
00000000
00001000
00000000
,
00000001
00000100
00010000
00000100
00000001
00010000
00000100
00010000
,
00011000
00000000
00000000
00011000
00000000
00000000
00000000
00000000
01100000
00000000
00000000
00000000
01100000
00000000
00000000
00000000
,
10010000
00000000
00000000
10010000
00000000
00000000
00000000
00000000
00011000
00000000
00000000
00000000
00000000
00000000
00000000
00000000
,
00011000
00000000
00000000
00011000
00000000
00000000
00001000
00000000
10000000
00000000
00100000
00000000
01000000
00000000
00001000
00000000
,
00010000
00000000
00011000
00000000
00000000
00010100
00000000
00000000
00001100
00000000
00000000
00001001
00000000
00000000
00000001
00000000
,
00000110
00000000
00000000
00000110
00000000
00000000
00000000
00000000
00000000
00000000
00000000
00000000
00000000
00000000
00000000
00000000
,
00001001
00000000
00000000
00001001
00000000
00000000
00000000
00000000
00000000
00000000
00000000
00000000
00000000
00000000
00000000
00000000
,
00011000
00000000
00000000
00011000
00000000
00000000
00000000
00000000
00000000
00000000
00000000
00000000
00000000
00000000
00000000
00000000
,
02100000
00000000
00000000
00000000
00000000
00000000
00000000
00000000
00100000
00000000
00000000
00100000
00000000
00000000
03100000
00000000
,
10010000
00000000
00000000
10010000
00000000
00000000
00000000
00000000
00000000
00000000
00000000
00000000
00000000
00000000
00000000
00000000
,
00101000
00000000
00000000
00101000
00000000
00000000
00000000
00000000
00000000
00000000
00000000
00000000
00000000
00000000
00000000
00000000
,
00011000
00000000
00000000
00011000
00000000
00000000
00000000
00000000
00000000
00000000
00000000
00000000
00000000
00000000
00000000
00000000
,
00000120
00000000
00000000
00000000
00000000
00000000
00000000
00000000
00000100
00000000
00000000
00000100
00000000
00000000
00000130
00000000
,
00002002
00000000
00000000
00003003
,
00000001
00000100
00001000
00000100
00000001
00000100
00010000
00000100
,
00000001
00010000
00001000
00001000
00100000
00100000
00010000
10000000
,
00010000
00100000
10000000
00100000
00010000
10000000
00100000
01000000
,
00001000
00001000
00010000
00010000
00000100
00001000
00000010
00000100
,
00000001
00000010
00001000
00000010
00000001
00010000
00000100
00001000
,
00000010
00000010
00010000
00010000
00000001
00000100
00000010
00000100
,
00000001
00000100
00010000
01000000
10000000
00010000
10000000
01000000
,
00001000
00000000
00000100
00000000
00000001
00000000
00001000
00000000
00000001
00000000
00010000
00002000
00000000
00000000
00000000
00000000
,
10003000
00100000
00010000
00100000
10000000
00100000
00001000
00100000
,
10000000
00001000
00010000
00010000
00000100
00000100
00001000
00000001
,
00001000
00000100
00000001
00000100
00001000
00000010
00000100
00000010
,
00010000
00000100
00001000
00000100
00010000
00001000
10000000
01000000
,
00100000
01000000
10000000
00001000
01000000
00001000
10000000
00010000
,
00100000
00010000
10000000
10000000
00010000
00010000
10000000
01000000
,
00001000
00000100
00000001
00001000
00000001
00010000
00000100
00000000
,
00010100
00000000
00000000
00000000
00000000
00000000
00000000
00000000
00011000
00000000
00000000
00011000
00000000
00000000
01001000
00000000
,
01100000
00000000
00000000
01100000
00000000
00000000
00000000
00000000
00000000
00000000
00000000
00000000
10000000
00001000
00000000
01001000
,
00000000
00000000
00000000
00000000
11000000
00000000
00000000
00110000
00000000
00000000
10001000
00000000
00000000
00000000
10001000
00000000
,
00000000
00000000
00000000
00000000
00011000
00000000
00000000
00010100
00000000
00000000
00001001
00000000
00000000
00000101
00000000
00000000
,
00000001
00010000
00000000
00010100
00000000
00000000
00000100
00000000
00010000
00001000
00000000
00001000
00000000
00000000
01000000
00000000
,
01100000
00000000
00000000
01100000
00000000
00000000
00000000
00000000
00000000
00000000
00000000
00000000
00000000
00000000
00000000
00000000
;

//---------------dance-double - ----------------
#NOTES:
     dance-double:
     :
     Challenge:
     17:
     0.855,0.885,0.473,0.184,1.000:
00000001
00000010
00000001
00001000
,
00000010
00010000
00000010
00010000
,
00001000
10000000
01000000
00100000
,
00010000
00000000
00000000
00000000
10000000
00000000
01000000
10000000
01000000
10000000
00100000
01000000
00100000
01000000
00001000
00000000
,
00010000
00000000
00000010
00010000
00000010
00000000
00010000
00000000
00000001
00000000
00000100
00000010
00000000
00000010
00000100
00000000
,
00000001
00000010
00000001
00000010
00000001
00000100
00000010
00000100
00000010
00010000
00000100
00010000
00000100
00010000
00001000
00010000
,
00001000
00000000
10000000
00000000
01000000
10000000
00010000
00000000
01000000
00001000
00000000
00001000
01000000
00000000
00010000
10000000
,
00010000
10000000
01000000
00100000
00010000
00100000
00010000
00100000
00001000
00010000
00000000
00000010
00000000
00000100
00000000
00000010
,
00000000
00000000
00001000
00000001
00001000
00000000
00000100
00000000
00010000
00000000
00001000
00010000
00000000
00010000
00001000
00000000
,
00100000
00000000
00010000
00000000
10000000
00100000
00000000
10000000
00001000
00010000
00001000
00010000
00000100
00001000
00000100
00001000
,
00000001
00000010
00000100
00010000
00001000
00000000
00000000
00000000
00010000
00000000
00000000
00000000
00001000
01000000
00001000
01000000
,
00001000
10000000
01000000
00100000
00010000
00100000
01000000
10000000
00001000
00100000
00001000
00010000
00000100
00010000
00000100
00001000
,
00000010
00000000
00001000
00000000
00000100
00010000
00000000
00000100
00010000
00000000
00000001
00001000
00000000
00000001
00001000
00000000
,
00000010
00000000
00000000
00000000
00001000
00000000
00000100
00000000
00010000
00000010
00000000
00010000
00000010
00000000
00010000
00000000
,
00001000
00000000
10000000
00000000
00100000
01000000
00000000
00100000
01000000
00000000
00001000
01000000
00000000
00001000
01000000
00000000
,
00010000
00000000
00000000
00000000
00000000
10000000
01000000
00100000
00010000
00100000
01000000
10000000
00001000
00100000
00001000
00100000
,
00000000
00000000
00000010
00001000
00000010
00001000
00000001
00000010
00000100
00000010
00000001
00010000
00000100
00001000
00000100
00010000
,
00000000
00001000
00100000
00001000
00100000
00001000
10000000
01000000
00100000
01000000
10000000
00001000
01000000
00001000
00010000
00001000
,
01000000
00001000
00010000
00000010
00001000
00000010
00010000
00000001
00000010
00000100
00001000
00000100
00000010
00000001
00001000
00000001
,
00000000
00000010
00000100
00010000
00001000
00010000
00100000
01000000
10000000
00001000
00000000
00001000
01000000
00000000
01000000
00000000
,
01100000
00000000
00000000
02002000
00000000
00000000
00000000
00000000
00000000
00000000
00000000
00000000
03003000
00000000
00000000
00000000
,
00011000
00000000
00000000
00000000
00000000
00000000
00000110
00000000
00000000
00000000
00000000
00000000
00000100
00000001
00000100
00000010
,
00000100
00000000
00000000
00010010
00000000
00000000
00011000
00000000
00000000
00000000
00000000
00000000
00000000
00000000
00000000
00000000
,
10000000
00000000
01000000
00000000
00001000
00000000
00000100
00000000
00000001
00000000
00000100
00000000
00001000
00000010
00001000
00000010
,
00000100
00000000
00000000
00010010
00000000
00000000
00000000
00000000
00010000
00000000
00000100
00010000
00000000
00000100
00010000
00000200
,
00000000
00000000
00000000
00000000
00000000
00000000
00010300
00000000
00000000
00000001
00000000
00000000
00000010
00000100
00000010
00000100
,
00000010
00000000
00000000
00010010
00000000
00000000
00000000
00000000
00000001
00000000
00000100
00000000
00010000
00000000
01000000
00000000
,
10000000
00000000
01000000
00000000
00010000
00000000
10000000
00000000
00001000
00000000
00010000
00000000
00000100
00010000
00000100
00010000
,
00001000
00000000
00000000
00011000
00000000
00000000
00001000
00000000
00000000
00010000
00000000
00000000
00000100
00000000
00001000
00000000
,
00000002
00000000
00000000
00001000
00000000
00000000
00020003
00000000
00000000
00000100
00000000
00000000
00030100
00000000
00010000
00000000
,
00011000
00000000
00000000
01001000
00000000
00000000
02000000
00000000
00000000
00100000
00000000
00000000
03100000
00000000
01000000
00000000
,
00010000
10000000
00010000
10000000
00100000
01000000
00100000
01000000
00001000
01000000
00001000
00100000
00001000
00100000
00001000
00000000
,
00011000
00000000
00000000
00011000
00000000
00000000
00000000
00000000
00010100
00000000
00000000
00000000
00000110
00000000
00000000
00000000
,
00001001
00000000
00000000
00001001
00000000
00000000
00000000
00000000
00011000
00000000
00000000
00000000
00000000
00000000
00000000
00000000
,
00011000
00000000
00010000
00000100
00010000
00000100
00010000
00001000
00010000
00001000
10000000
01000000
00100000
00010000
00100000
01000000
,
10000000
00000000
10100000
00000000
00000000
01100000
00000000
00000000
01001000
00000000
00000000
00011000
00000000
00000000
00010100
00000000
,
00001100
00000000
00000000
00002200
00000000
00000000
00000000
00000000
00000000
00000000
00000000
00000000
00003300
00000000
00000000
00000000
,
00011000
00000000
00000000
00022000
00000000
00000000
00000000
00000000
00000000
00000000
00000000
00000000
00033000
00000000
00000000
00000000
,
01010000
00000000
00000000
02020000
00000000
00000000
00000000
00000000
00000000
00000000
00000000
00000000
03030000
00000000
00000000
00000000
,
00012000
00000000
00000000
00000000
00000000
00000000
00000000
00000000
00013000
00000000
00000000
00011000
00000000
00001000
01000000
00100000
,
01000000
00000000
00000000
02200000
00000000
00000000
00000000
00000000
00000000
00000000
00000000
00000000
03300000
00000000
00000000
00000000
,
00011000
00000000
00000000
00022000
00000000
00000000
00000000
00000000
00000000
00000000
00000000
00000000
00033000
00000000
00000000
00000000
,
00000110
00000000
00000000
00000220
00000000
00000000
00000000
00000000
00000000
00000000
00000000
00000000
00000330
00000000
00000000
00000000
,
00021000
00000000
00000000
00000000
00000000
00000000
00000000
00000000
00031000
00000000
00000000
00011000
00000000
00010000
00000010
00000100
,
00000020
00000000
00000000
00000000
,
00010030
00001000
00010000
00000100
00010000
00000100
00010000
00001000
00010000
00000010
00010000
00000010
00010000
00000010
00001000
00000001
,
00010000
00001000
00010000
00001000
00100000
00000000
00010000
00100000
00000000
00000000
00000000
00000000
01000000
00001000
01000000
00100000
,
00010000
00001000
00010000
00100000
01000000
00010000
00001000
00010000
01000000
00100000
00001000
00100000
01000000
00100000
00010000
00100000
,
00100000
00010000
10000000
00010000
10000000
00100000
00000000
01000000
00010000
00100000
01000000
10000000
00010000
00100000
01000000
10000000
,
00010000
01000000
00100000
01000000
00010000
00000000
00000000
00100000
01000000
00100000
00010000
00100000
01000000
10000000
00010000
01000000
,
00100000
00000000
00000000
10000000
00010000
00000000
10000000
00010000
00000000
10000000
00010000
00000000
10000000
00010000
00000000
00000000
,
10000000
01000000
00010000
01000000
10000000
01000000
00010000
01000000
10000000
00100000
00010000
00100000
10000000
00100000
00010000
00100000
,
01000000
00010000
00100000
00001000
00100000
00010000
01000000
00001000
00000000
01000000
00001000
00010000
00100000
01000000
00100000
00000000
,
01000000
00001000
00100000
00010000
00100000
00010000
00100000
00001000
01000000
00001000
00100000
00010000
00100000
00010000
00100000
00001000
,
01000000
00001000
00100000
00010000
00100000
00001000
01000000
00100000
00000000
00000000
00000000
00000000
01000000
00001000
01000000
00100000
,
00001000
00100000
01000000
00010000
00100000
00010000
00100000
00001000
00010000
01000000
00010000
00001000
01000000
00001000
01000000
00001000
,
00100000
00001000
00000100
00001000
00100000
00000000
00000100
00010000
00001000
00010000
00000100
00100000
00010000
00100000
00010000
00000000
,
00100000
00010000
00001000
00000100
00100000
00000000
00001000
00100000
00010000
00100000
00000100
00001000
00010000
00100000
00000100
00010000
,
00000100
00100000
00000000
00010000
00001000
00000000
00010000
00001000
00000000
00010000
00001000
00000000
00010000
00001000
00000000
00000000
,
00000100
00010000
00000100
00010000
00001000
00100000
00001000
00100000
00010000
00001000
00010000
00001000
00000100
00010000
00100000
00010000
,
00000010
00000100
00001000
00010000
00000010
00000100
00001000
00010000
00000010
00001000
00000000
00001000
00000010
00000100
00001000
00000000
,
00010010
00000000
00010000
00000010
00010000
00000000
00000100
00000000
00001000
00000000
00000010
00000000
00010000
00001000
00000000
00011000
,
00000000
00000000
00000000
00000000
00010010
00000000
00000000
00001100
00000000
00000000
00010010
00000000
00000000
00000000
00010010
00000000
,
00000000
00000000
00000000
00000000
00000110
00000000
00000000
00011000
00000000
00000000
00000110
00000000
00000000
00010010
00000000
00000000
,
00001000
00000001
00000000
00001001
00000000
00000000
00000001
00001000
00000010
00001000
00000000
00001010
00000000
00000000
00000101
00000000
,
00001001
00000000
00000000
00001001
00000000
00000000
00000000
00000000
00000000
00000000
00000000
00000000
00000000
00000000
00000000
00000000
;

//---------------dance-double - ----------------
#NOTES:
     dance-double:
     :
     Easy:
     5:
     0.250,0.286,0.158,0.053,0.000:
10000000
00010000
10000000
00010000
,
01000000
00001000
01000000
00001000
,
00010000
00001000
00020000
00000000
,
00000000
00000000
00032000
00000000
,
00013000
00000000
00001000
00000000
,
00100000
00001000
00100000
00001000
,
00010000
00000100
00010000
00000100
,
00010000
00000001
00000010
00000100
,
00001000
00000000
00000100
00000000
,
00001000
00000001
00001000
00000001
,
00000010
00000100
00000000
00010000
,
00000100
00010000
00000100
00010000
,
00001000
00100000
00010000
00100000
,
00010000
00000000
10000000
00000000
,
00010000
10000000
01000000
10000000
,
01000000
00000000
10000000
01000000
,
00100000
00010000
00100000
00001000
,
00100000
00001000
00010000
00000001
,
00000010
00000100
00001000
00000010
,
00000200
00000000
00000000
00000000
,
00000310
00000000
00000000
00000000
,
00000000
00000000
00000000
00000000
,
00000110
00000000
00000000
00000000
,
00000000
00000000
00000000
00000000
,
00011000
00000000
00000000
00000000
,
00000000
00000000
00000000
00000000
,
01100000
00000000
00000000
00000000
,
00000000
00000000
00000000
00000000
,
00010000
10000000
00010000
10000000
,
00010000
10000000
01000000
00100000
,
00001000
01000000
00001000
01000000
,
00001000
00010000
00000010
00000100
,
00000010
00001000
00000100
00000010
,
00000001
00001000
00000001
00001000
,
00000001
00000010
00000100
00010000
,
00002000
00000000
00000000
00000000
,
00013000
00000000
00000000
00000000
,
00000110
00000000
00000000
00000000
,
00011000
00000000
00000000
00000000
,
01100000
00000000
01000000
00000000
,
10010000
00000000
00000000
00000000
,
10010000
00000000
00000000
00000000
,
00011000
00000000
00000000
00000000
,
00001001
00000000
00000100
00000000
,
00000110
00000000
00000000
00000000
,
00000100
00010000
00001000
00010000
,
00000100
00001000
00000100
00010000
,
00000001
00000010
00000100
00010000
,
00001000
01000000
00100000
10000000
,
00001000
00100000
00001000
00010000
,
00001000
00100000
00001000
00010000
,
00001000
10000000
01000000
00100000
,
00001000
00010000
00000010
00000100
,
00000001
00010000
00001000
00010000
,
00000010
00010000
00000010
00001000
,
00000010
00010000
00000010
00001000
,
00000100
00001000
00000100
00010000
,
00001000
00100000
00010000
00100000
,
00001000
00100000
00010000
00100000
,
00001000
00010000
00001000
00010000
,
00011000
00000000
00000000
00000000
,
00000110
00000000
00000000
00001001
,
00000000
00001001
00000000
00000000
,
00000000
00011000
00000000
00000000
,
00000000
00000000
01100000
00000000
,
20020000
00000000
00000000
30030000
00000000
00000000
00000000
00000000
;

//---------------dance-single - ----------------
#NOTES:
     dance-single:
     :
     Beginner:
     3:
     0.130,0.199,0.140,0.000,0.000:
1000
0000
0000
0000
,
0000
0000
0000
0000
,
0001
0000
0000
0000
,
0000
0000
0000
0000
,
1001
0000
0000
0000
,
0010
0000
0000
0000
,
0100
0000
0000
0000
,
0010
0000
0000
0000
,
0100
0000
0000
0000
,
0001
0000
0000
0000
,
0010
0000
0000
0000
,
0001
0000
0000
0000
,
1001
0000
1000
0000
,
1000
0000
0000
0000
,
0001
0000
0001
0000
,
0001
0000
0000
0000
,
1000
0000
0100
0000
,
1000
0000
0001
0000
,
1000
0000
0100
0000
,
1000
0000
0000
0000
,
1001
0000
0000
0000
,
0000
0000
0000
0000
,
0110
0000
0000
0000
,
0000
0000
0000
0000
,
1001
0000
0000
0000
,
0000
0000
0000
0000
,
1001
0000
0000
0000
,
0000
0000
0000
0000
,
0001
0000
0100
0000
,
0001
0000
0100
0000
,
0001
0000
1000
0000
,
0001
0000
1000
0000
,
1001
0000
0010
0000
,
0110
0000
0100
0000
,
0010
0000
0100
0000
,
0010
0000
0000
0000
,
1001
0000
0000
0000
,
1001
0000
0000
0000
,
1001
0000
0000
0000
,
0001
0000
1000
0000
,
1001
0000
0000
0000
,
0001
0000
0000
0000
,
1000
0000
0000
0000
,
0001
0000
1000
0000
,
1001
0000
0000
0000
,
0010
0000
0100
0000
,
0010
0000
0000
0000
,
1000
0000
0100
0000
,
1000
0000
0000
0000
,
0001
0000
0010
0000
,
0001
0000
0001
0000
,
1000
0000
0010
0000
,
1000
0000
0010
0000
,
0100
0000
0100
0000
,
0100
0000
0001
0000
,
1000
0000
0001
0000
,
1000
0000
0010
0000
,
0100
0000
0100
0000
,
0100
0000
0001
0000
,
0010
0000
0001
0000
,
0010
0000
0000
0000
,
1001
0000
0000
0100
,
0000
0000
0000
0000
,
0000
0110
0000
0000
,
0010
0000
0100
0000
,
0110
0000
0000
0000
;
