#TITLE:Shake you*;
#SUBTITLE:;
#ARTIST:Yun*chi;
#TITLETRANSLIT:;
#SUBTITLETRANSLIT:;
#ARTISTTRANSLIT:;
#CREDIT:DigiMindAxel;
#BANNER:Shake you.png;
#BACKGROUND:Shake you-bg.png;
#LYRICSPATH:Shake you.lrc;
#CDTITLE:DigiMindAxel original simfile.png;
#MUSIC:Shake you.ogg;
#METERTYPE:DDR X;
#OFFSET:-0.295;
#SAMPLESTART:60.763;
#SAMPLELENGTH:12.000;
#SELECTABLE:YES;
#BPMS:0.000=127.000;
#STOPS:;
#BGCHANGES:-1.000=Shake you.avi=1.000=1=1=0,
99999=-nosongbg-=1.000=0=0=0 // don't automatically add -songbackground-
;

//---------------dance-single - ----------------
#NOTES:
     dance-single:
     :
     Easy:
     3:
     0.166,0.203,0.018,0.036,0.000:
0000
0000
0000
0000
,
0000
0000
0000
0000
,
0000
0000
0000
0000
,
0000
0000
0000
0000
,
1000
0000
0100
0000
,
0010
0000
0001
0000
,
1000
0000
0100
0000
,
0020
0000
0000
0000
,
0031
0000
0001
0000
,
1000
0000
1000
0000
,
0001
0000
0001
0000
,
0010
0000
0010
0000
,
0100
0000
0100
0000
,
1000
0000
1000
0000
,
0010
0000
0010
0000
,
0200
0000
0000
0000
,
0310
0010
0010
0000
,
0100
0100
0100
0000
,
0001
0001
0001
0000
,
1000
1000
1000
0000
,
0001
0001
0001
0000
,
0010
0010
0010
0000
,
0100
0000
0100
0000
,
1000
0000
0000
0000
0000
0000
0000
1001
,
0000
0000
0000
0000
0000
0000
0000
0001
,
0000
0000
0000
0000
0000
0000
0000
0010
,
0000
0000
0000
0000
0000
0000
0000
0100
,
0000
0000
0000
0000
,
1000
0000
0100
0000
,
1000
0000
0100
0000
,
0010
0000
0000
0000
,
1001
0000
0000
0000
,
0001
0000
0100
0010
,
0100
0000
0001
1000
,
0001
0000
1000
0010
,
1000
0000
0001
0000
,
0100
0010
0100
0000
,
0001
0000
0010
0000
,
0100
1000
0200
0000
,
1300
0000
0000
0000
,
0010
0100
0010
0000
,
1000
0001
1000
0000
,
0001
0100
0001
0000
,
0010
0100
0010
0000
,
0001
1000
0001
0000
,
1000
0100
1000
0000
,
0010
0100
0010
0100
,
0020
0000
0000
0000
,
0130
0001
0010
0000
,
0001
0010
0100
0000
,
0010
0100
1000
0000
,
0010
1000
0001
0100
,
0001
0010
0100
0000
,
0010
0001
1000
0000
,
0010
0100
0001
0000
,
0100
0010
1000
0100
;

//---------------dance-single - ----------------
#NOTES:
     dance-single:
     :
     Medium:
     7:
     0.304,0.331,0.018,0.082,0.009:
0000
0000
0000
0000
,
0000
0000
0000
0000
,
0000
0000
0000
0000
,
0000
0000
0000
0000
,
1000
0000
0100
0000
0010
0001
0100
0000
,
0001
0000
0100
0000
0010
1000
0100
0000
,
0010
0000
0001
0000
1000
0100
0010
0000
,
0002
0000
0000
0000
,
1003
0010
1000
0010
,
1000
0001
1000
0001
,
0010
0001
0010
0001
,
0100
0010
0100
0000
,
0001
1000
0001
1000
,
0100
1000
0100
1000
,
0010
0100
0010
0100
,
0002
0000
0000
0000
,
1003
1000
0010
0010
,
0100
0100
0001
0001
,
1000
1000
0010
0010
,
0100
0100
0001
1000
,
0100
0100
0010
0010
,
0100
0100
0010
0010
,
0002
2000
3003
0000
0001
1000
0001
1000
,
0000
0000
0000
0100
0000
0100
0000
0110
,
0000
0000
0000
0000
0000
0000
0000
0000
0000
0000
0000
0000
0000
0000
0000
0200
,
0000
0000
0000
0000
0000
0001
0000
0302
,
0000
0000
0000
0000
0000
1000
0000
2003
,
0000
0000
0000
0010
0000
3010
0000
0010
,
0100
0001
0010
0100
,
0010
0001
1000
0100
,
0010
0000
0000
0000
,
0110
0000
0000
0000
,
0100
1000
0100
0000
0100
1000
0100
0000
,
0010
0100
0010
0000
0010
0100
0010
0000
,
0001
0010
0001
0000
0001
0010
0001
0000
,
0100
0010
0100
0000
0001
0000
1000
0000
,
0010
1000
0010
0000
0010
1000
0010
0000
,
0100
0010
0100
0000
0100
0010
0100
0000
,
0001
0100
0001
0000
0001
0100
0001
0000
,
2000
0000
0000
0000
,
3001
0010
0001
0000
0001
0010
0001
0000
,
0100
0010
0100
0000
0100
0010
0100
0000
,
0001
1000
0001
0000
0001
1000
0001
0000
,
1000
0100
1000
0000
1000
0100
1000
0000
,
0010
0100
0010
0000
0010
0100
0010
0000
,
1000
0010
1000
0000
1000
0010
1000
0000
,
0001
1000
0001
0000
0001
1000
0001
0000
,
2000
0000
0000
0000
,
3001
0000
1000
0000
0010
1000
0100
0000
,
0010
0000
0001
0000
0100
0001
0010
0000
,
0100
0000
1000
0000
0001
0010
0100
0000
,
0010
0001
0010
0000
0100
0010
0100
0000
,
1000
0000
0010
0000
0100
0001
0010
0000
,
0100
0000
1000
0000
0001
0010
0100
0000
,
1000
0000
0010
0000
0100
0001
0010
0000
,
0100
0000
1000
0000
0100
0000
0000
0000
0010
0000
0100
0000
0001
0000
0000
0001
;

//---------------dance-single - ----------------
#NOTES:
     dance-single:
     :
     Hard:
     10:
     0.440,0.458,0.091,0.055,0.105:
0000
0000
0000
0000
,
0000
0000
0000
0000
,
0000
0000
0000
0000
,
0000
0000
0000
0000
,
1000
0010
0001
0010
1000
0100
0001
0100
,
1000
1000
0010
0010
0100
0100
0001
0001
,
1000
0010
0001
0010
1000
0100
0001
0100
,
1000
0100
0010
0001
,
0110
0000
0100
1000
0100
1000
0010
0000
,
0100
0000
0001
0010
0100
0000
0010
0001
,
1000
0000
0010
0100
0010
0100
0001
0010
,
0100
0001
0100
1000
,
1001
0000
0010
0100
0010
0100
1000
0000
,
0001
0000
0100
0001
0010
0000
0001
0010
,
0100
0000
1000
0001
1000
0001
0010
0100
,
0000
1000
0000
0000
0000
0000
0000
0000
,
0100
0100
1000
1000
0001
0010
0100
1000
,
0001
0001
0010
0010
0001
1000
0010
0100
,
0001
0001
1000
1000
0100
0010
0001
1000
,
0100
0100
1000
1000
0010
0100
0001
0100
,
0010
0010
1000
1000
0001
0010
0100
1000
,
0001
0001
0100
0100
0001
0010
0100
0010
,
0011
1001
0000
1000
0100
0001
0100
1000
,
0000
0000
0000
1100
0000
0110
0000
0012
,
0000
0000
0000
0000
1000
0000
0000
0000
0000
0000
0000
0000
1003
0000
0000
0200
,
0000
0000
1000
0000
0000
1300
0000
1002
,
0000
0000
0010
0000
0000
0013
0000
0210
,
0000
0000
0000
1000
0000
1300
0000
1000
,
0001
0010
0100
0000
0010
0100
1000
0000
,
0010
0100
0001
0000
0100
0010
1000
0001
,
0000
0001
0000
0001
0000
0001
0000
0001
,
0000
0000
0000
0000
,
1000
0000
0010
0000
0001
0000
0010
0000
1000
0000
0000
0100
0000
0010
0000
0001
,
0000
0000
1000
0000
0010
0000
0001
0000
0010
0000
0000
1000
0000
0100
0000
0010
,
0000
0001
0010
1000
0010
0001
0010
1000
,
0010
0001
1000
0100
0010
0001
0100
0001
,
1000
0000
0000
1000
0000
0000
0100
0000
0010
0000
0000
0010
0000
0000
0001
0000
,
1000
0000
0000
0100
0000
0000
0001
0000
0100
0000
0000
0000
1000
0000
0000
0000
,
0010
0100
0010
0100
0001
1000
0010
0100
,
0002
0000
0000
1003
,
0001
0000
0010
0000
1000
0000
0010
0000
0001
0000
0000
0100
0000
0010
0000
1000
,
0000
0000
0001
0000
0010
0000
1000
0000
0010
0000
0000
0001
0000
0010
0000
0100
,
0000
0000
1000
0000
0010
0000
0001
0000
0010
0000
0000
1000
0000
0100
0000
0010
,
0000
0001
0100
0010
0100
0001
1000
0100
,
0010
0000
0000
0010
0000
0000
0001
0000
0100
0000
0000
0100
0000
0000
0010
0000
,
1000
0000
0000
0010
0000
0000
0001
0000
0010
0000
0000
0000
1000
0000
0000
0000
,
0010
0100
0001
0010
0001
0100
0010
0000
,
2000
0000
0000
3001
,
1000
0010
0001
0010
1000
0100
0010
0001
,
1000
1000
0001
0001
1000
0010
0100
0001
,
1000
0100
0001
0100
1000
0010
0100
0001
,
1000
1000
0001
0001
1000
0010
0110
0010
,
1000
0010
0001
0010
1000
0100
0010
0001
,
0100
0100
0001
0001
1000
0001
0010
0100
,
1000
0010
0001
0010
1000
0100
0010
0100
,
1000
0000
1000
0000
0010
0000
0010
0000
0100
0000
0100
0000
0010
0000
1000
0001
;

//---------------dance-single - ----------------
#NOTES:
     dance-single:
     :
     Challenge:
     13:
     0.575,0.712,0.100,0.064,0.482:
0000
0000
0000
0000
,
0000
0000
0000
0000
,
0000
0000
0000
0000
,
0000
0000
0000
0000
,
0001
0000
1000
0100
0010
0000
0010
0000
0100
0000
1000
0001
0010
0000
0010
0000
,
0100
1000
0100
0000
1000
0001
1000
0000
0001
0100
0001
0000
0100
0010
0100
0000
,
0001
0000
0010
0100
1000
0000
1000
0000
0001
0000
0100
0001
0010
0000
0010
0000
,
0100
0000
0000
0100
1000
0000
0000
1000
0100
0000
0000
0100
0010
0000
0000
0000
,
1001
0000
0000
0000
0001
0000
0100
0000
0001
0000
1000
0100
0000
1000
0000
0020
,
0000
0030
0100
0000
0001
0010
0100
1000
,
0010
0000
1000
0001
0010
1000
0010
0001
,
0000
0000
0101
0000
0000
0000
1100
0000
0000
0000
0100
1000
0000
0100
0000
0010
,
0000
0000
0000
0000
0001
0000
1000
0000
0100
0000
1000
0001
0000
0100
0000
0002
,
0000
0003
0010
0000
0100
1000
0010
0100
,
0001
0000
1000
0001
1000
0100
0001
0100
,
0000
1001
0000
1000
0000
0000
0000
0000
,
1001
1000
0001
0001
1000
0010
0001
0010
,
1000
1000
0001
0001
0100
0010
0001
0010
,
0100
0100
0001
0001
1000
0010
0100
0001
,
1000
0000
1000
0000
0001
0000
0001
0000
1000
0010
1000
0010
0100
0001
0010
0100
,
1000
1000
0001
0001
1000
0100
0001
0100
,
1000
1000
0001
0001
0010
0100
0010
0001
,
1001
0000
1010
0000
0000
0000
0010
0100
0001
0000
0010
0000
0100
0000
1000
0000
,
0010
0100
0010
0100
0001
0010
0001
0010
0100
1000
0010
0100
0001
0010
0200
0000
,
0000
0000
0000
0000
1000
0000
0000
0000
0000
0000
0000
0000
1300
0000
0000
0020
,
0000
0000
0100
0000
0000
0130
0000
0210
,
0000
0000
0010
0000
0000
0310
0000
0012
,
0000
0000
0000
1000
0000
1000
0000
1003
,
0001
0010
1000
0010
0001
1000
0010
1000
,
0001
1000
0100
0010
0100
1000
0010
0100
,
0000
0001
0000
0100
0000
1000
0000
0100
,
0002
0000
0000
1003
,
0001
0000
0100
0000
1000
0000
0100
0000
0001
0000
0010
0100
0000
1000
0000
0001
,
0000
0000
0010
0000
1000
0000
0010
0000
0001
0000
1000
0100
0000
0010
0000
0001
,
0000
0000
0100
0000
1000
0000
0100
0000
0001
0000
0010
0100
0000
1000
0000
0010
,
0000
0000
1000
0000
0010
0000
1000
0000
0001
0010
0001
0010
0100
1000
0100
1000
,
0010
0000
0000
0010
0100
0000
0001
0000
0010
0000
0000
0010
0100
0000
1000
0000
,
0001
0000
0000
0001
1000
0000
0100
0000
0010
0000
0001
0000
0100
0000
0000
0000
,
0001
0000
0100
0000
0010
0000
1000
0001
0010
0000
0100
0000
1000
0000
0001
0000
,
0100
0000
0000
0100
0010
0000
0000
0010
1000
0000
0000
1000
0001
0000
0000
0000
,
1000
0000
0100
0000
0001
0000
0100
0000
1000
0000
0001
0010
0000
0100
0000
1000
,
0000
0000
0010
0000
0001
0000
0010
0000
1000
0000
0001
0100
0000
0010
0000
1000
,
0000
0000
0100
0000
0001
0000
0100
0000
1000
0000
0001
1000
0000
0100
0000
0010
,
0000
0000
0001
0000
1000
0000
0100
0000
0010
0001
0010
0001
0100
0010
0100
0010
,
1000
0000
0000
1000
0001
0000
0010
0000
0100
0000
0000
0100
1000
0000
0001
0000
,
0010
0000
0000
0010
0100
0000
1000
0000
0010
0000
0100
0000
0010
0000
0000
0000
,
1000
0010
0001
0010
1000
0100
0010
0001
,
0100
0000
0000
0000
0000
0000
0000
0100
0010
0000
0000
0010
1000
0000
0000
0000
,
1001
0000
0001
0100
0010
0000
0100
0000
0001
0010
0100
0000
1000
0001
1000
0000
,
0100
1000
0100
0000
0010
0100
0010
0000
0001
1000
0001
1000
0001
1000
0001
0000
,
1000
0000
0010
1000
0100
0000
0010
0000
0001
0100
0001
0000
0010
0100
1000
0000
,
0010
0100
0010
0000
1000
0001
1000
0000
0001
0010
0001
0000
1001
0000
1000
0000
,
0010
0100
0010
1000
0100
0010
0001
0000
0100
0001
0100
0001
1000
0100
0010
0000
,
0001
0100
0001
0000
0010
0100
0010
0000
0001
1000
0001
1000
0100
0010
0001
0000
,
0100
0010
0100
0010
1000
0100
0010
0000
0100
1000
0100
1000
0010
0100
0001
0000
,
0010
0000
0010
0001
0100
0000
0100
0010
1000
0000
1000
0100
0010
0000
0010
0100
;

//---------------dance-double - ----------------
#NOTES:
     dance-double:
     :
     Easy:
     3:
     0.175,0.203,0.036,0.036,0.000:
00000000
00000000
00000000
00000000
,
00000000
00000000
00000000
00000000
,
00000000
00000000
00000000
00000000
,
00000000
00000000
00000000
00000000
,
10000000
00000000
01000000
00000000
,
00100000
00000000
00010000
00000000
,
00100000
00000000
01000000
00000000
,
20000000
00000000
00000000
00000000
,
30010000
00000000
00010000
00000000
,
01000000
00000000
01000000
00000000
,
00100000
00000000
00100000
00000000
,
10000000
00000000
10000000
00000000
,
00001000
00000000
00001000
00000000
,
00010000
00000000
00010000
00000000
,
00000100
00000000
00000100
00000000
,
00000020
00000000
00000000
00000000
,
00000031
00000001
00000001
00000000
,
00010000
00010000
00010000
00000000
,
00001000
00001000
00001000
00000000
,
01000000
01000000
01000000
00000000
,
00100000
00100000
00100000
00000000
,
10000000
10000000
10000000
00000000
,
10010000
00000000
00010000
00000000
,
10010000
00000000
00000000
00000000
00000000
00000000
00000000
10010000
,
00000000
00000000
00000000
00000000
00000000
00000000
00000000
10000000
,
00000000
00000000
00000000
00000000
00000000
00000000
00000000
01000000
,
00000000
00000000
00000000
00000000
00000000
00000000
00000000
00100000
,
00000000
00000000
00000000
00000000
,
00001000
00000000
00010000
00000000
,
00000100
00000000
00000010
00000000
,
00000001
00000000
00000000
00000000
,
00001001
00000000
00000000
00000000
,
00000010
00000001
00000010
00000001
,
00000010
00000000
00000100
00001000
,
00000100
00000000
00010000
00001000
,
00010000
00000000
00100000
01000000
,
10000000
00010000
10000000
00010000
,
00100000
01000000
10000000
00000000
,
00100000
01000000
00200000
00000000
,
01300000
00000000
00000000
00000000
,
10000000
00010000
10000000
00010000
,
10000000
00000000
00100000
01000000
,
00100000
00000000
01000000
00001000
,
01000000
00001000
00010000
00000000
,
00000010
00000100
00000010
00000000
,
00000100
00000001
00000100
00000000
,
00000001
00001000
00000100
00010000
,
00002000
00000000
00000000
00000000
,
00013000
00100000
01000000
00000000
,
10000000
01000000
00100000
00000000
,
00010000
01000000
00001000
00000000
,
00010000
00000010
00000100
00000001
,
00000100
00000010
00010000
00000000
,
00000100
00000010
00000001
00000000
,
00000010
00000100
00010000
00000000
,
00001000
00100000
01000000
00100000
;

//---------------dance-double - ----------------
#NOTES:
     dance-double:
     :
     Medium:
     7:
     0.327,0.331,0.018,0.082,0.009:
00000000
00000000
00000000
00000000
,
00000000
00000000
00000000
00000000
,
00000000
00000000
00000000
00000000
,
00000000
00000000
00000000
00000000
,
10000000
00000000
00010000
00000000
00100000
01000000
10000000
00000000
,
00001000
00000000
00010000
00000000
00000100
00000010
00000001
00000000
,
00000010
00000000
00000100
00000000
00001000
00010000
01000000
00000000
,
00200000
00000000
00000000
00000000
,
10300000
00000000
00010000
00000000
10000000
01000000
10000000
01000000
,
10000000
00000000
01000000
00000000
00100000
00000000
00001000
00010000
,
00001000
00010000
00000010
00000100
,
00000010
00001000
00000001
00000000
,
00000010
00000000
00000100
00000000
00000010
00000001
00000010
00000001
,
00000010
00000001
00000010
00000100
,
00010000
00001000
00010000
00000000
00001000
00000000
00100000
00000000
,
02000000
00000000
00000000
00000000
,
13000000
01000000
10000000
00000000
00010000
10000000
00010000
00000000
,
10000000
01000000
10000000
00000000
00010000
10000000
00010000
00000000
,
01000000
00001000
01000000
00000000
00001000
00010000
00001000
00000000
,
01000000
00001000
01000000
00000000
00001000
00010000
00001000
00000000
,
00010000
00000100
00010000
00000000
00000010
00000100
00000010
00000000
,
00010000
00000100
00010000
00000000
00000010
00000100
00000010
00000000
,
00002000
00000002
00003003
00000000
00001000
00000001
00001000
00000001
,
00000000
00000000
00000000
00000010
00000000
00000010
00000000
00000110
,
00000000
00000000
00000000
00000000
00000000
00000000
00000000
00000000
00000000
00000000
00000000
00000000
00000000
00000000
00000000
00020000
,
00000000
00000000
00000000
00000000
00000000
00100000
00000000
00230000
,
00000000
00000000
00000000
00000000
00000000
01000000
00000000
02300000
,
00000000
00000000
00000000
10000000
00000000
13000000
00000000
10000000
,
00010000
00100000
01000000
00100000
,
00001000
00010000
00001000
00010000
,
00000010
00000000
00000000
00000000
,
00000110
00000000
00000000
00000000
,
00000010
00000001
00000010
00000000
00000010
00000001
00000010
00000000
,
00000100
00000010
00000100
00000000
00000100
00000010
00000100
00000000
,
00010000
00000100
00010000
00000000
00010000
00000100
00010000
00000000
,
00001000
00010000
00001000
00000000
01000000
00000000
00100000
00000000
,
10000000
01000000
10000000
00000000
10000000
01000000
10000000
00000000
,
00010000
10000000
00010000
00000000
00010000
10000000
00010000
00000000
,
00100000
00010000
00100000
00000000
00100000
00010000
00100000
00000000
,
00002000
00000000
00000000
00000000
,
00013000
00001000
00010000
00000000
00000010
00000100
00000010
00000000
,
00010000
00001000
00010000
00000000
00000010
00000100
00000010
00000000
,
00000100
00000001
00000100
00000000
00000001
00001000
00000001
00000000
,
00000100
00000001
00000100
00000000
00000001
00001000
00000001
00000000
,
00010000
00001000
00010000
00000000
00001000
00100000
00001000
00000000
,
00010000
00001000
00010000
00000000
00001000
00100000
00001000
00000000
,
00100000
01000000
00100000
00000000
00010000
10000000
00010000
00000000
,
20000000
00000000
00000000
00000000
,
30010000
00000000
01000000
00000000
10000000
01000000
00010000
00000000
,
00100000
00000000
00001000
00000000
00010000
00000100
00000010
00000000
,
00000100
00000000
00010000
00000000
00000010
00000100
00000001
00000000
,
00000100
00000001
00000100
00000000
00000001
00001000
00000001
00000000
,
00001000
00000000
00000010
00000000
00000001
00000010
00001000
00000000
,
00000100
00000000
00010000
00000000
00001000
00100000
01000000
00000000
,
00100000
00000000
00001000
00000000
01000000
00100000
10000000
00000000
,
00010000
00000000
01000000
00000000
00010000
00000000
00000000
00000000
10000000
00000000
01000000
00000000
00100000
00000000
00000000
00100000
;

//---------------dance-double - ----------------
#NOTES:
     dance-double:
     :
     Hard:
     10:
     0.435,0.559,0.155,0.055,0.105:
00000000
00000000
00000000
00000000
,
00000000
00000000
00000000
00000000
,
00000000
00000000
00000000
00000000
,
00000000
00000000
00000000
00000000
,
10000000
00100000
00000000
01000000
00000000
00001000
00001000
00010000
,
00000000
00000100
00000000
00000010
00000000
00000001
00000001
00001000
,
00000000
00000010
00000000
00001000
00000000
00010000
00010000
00001000
,
01000000
01000000
01000000
01000000
,
10010000
00000000
00010000
01000000
00010000
01000000
10000000
00000000
,
01000000
00000000
00010000
00001000
00000010
00000000
00000100
00000001
,
00000010
00000000
00000001
00000100
00000001
00000100
00001000
00000100
,
00000000
00000001
00000000
00000010
00000000
00000100
00000000
00000000
,
00011000
00000000
00001000
00100000
00001000
00100000
10000000
00000000
,
00100000
00000000
00010000
00001000
00000100
00000000
00000010
00000001
,
00000100
00000000
00000001
00000100
00000001
00000100
00001000
00000100
,
00000000
00000001
00000000
00000000
00000000
00000000
00000000
00000000
,
00010000
00010000
00001000
00001000
00100000
01000000
10000000
01000000
,
00100000
00100000
00001000
00001000
00010000
00000010
00000100
00000001
,
00000010
00000010
00000100
00000100
00001000
00010000
00100000
01000000
,
10000000
10000000
00100000
00100000
10000000
00001000
00100000
00001000
,
00010000
00010000
00000100
00000100
00000010
00000001
00000100
00000010
,
00000100
00000100
00000001
00000001
00000010
00000100
00010000
00001000
,
00011000
01001000
00000000
01000000
00010000
00100000
01000000
10000000
,
00000000
00000000
00000000
11000000
00000000
01100000
00000000
00102000
,
00000000
00000000
00000000
00000000
00010000
00000000
00000000
00000000
00000000
00000000
00000000
00000000
00013000
00000000
00000000
00000020
,
00000000
00000000
00000100
00000000
00000000
00000130
00000000
00000012
,
00000000
00000000
00001000
00000000
00000000
00001003
00000000
00020010
,
00000000
00000000
00000000
00001000
00000000
00031000
00000000
01000000
,
00100000
10000000
01000000
00000000
00100000
00010000
00001000
00000000
,
00000010
00000100
00000001
00000000
00000100
00000001
00010000
00001000
,
00000000
00001000
00000000
00001000
00000000
00001000
00000000
00001000
,
00000000
00000000
00000000
00000000
,
00100000
00000000
01000000
00000000
10000000
00000000
01000000
00000000
00100000
00000000
00000000
00001000
00000000
00010000
00000000
00001000
,
00000000
00000000
01010000
00000000
10000010
00000000
00100100
00000000
10000001
00000000
00000000
01000010
00000000
00010100
00000000
10000010
,
00000000
00000001
00001000
00000100
00001000
00000001
00010000
00000100
,
00010000
00001000
01000000
00100000
10000000
00100000
00010000
00100000
,
10000000
00000000
00000000
10000000
00000000
00000000
01000000
00000000
00100000
00000000
00000000
00100000
00000000
00000000
00001000
00000000
,
00010000
00000000
00000000
00000010
00000000
00000000
00001000
00000000
00000001
00000000
00000000
00000000
00000000
00000000
00000000
00000000
,
00000010
00000100
00000010
00000100
00010000
00001000
01000000
00100000
,
20000000
00000000
00000000
30010000
,
10000000
00000000
01000000
00000000
00100000
00000000
00010000
00000000
01000000
00000000
00000000
00001000
00000000
00010000
00000000
00001000
,
00000000
00000000
00010000
00000000
00000010
00000000
00000100
00000000
00000001
00000000
00000000
00000010
00000000
00000100
00000000
00000010
,
00000000
00000000
00000001
00000000
00001000
00000000
00000100
00000000
00000010
00000000
00000000
00000100
00000000
00010000
00000000
00000100
,
00000000
00010000
00001000
01000000
10000000
01000000
00001000
00100000
,
01000000
00000000
00000000
01000000
00000000
00000000
10000000
00000000
00001000
00000000
00000000
00001000
00000000
00000000
00010000
00000000
,
00000010
00000000
00000000
00000100
00000000
00000000
00000001
00000000
00000010
00000000
00000000
00000000
00000000
00000000
00000000
00000000
,
00000001
00001000
00000010
00000001
00000010
00010000
00001000
00000000
,
02000000
00000000
00000000
03100000
,
10000000
00100000
00010000
00100000
01000000
00001000
00010000
00000100
,
00000010
00000010
00000001
00000001
00001000
00000100
00000001
00000100
,
00000010
00000001
00010000
00001000
00100000
01000000
00100000
00001000
,
01000000
01000000
00100000
00100000
10000000
00010000
10010000
10000000
,
01000000
10000000
00100000
10000000
00010000
01000000
10000000
01000000
,
00001000
00001000
00010000
00010000
00000100
00000010
00000100
00010000
,
00000001
00000100
00000001
00010000
00000001
00000010
00010000
00000010
,
00000001
00000000
00000001
00000000
00001000
00000000
00001000
00000000
00000100
00000000
00000100
00000000
00010000
00000000
00001000
01000000
;

//---------------dance-double - ----------------
#NOTES:
     dance-double:
     :
     Challenge:
     12:
     0.566,0.712,0.109,0.136,0.445:
00000000
00000000
00000000
00000000
,
00000000
00000000
00000000
00000000
,
00000000
00000000
00000000
00000000
,
00000000
00000000
00000000
00000000
,
10000000
00000000
00010000
01000000
00010000
00000000
00010000
00000000
10000000
00000000
01000000
00100000
01000000
00000000
01000000
00000000
,
10000000
01000000
00100000
00000000
00001000
01000000
00001000
00000000
00010000
00001000
00010000
00000000
00000010
00000100
00000001
00000000
,
00000100
00000000
00000010
00001000
00000010
00000000
00000010
00000000
00010000
00000000
00000001
00000010
00000001
00000000
00000001
00000000
,
00000010
00000100
00010000
00001000
,
00011000
00000000
00000000
00000000
00001000
00000000
00010000
00000000
00001000
00000000
10000000
01000000
00000000
10000000
00000000
00200000
,
00000000
00300000
01000000
00000000
00010000
00100000
01000000
10000000
,
00001000
00000000
00010000
00000100
00000010
00000100
00010000
00000001
,
00000000
00000000
00001001
00000000
00000000
00000000
00010010
00000000
00000000
00000000
00010000
00001000
00000000
01000000
00000000
00100000
,
00000000
00000000
00000000
00000000
10000000
00000000
01000000
00000000
10000000
00000000
00010000
01000000
00000000
00010000
00000000
00200000
,
00000000
00300000
00001000
00000000
00010000
00001000
00010000
00000010
,
00000100
00000000
00000001
00001000
00000001
00000010
00000100
00010000
,
00000000
00011000
00000000
00001000
00000000
00000000
00000000
00000000
,
01100000
01000000
00100000
00100000
10000000
00100000
00010000
00100000
,
10000000
10000000
00001000
00001000
00010000
00000100
00000001
00000100
,
00010000
00010000
00000010
00000010
00000100
00000001
00000010
00000100
,
00010000
00000000
00010000
00000000
00001000
00000000
00001000
00000000
10000000
00100000
10000000
00100000
01000000
00010000
00100000
01000000
,
10000000
10000000
00010000
00010000
10000000
01000000
00010000
01000000
,
10000000
10000000
00001000
00001000
00010000
00000010
00000001
00000010
,
00010010
00000000
00010001
00000000
00000000
00000000
00000001
00001000
00000001
00000000
00000010
00000000
00000100
00000000
00001000
00000000
,
00000001
00000100
00000001
00000100
00000010
00010000
00000010
00010000
00001000
00100000
01000000
10000000
01000000
00100000
00002000
00000000
,
00000000
00000000
00000000
00000000
00010000
00000000
00000000
00000000
00000000
00000000
00000000
00000000
00013000
00000000
00000000
00000200
,
00000000
00000000
00000010
00000000
00000000
00000310
00000000
00000012
,
00000000
00000000
00000010
00000000
00000000
00000013
00000000
00010200
,
00000000
00000000
00000000
00010000
00000000
00010000
00000000
00010300
,
00001000
00100000
01000000
00100000
00001000
10000000
00100000
10000000
,
00001000
10000000
01000000
00100000
01000000
10000000
00001000
00010000
,
00000000
00000100
00000000
00000010
00000000
00000001
00000000
00000100
,
00000200
00000000
00000000
00000310
,
00010000
00000000
00001000
00000000
00001000
00000000
01000000
00000000
00010000
00000000
00100000
01000000
00000000
10000000
00000000
00010000
,
00000000
00000000
10000000
00000000
10000000
00000000
01000000
00000000
00100000
00000000
00001000
00010000
00000000
00000010
00000000
00000100
,
00000000
00000000
00000001
00000000
00000001
00000000
00000010
00000000
00000100
00000000
00000010
00000001
00000000
00000100
00000000
00000020
,
00000000
00000000
00010030
00000000
00001000
00000000
00100000
00000000
01000000
10000000
01000000
10000000
00100000
01000000
00100000
01000000
,
00002000
00000000
00000000
00010000
00000000
00000000
00013000
00000000
00000020
00000000
00000000
00000100
00000000
00000000
00000130
00000000
,
00000002
00000000
00000000
00001000
00000000
00000000
00001003
00000000
00000001
00000000
00000000
00000000
00000010
00000000
00000000
00000000
,
00000100
00000000
00010000
00000000
00001000
00000000
01000000
00100000
01000000
00000000
00010000
00000000
00100000
00000000
01000000
00000000
,
00100000
00001000
00010000
00000110
,
00000100
00000000
00000010
00000000
00000010
00000000
00010000
00000000
00001000
00000000
00100000
01000000
00000000
10000000
00000000
00100000
,
00000000
00000000
10000000
00000000
10000000
00000000
00100000
00000000
01000000
00000000
00010000
01000000
00000000
00001000
00000000
00010000
,
00000000
00000000
00000100
00000000
00000100
00000000
00000010
00000000
00000001
00000000
00001000
00000001
00000000
00000100
00000000
00000020
,
00000000
00000000
00001030
00000000
00010000
00000000
01000000
00000000
00100000
10000000
00100000
10000000
01000000
00100000
01000000
00100000
,
00020000
00000000
00000000
01000000
00000000
00000000
01030000
00000000
00002000
00000000
00000000
00010000
00000000
00000000
00013000
00000000
,
00000200
00000000
00000000
00000010
00000000
00000000
00000310
00000000
00001000
00000000
00000000
00000000
00000001
00000000
00000000
00000000
,
00000010
00000001
00000100
00000010
00010000
00000100
00000001
00000100
,
00010000
00000000
00001000
00011000
,
00010000
00000000
00001000
01000000
00100000
00000000
00100000
00000000
10000000
01000000
10000000
00000000
01000000
00100000
00010000
00000000
,
00001000
00010000
00001000
00000000
00010000
00000010
00010000
00000000
00000100
00000010
00000100
00000010
00000100
00000010
00000100
00000000
,
00001000
00000000
00000010
00001000
00000001
00000000
00000001
00000000
00000010
00000100
00001000
00000000
00010000
00000100
00010000
00000000
,
00001000
00010000
00001000
00000000
01000000
00100000
10000000
00000000
00010000
00100000
00010000
00000000
10010000
00000000
10000000
00000000
,
00100000
01000000
00100000
10000000
01000000
00100000
00001000
00000000
01000000
00001000
01000000
00001000
00010000
00000100
00000010
00000000
,
00000001
00000100
00000001
00000000
00000010
00000100
00000010
00000000
00000001
00000010
00000100
00001000
00000100
00000010
00000001
00000000
,
00000100
00000010
00000100
00000010
00010000
00000100
00000010
00000000
00000100
00010000
00000100
00010000
00001000
01000000
00100000
00000000
,
10000000
00000000
10000000
01000000
00100000
00000000
00100000
00001000
00010000
00000000
00010000
00000010
00000100
00000000
00000100
00000010
;

//---------------dance-single - ----------------
#NOTES:
     dance-single:
     :
     Beginner:
     1:
     0.097,0.150,0.045,0.000,0.000: // measure 1
0000
0000
0000
0000
,  // measure 2
0000
0000
0000
0000
,  // measure 3
0000
0000
0000
0000
,  // measure 4
0000
0000
0000
0000
,  // measure 5
1000
0000
0100
0000
,  // measure 6
1000
0000
0100
0000
,  // measure 7
0010
0000
0001
0000
,  // measure 8
0010
0000
0000
0000
,  // measure 9
1001
0000
0000
0000
,  // measure 10
0001
0000
0000
0000
,  // measure 11
0010
0000
0000
0000
,  // measure 12
0100
0000
0000
0000
,  // measure 13
0010
0000
0000
0000
,  // measure 14
0001
0000
0000
0000
,  // measure 15
0100
0000
0000
0000
,  // measure 16
0000
0000
0000
0000
,  // measure 17
1001
0000
0000
0000
,  // measure 18
1000
0000
0000
0000
,  // measure 19
0001
0000
0000
0000
,  // measure 20
0010
0000
0100
0000
,  // measure 21
1000
0000
0000
0000
,  // measure 22
0001
0000
0000
0000
,  // measure 23
0100
0000
0000
0000
,  // measure 24
0000
0000
0000
0000
,  // measure 25
0001
0000
0000
0000
,  // measure 26
1000
0000
0000
0000
,  // measure 27
0001
0000
0000
0000
,  // measure 28
1000
0000
0000
0000
,  // measure 29
0001
0000
0001
0000
,  // measure 30
1000
0000
1000
0000
,  // measure 31
0001
0000
0000
0000
,  // measure 32
0000
0000
0000
0000
,  // measure 33
1001
0000
1000
0000
,  // measure 34
0010
0000
1000
0000
,  // measure 35
0010
0000
1000
0000
,  // measure 36
0010
0000
0000
0000
,  // measure 37
1000
0000
0000
0000
,  // measure 38
0100
0000
0000
0000
,  // measure 39
0010
0000
0000
0000
,  // measure 40
0001
0000
0000
0000
,  // measure 41
1001
0000
0001
0000
,  // measure 42
0100
0000
0001
0000
,  // measure 43
0100
0000
0001
0000
,  // measure 44
0100
0000
0001
0000
,  // measure 45
1000
0000
0000
0000
,  // measure 46
0100
0000
0000
0000
,  // measure 47
0010
0000
0001
0000
,  // measure 48
0010
0000
0000
0000
,  // measure 49
1001
0000
1000
0000
,  // measure 50
0100
0000
1000
0000
,  // measure 51
0010
0000
0100
0000
,  // measure 52
0010
0000
0100
0000
,  // measure 53
0001
0000
1000
0000
,  // measure 54
0001
0000
1000
0000
,  // measure 55
0001
0000
0010
0000
,  // measure 56
0001
0000
0000
0000
;
