#TITLE:Session X'mas;
#SUBTITLE:;
#ARTIST:鈴木 健治;
#TITLETRANSLIT:;
#SUBTITLETRANSLIT:;
#ARTISTTRANSLIT:KENJI SUZUKI;
#CREDIT:DigiMindAxel;
#BANNER:Session X'mas.png;
#BACKGROUND:Session X'mas-bg.png;
#LYRICSPATH:;
#CDTITLE:GUITARFREAKS & drummania.png;
#MUSIC:Session X'mas.ogg;
#METERTYPE:DDR X;
#OFFSET:0.923;
#SAMPLESTART:81.186;
#SAMPLELENGTH:12.000;
#SELECTABLE:YES;
#BPMS:0.000=90.000,80.000=100.000,198.000=96.000,199.000=86.000,200.000=76.000,201.000=100.000;
#STOPS:;
#BGCHANGES:-2.000=Session X'mas.avi=1.000=1=1=0,
99999=-nosongbg-=1.000=0=0=0 // don't automatically add -songbackground-
;

//---------------dance-single - ----------------
#NOTES:
     dance-single:
     :
     Easy:
     3:
     0.141,0.234,0.087,0.175,0.000:
0000
0000
0000
0000
,
0000
0000
0000
0000
,
2000
0000
0000
3000
,
0000
0000
0200
0000
,
0000
0300
0000
0000
,
2000
0000
0000
0000
,
3000
0000
0002
0000
,
0000
0000
0003
0000
,
0020
0000
0000
0230
,
0000
0000
0320
0000
,
0000
0031
0000
0000
,
0200
0000
0000
0320
,
0000
0000
0230
0000
,
0000
0310
0000
0000
,
2000
0000
0000
3002
,
0000
0000
2003
0000
,
0000
3010
0000
0000
,
0200
0000
0000
0302
,
0000
0000
1003
0000
,
0000
1001
0000
0000
,
0010
0000
0000
0000
,
0110
0000
0110
0000
,
1001
0000
1001
0000
,
2000
0000
3002
0000
,
1003
1000
1000
0000
,
0001
0001
0001
0000
,
0010
0010
0010
0000
,
0100
1000
0100
0000
,
1000
0001
1000
0000
,
1001
0000
0010
0010
,
0110
0000
0110
0000
,
0200
0000
0000
0000
,
0310
0000
0010
0000
,
1000
0001
1000
0000
,
0100
0000
0100
0000
,
1000
0001
1000
0000
,
0010
0000
0010
0000
,
0100
0010
0100
0000
,
0001
0000
0001
0000
,
0010
0001
0010
0000
,
1001
0000
0000
0000
,
0110
0000
0000
0000
,
1001
0000
0000
1000
,
0000
0000
0001
0001
,
0002
1003
1000
2000
,
3100
0100
0200
0310
,
0010
0020
0031
0001
,
0002
0103
0100
0200
,
0310
1000
0100
0010
,
0001
0001
1000
0100
,
0010
0001
0000
0000
,
0001
0000
0000
1000
,
0000
0000
1000
0000
,
0000
0110
0000
0000
,
0010
0000
0000
0100
,
0000
0000
0100
0000
,
0000
2002
0000
0000
,
0000
0000
0000
0000
,
3003
0000
0000
0000
;

//---------------dance-single - ----------------
#NOTES:
     dance-single:
     :
     Medium:
     6:
     0.226,0.273,0.208,0.114,0.000:
0000
0000
0000
0000
,
0000
0000
0000
0000
,
2000
0000
0000
3100
,
1000
1000
0020
0000
,
0000
0130
0000
0000
,
0002
0000
1000
1003
,
0000
0000
0020
0000
,
0100
0130
0000
0000
,
0002
0000
0000
0103
,
0000
0001
1000
0000
0200
0000
0000
0000
,
0000
1300
0010
0010
,
0200
0000
0000
0310
,
0000
1000
0001
0000
0020
0000
0000
0000
,
0000
0031
0000
0000
,
1002
0000
0000
1003
,
0000
0010
0100
0000
0002
0000
0000
0000
,
0000
0013
0000
0000
,
0200
1000
1000
2300
,
0000
0000
3001
0000
,
0000
1001
0000
0000
,
2000
0000
0000
0000
3000
0100
0100
0000
,
1001
0000
0110
0000
,
0101
0000
0101
0000
1001
0000
0000
0100
,
1100
0000
0000
0100
1100
0000
0000
0000
,
1001
0000
0001
0000
0001
0001
0001
0000
,
1000
0000
0010
0000
0100
0001
0010
0000
,
0001
0000
0010
0000
0100
1000
0010
0000
,
0100
0100
0100
0100
0100
0000
0000
0000
,
0010
0010
0010
0010
0010
0000
0000
0000
,
0100
0110
0000
0000
0101
0000
0000
0000
,
1001
1100
1100
0000
,
1001
0000
0000
0000
0001
0001
0001
0000
,
1000
0100
0010
0000
0100
0010
0001
0000
,
1000
0100
0010
0001
1000
0000
0000
0000
,
0001
0100
0010
0000
0100
0010
1000
0000
,
0001
0100
0010
1000
0001
0000
0000
0000
,
1000
0100
0010
0000
0100
0010
0001
0000
,
1000
0100
0010
0001
1000
0000
0000
0000
,
0001
0100
0010
0000
0100
0010
1000
0000
,
0001
0100
0010
1000
0001
0000
0000
0000
,
1001
0000
0000
1001
0000
0000
0000
0000
,
1010
0000
0000
1010
0000
0000
0000
0000
,
0120
0000
0000
0230
,
0000
0000
0301
0001
,
0001
1000
0100
0010
,
0100
0100
0100
1000
,
0010
0100
0001
0001
,
0001
1000
0100
0010
,
0001
1000
0010
0110
,
0100
0100
0001
0010
,
0100
1001
0001
0001
,
1001
1000
1000
1100
,
0100
0100
0110
0010
,
0010
0011
0001
0001
,
0101
0100
0100
0110
,
0010
0010
1010
1000
,
1000
2002
0000
0000
,
0000
0000
0000
0000
,
3003
0000
0000
0000
;

//---------------dance-single - ----------------
#NOTES:
     dance-single:
     :
     Hard:
     9:
     0.354,0.429,0.397,0.249,0.158:
0000
0000
0000
0000
,
0000
0000
0000
0000
,
1001
0000
0000
1000
0010
0000
0010
0000
,
1000
0000
0100
0000
0011
0000
0000
0001
,
1000
0020
0000
0030
,
1001
0000
0000
0000
0100
0010
0002
0000
,
0000
0003
1001
0000
,
0010
0200
1000
1300
,
1001
0000
0010
0110
,
0000
0100
1000
0000
1100
0000
0000
1000
,
0001
0000
0101
0000
0010
0100
0001
0000
,
2001
0000
3100
1100
,
0000
1000
0010
0000
0110
0000
0000
0010
,
0001
2002
0000
3003
,
0210
0000
0301
1100
,
0000
1000
0001
0000
0011
0000
0100
0000
,
1000
0220
0000
0330
,
1001
0010
0100
1010
,
0000
1000
0001
0000
0101
0000
0010
0000
,
0100
2002
0000
3003
,
1000
0000
0000
0001
0000
0000
0100
0000
0000
0000
0001
0000
0001
1000
0001
0000
,
1100
0000
0000
0000
1000
0000
0000
0010
0200
0000
0000
0000
0000
0000
0301
0000
,
1001
0000
1100
0000
0011
0000
0000
0011
,
1001
0000
0000
1001
0011
0000
0000
0011
,
1001
0000
0000
0000
0000
0000
1000
0000
0000
0000
0000
0000
1000
0000
0000
1000
0000
0000
1000
0000
0001
0100
0000
0000
,
0001
0000
0000
1000
0000
0000
0100
0000
0000
0001
0000
0000
0100
0000
0000
1000
0000
0010
0100
0000
0000
0001
0000
0000
,
1000
0000
0000
0001
0000
0000
0010
0000
0000
1000
0000
0000
0010
0000
0000
0001
0000
0100
0010
0000
0000
1000
0000
0001
,
0010
0000
0000
0010
0000
0000
0100
0000
0000
0100
0000
1000
0200
0000
0000
1000
0000
0000
0000
0000
0000
1300
0000
0010
,
0100
0000
0000
0100
0000
0000
0001
0000
0000
0001
0000
0100
0002
0000
0000
0100
0000
0000
0000
0000
0000
0103
0000
0001
,
1000
0000
1100
0000
0000
0000
0100
0000
0110
0000
0000
0010
0001
0000
1000
0000
,
1001
0000
0000
0000
0000
0000
1010
0000
0000
0000
0000
0000
0101
0000
0000
0000
0000
0001
1000
0000
0001
1000
0000
0000
,
0100
0000
0000
1100
0000
0000
0000
0000
0000
0000
0000
0000
1000
0000
0001
0100
0000
0001
0100
0000
0000
0100
0000
0000
,
1001
0000
0000
1000
0000
0000
1100
0000
0000
0000
0000
0010
0100
0000
0001
0000
0000
1001
0000
0000
0000
0000
0000
0000
,
0010
0000
0000
0010
0000
0000
0001
0000
0100
0000
0000
0020
0000
0000
0000
1000
0000
0000
1030
0000
0000
0000
0000
0000
,
0001
0000
0000
0001
0000
0000
1001
0000
0000
0000
0000
1000
0100
0000
0010
0000
0000
0110
0000
0000
0000
0100
0000
0001
,
1000
0000
0000
0100
0000
0000
0010
0000
0001
0000
0000
0100
0000
0000
0000
2002
0000
0000
0000
0000
0000
3003
0000
0000
,
0011
0000
0000
0010
0000
0000
0110
0000
0000
0000
0000
1000
0010
0000
0100
0000
0000
0110
0000
0000
0000
0000
0000
0000
,
1000
0000
0000
1000
0000
0000
0010
0000
0100
0000
0000
0002
0000
0000
0000
1000
0000
0000
1003
0000
0000
0000
0000
0000
,
0100
0000
0000
0100
0000
0000
1100
0000
0000
0000
0000
1000
0100
0000
0010
0000
0000
0110
0000
0000
0000
0010
0000
1000
,
0001
0000
0000
0001
0000
0000
0010
0000
0000
0010
0000
0000
0100
0000
1000
0100
0000
0000
1100
0000
0000
0000
0000
0000
,
1001
0000
0000
0101
0000
0000
2002
0000
0000
0000
0000
0000
3003
0000
0000
0000
,
1100
0000
0000
0011
0000
0000
0220
0000
0000
0000
0000
0000
0330
0000
0000
0000
,
1002
0000
0000
0200
,
0000
0000
0000
0303
0000
0000
0100
0000
0000
0100
0000
0001
,
1000
0000
0001
1000
0000
0000
0100
0000
0000
0001
0000
0000
,
0100
0000
0000
0100
0000
1000
0001
0000
1000
0001
0000
0000
,
0010
0000
0000
1000
0000
0000
0010
0000
0000
0010
0000
0001
,
1000
0000
0001
1000
0000
0000
0100
0000
0000
0001
0000
0100
,
1000
1001
0011
0110
,
0100
0000
1000
0100
0000
0000
2000
0000
0000
3020
0000
0000
,
0230
0302
1000
1000
,
0203
0001
0001
0320
,
0100
0100
2030
0010
,
0010
3002
0010
0010
,
0203
0010
0010
0302
,
1000
1000
0023
0001
,
0031
2002
0000
0000
,
0000
0000
0000
0000
,
3003
0000
0000
0000
;

//---------------dance-double - ----------------
#NOTES:
     dance-double:
     :
     Easy:
     3:
     0.135,0.214,0.114,0.034,0.000: // measure 1
00000000
00000000
00000000
00000000
,  // measure 2
00000000
00000000
00000000
00000000
,  // measure 3
10000000
00000000
00000000
10000000
,  // measure 4
00000000
00000000
00100000
00000000
,  // measure 5
00000000
00100000
00000000
00000000
,  // measure 6
01000000
00000000
00000000
01000000
,  // measure 7
00000000
00000000
00001000
00000000
,  // measure 8
00000000
00001000
00000000
00000000
,  // measure 9
00010000
00000000
00010000
00001000
,  // measure 10
00000000
00000000
00010000
00000000
,  // measure 11
00000100
00000010
00000000
00000000
,  // measure 12
00001000
00000000
00001000
00000001
,  // measure 13
00000000
00000000
00001000
00000000
,  // measure 14
00001000
00010000
00000000
00000000
,  // measure 15
00100000
00000000
01000000
10000000
,  // measure 16
00000000
00000000
00200000
00000000
,  // measure 17
00000000
01300000
00000000
00000000
,  // measure 18
00010000
00100000
01000000
20000000
,  // measure 19
00000000
00000000
30010000
00000000
,  // measure 20
00000000
10010000
00000000
00000000
,  // measure 21
00001000
00000000
00000000
00000000
,  // measure 22
00011000
00000000
00011000
00000000
,  // measure 23
00010001
00000000
00010001
00000000
,  // measure 24
00000100
00000000
00000100
00000000
,  // measure 25
00000100
00000010
00000100
00000000
,  // measure 26
00000001
00000001
00000001
00000000
,  // measure 27
00001000
00001000
00001000
00000000
,  // measure 28
00000010
00000100
00000010
00000000
,  // measure 29
00010000
00001000
00010000
00000000
,  // measure 30
00011000
00000000
00100000
00100000
,  // measure 31
01100000
00000000
01100000
00000000
,  // measure 32
20000000
00000000
00000000
00000000
,  // measure 33
30010000
00000000
00010000
00000000
,  // measure 34
10000000
01000000
00100000
00000000
,  // measure 35
00001000
00000000
00001000
00000000
,  // measure 36
00010000
00000010
00000100
00000000
,  // measure 37
00000001
00000000
00000001
00000000
,  // measure 38
00000010
00000100
00010000
00000000
,  // measure 39
00001000
00000000
00001000
00000000
,  // measure 40
01000000
00100000
01000000
00000000
,  // measure 41
10010000
00000000
00000000
00000000
,  // measure 42
01100000
00000000
00000000
00000000
,  // measure 43
10010000
00000000
00000000
10000000
,  // measure 44
00000000
00000000
10000000
10000000
,  // measure 45
10000000
10010000
00010000
00100000
,  // measure 46
01000000
01000000
01000000
01100000
,  // measure 47
00100000
01000000
00001000
00010000
,  // measure 48
00010000
00011000
00001000
00010000
,  // measure 49
00000010
00000100
00000001
00001001
,  // measure 50
00001000
00001000
00000001
00000100
,  // measure 51
00000010
00010000
00000000
00000000
,  // measure 52
00010000
00000000
00000000
00001000
,  // measure 53
00000000
00000000
00001000
00000000
,  // measure 54
00000000
01100000
00000000
00000000
,  // measure 55
01000000
00000000
00000000
00100000
,  // measure 56
00000000
00000000
00100000
00000000
,  // measure 57
00000000
20020000
00000000
00000000
,  // measure 58
00000000
00000000
00000000
00000000
,  // measure 59
30030000
00000000
00000000
00000000
;

//---------------dance-double - ----------------
#NOTES:
     dance-double:
     :
     Medium:
     5:
     0.225,0.253,0.195,0.114,0.000: // measure 1
00000000
00000000
00000000
00000000
,  // measure 2
00000000
00000000
00000000
00000000
,  // measure 3
20000000
00000000
00000000
30010000
,  // measure 4
01000000
01000000
00002000
00000000
,  // measure 5
00000000
00013000
00000000
00000000
,  // measure 6
00000020
00000000
00000100
00000130
,  // measure 7
00000000
00000000
00000002
00000000
,  // measure 8
00001000
00001003
00000000
00000000
,  // measure 9
00000200
00000000
00000000
00001300
,  // measure 10
00000000
00000010
00000100
00000000
00000002
00000000
00000000
00000000
,  // measure 11
00000000
00000013
00000100
00000100
,  // measure 12
00020000
00000000
00000000
00031000
,  // measure 13
00000000
00100000
01000000
00000000
20000000
00000000
00000000
00000000
,  // measure 14
00000000
31000000
00000000
00000000
,  // measure 15
01200000
00000000
00000000
01300000
,  // measure 16
00000000
00001000
00010000
00000000
00000200
00000000
00000000
00000000
,  // measure 17
00000000
00001300
00000000
00000000
,  // measure 18
00000002
00000010
00000010
00000023
,  // measure 19
00000000
00000000
00000130
00000000
,  // measure 20
00000000
00000110
00000000
00000000
,  // measure 21
00020000
00000000
00000000
00031000
00000000
00010000
00010000
00000000
,  // measure 22
01001000
00000000
01100000
00000000
,  // measure 23
10010000
00000000
10010000
00000000
11000000
00000000
00000000
00001000
,  // measure 24
00010000
00000000
00000000
00001000
00010000
00000000
00000000
00000000
,  // measure 25
00011000
00000000
00001000
00000000
00001000
00001000
00001000
00000000
,  // measure 26
00010000
00000000
00000010
00000000
00000100
00000001
00000010
00000000
,  // measure 27
00000100
00000000
00001000
00000000
00010000
00100000
01000000
00000000
,  // measure 28
10000000
00010000
00010000
00010000
10000000
00000000
00000000
00000000
,  // measure 29
00001000
00010000
00010000
00010000
00001000
00000000
00000000
00000000
,  // measure 30
00010000
00010100
00000000
00000000
00000110
00000000
00000000
00000000
,  // measure 31
00001001
00001001
00000101
00000000
,  // measure 32
00000110
00000000
00000000
00000000
00000100
00000100
00000100
00000000
,  // measure 33
00000010
00001000
00000001
00000000
00000010
00000100
00010000
00000000
,  // measure 34
00001000
00100000
01000000
10000000
01000000
00000000
00000000
00000000
,  // measure 35
10000000
00010000
01000000
00000000
00001000
00100000
01000000
00000000
,  // measure 36
10000000
01000000
10000000
00100000
01000000
00000000
00000000
00000000
,  // measure 37
00001000
00001000
00001000
00000000
00010000
00000001
00000100
00000000
,  // measure 38
00000010
00001000
00000100
00000010
00000001
00000000
00000000
00000000
,  // measure 39
00000100
00000001
00010000
00000000
00001000
00100000
01000000
00000000
,  // measure 40
00100000
01000000
10000000
00010000
01000000
00000000
00000000
00000000
,  // measure 41
10010000
00000000
00000000
10010000
00000000
00000000
00000000
00000000
,  // measure 42
00101000
00000000
00000000
00101000
00000000
00000000
00000000
00000000
,  // measure 43
00021000
00000000
00000000
00030002
,  // measure 44
00000000
00000000
00000103
00000100
,  // measure 45
00000100
00000010
00001000
00000001
,  // measure 46
00010000
00010000
00010000
00001000
,  // measure 47
00100000
01000000
10000000
10000000
,  // measure 48
10000000
00100000
01000000
00010000
,  // measure 49
00001000
00000100
00000010
00001001
,  // measure 50
00001000
00001000
00000100
00000010
,  // measure 51
00000001
00000110
00000100
00000100
,  // measure 52
00000110
00000010
00000010
00010010
,  // measure 53
00010000
00010000
00011000
00001000
,  // measure 54
00001000
01001000
01000000
01000000
,  // measure 55
01100000
00100000
00100000
10001000
,  // measure 56
00001000
00001000
00011000
00010000
,  // measure 57
00010000
00020002
00000000
00000000
,  // measure 58
00000000
00000000
00000000
00000000
,  // measure 59
00030003
00000000
00000000
00000000
;

//---------------dance-double - ----------------
#NOTES:
     dance-double:
     :
     Hard:
     9:
     0.352,0.429,0.370,0.235,0.165: // measure 1
00000000
00000000
00000000
00000000
,  // measure 2
00000000
00000000
00000000
00000000
,  // measure 3
10010000
00000000
00000000
10000000
01000000
00000000
01000000
00000000
,  // measure 4
00100000
00000000
00001000
00000000
00011000
00000000
00000000
00010000
,  // measure 5
00000010
00000200
00000000
00000300
,  // measure 6
00001001
00000000
00000000
00000000
00000001
00000010
00000200
00000000
,  // measure 7
00000000
00000300
00000110
00000000
,  // measure 8
00000001
00020000
00001000
00031000
,  // measure 9
00011000
00000000
10000000
10010000
,  // measure 10
00000000
00100000
01000000
00000000
01100000
00000000
00000000
10000000
,  // measure 11
01000000
00000000
11000000
00000000
00100000
00001000
00010000
00000000
,  // measure 12
00000120
00000000
00000130
00000101
,  // measure 13
00000000
00000001
00001000
00000000
00001001
00000000
00000000
00010000
,  // measure 14
00001000
00022000
00000000
00033000
,  // measure 15
02100000
00000000
03100000
10010000
,  // measure 16
00000000
10000000
00010000
00000000
10010000
00000000
00100000
00000000
,  // measure 17
01000000
20020000
00000000
30030000
,  // measure 18
01001000
00001000
00010000
00000110
,  // measure 19
00000000
00000001
00000010
00000000
00000011
00000000
00000100
00000000
,  // measure 20
00001000
00022000
00000000
00033000
,  // measure 21
01000000
00000000
00000000
01000000
00000000
00000000
01000000
00000000
00000000
00000000
00010000
00000000
00010000
10000000
00010000
00000000
,  // measure 22
10010000
00000000
00000000
00000000
01000000
00000000
00000000
00100000
00020000
00000000
00000000
00000000
00000000
00000000
00031000
00000000
,  // measure 23
00011000
00000000
00010010
00000000
00000110
00000000
00000000
00000101
,  // measure 24
00000110
00000000
00000000
00000110
00000101
00000000
00000000
00000101
,  // measure 25
00000110
00000000
00000000
00000000
00000000
00000000
00000100
00000000
00000000
00000000
00000000
00000000
00000100
00000000
00000000
00000100
00000000
00000000
00000100
00000000
00000010
00000100
00000000
00000000
,  // measure 26
00000001
00000000
00000000
00001000
00000000
00000000
00000100
00000000
00000000
00000001
00000000
00000000
00000100
00000000
00000000
00001000
00000000
00000001
00001000
00000000
00000000
00000010
00000000
00000000
,  // measure 27
00000100
00000000
00000000
00000001
00000000
00000000
00000010
00000000
00000000
00001000
00000000
00000000
00000010
00000000
00000000
00000001
00000000
00001000
00000001
00000000
00000000
00000010
00000000
00000100
,  // measure 28
00010000
00000000
00000000
00010000
00000000
00000000
00001000
00000000
00000000
00001000
00000000
01000000
00200000
00000000
00000000
01000000
00000000
00000000
00000000
00000000
00000000
01300000
00000000
00010000
,  // measure 29
10000000
00000000
00000000
10000000
00000000
00000000
01000000
00000000
00000000
01000000
00000000
10000000
02000000
00000000
00000000
10000000
00000000
00000000
00000000
00000000
00000000
13000000
00000000
00100000
,  // measure 30
01000000
00000000
01100000
00000000
00000000
00000000
00001000
00000000
01001000
00000000
00000000
00001000
00010000
00000000
00000010
00000000
,  // measure 31
00000110
00000000
00000000
00000000
00000000
00000000
00000101
00000000
00000000
00000000
00000000
00000000
00001010
00000000
00000000
00000000
00000000
00000010
00000100
00000000
00000010
00000100
00000000
00000000
,  // measure 32
00000001
00000000
00000000
00000011
00000000
00000000
00000000
00000000
00000000
00000000
00000000
00000000
00010000
00000000
00001000
00010000
00000000
00001000
00010000
00000000
00000000
00010000
00000000
00000000
,  // measure 33
01001000
00000000
00000000
01000000
00000000
00000000
01100000
00000000
00000000
00000000
00000000
10000000
01000000
00000000
10000000
00000000
00000000
10010000
00000000
00000000
00000000
00000000
00000000
00000000
,  // measure 34
00100000
00000000
00000000
00100000
00000000
00000000
01000000
00000000
00001000
00000000
00000000
00020000
00000000
00000000
00000000
00001000
00000000
00000000
00031000
00000000
00000000
00000000
00000000
00000000
,  // measure 35
00010000
00000000
00000000
00010000
00000000
00000000
00010001
00000000
00000000
00000000
00000000
00000010
00000001
00000000
00000010
00000000
00000000
00001001
00000000
00000000
00000000
00001000
00000000
00001000
,  // measure 36
00000001
00000000
00000000
00000010
00000000
00000000
00000100
00000000
00010000
00000000
00000000
00001000
00000000
00000000
00000000
00022000
00000000
00000000
00000000
00000000
00000000
00033000
00000000
00000000
,  // measure 37
01001000
00000000
00000000
01000000
00000000
00000000
01100000
00000000
00000000
00000000
00000000
01000000
10000000
00000000
00010000
00000000
00000000
10010000
00000000
00000000
00000000
00000000
00000000
00000000
,  // measure 38
10000000
00000000
00000000
10000000
00000000
00000000
00100000
00000000
01000000
00000000
00000000
00002000
00000000
00000000
00000000
00010000
00000000
00000000
00013000
00000000
00000000
00000000
00000000
00000000
,  // measure 39
00000010
00000000
00000000
00000010
00000000
00000000
00000110
00000000
00000000
00000000
00000000
00000010
00001000
00000000
00000001
00000000
00000000
00001001
00000000
00000000
00000000
00000001
00000000
00000001
,  // measure 40
00010000
00000000
00000000
00010000
00000000
00000000
00001000
00000000
00000000
00001000
00000000
00000000
00100000
00000000
01000000
00100000
00000000
00000000
01100000
00000000
00000000
00000000
00000000
00000000
,  // measure 41
10010000
00000000
00010000
10000000
00000000
10000000
00020000
00000000
00000000
00000000
00000000
00000000
00030000
00000000
00000000
00000000
,  // measure 42
01001000
00000000
00001000
01000000
00000000
01000000
00002000
00000000
00000000
00000000
00000000
00000000
00003000
00000000
00000000
00000000
,  // measure 43
00021000
00000000
00000000
00002000
,  // measure 44
00000000
00000000
00000000
00033000
00000000
00000000
00010000
00000000
00000000
00010000
00000000
00000100
,  // measure 45
00000010
00000000
00000100
00000010
00000000
00000000
00000001
00000000
00000000
00000100
00000000
00000000
,  // measure 46
00000010
00000000
00000000
00000010
00000000
00001000
00010000
00000000
00001000
00010000
00000000
00000000
,  // measure 47
01000000
00000000
00000000
00100000
00000000
00000000
10000000
00000000
00000000
10000000
00000000
01000000
,  // measure 48
00100000
00000000
01000000
00100000
00000000
00000000
00001000
00000000
00000000
00010000
00000000
00010000
,  // measure 49
00000010
00000110
00000101
00001001
,  // measure 50
00001000
00000000
00000010
00000100
00000000
00000000
00000002
00000000
00000000
00000023
00000000
00000000
,  // measure 51
00000230
00020300
00001000
00001000
,  // measure 52
00032000
01000000
01000000
02003000
,  // measure 53
00100000
00100000
03200000
10000000
,  // measure 54
10000000
20300000
00001000
00001000
,  // measure 55
30002000
00010000
00010000
00023000
,  // measure 56
00000010
00000010
00030020
00000100
,  // measure 57
00000130
00002002
00000000
00000000
,  // measure 58
00000000
00000000
00000000
00000000
,  // measure 59
00003003
00000000
00000000
00000000
;

//---------------dance-single - ----------------
#NOTES:
     dance-single:
     :
     Beginner:
     1:
     0.054,0.095,0.034,0.000,0.000:
0000
0000
0000
0000
,
0000
0000
0000
0000
,
1000
0000
0000
0000
,
0000
0000
1000
0000
,
0000
0000
0000
0000
,
0001
0000
0000
0000
,
0000
0000
0001
0000
,
0000
0000
0000
0000
,
0010
0000
0000
0000
,
0000
0000
0010
0000
,
0000
0000
0000
0000
,
0100
0000
0000
0000
,
0000
0000
0100
0000
,
0000
0000
0000
0000
,
1000
0000
0000
0000
,
0000
0000
0001
0000
,
0000
0000
0000
0000
,
1000
0000
0000
0001
,
0000
0000
1000
0000
,
0000
0000
0000
0000
,
0001
0000
0000
0000
,
1001
0000
0000
0000
,
1001
0000
0000
0000
,
1000
0000
1000
0000
,
1000
0000
0000
0000
,
0010
0000
0000
0000
,
0100
0000
0000
0000
,
0001
0000
0000
0000
,
0001
0000
0000
0000
,
1001
0000
0000
0000
,
1000
0000
0000
0000
,
1000
0000
0000
0000
,
0001
0000
0000
0000
,
0010
0000
0000
0000
,
0100
0000
0000
0000
,
1000
0000
0000
0000
,
0001
0000
0000
0000
,
0100
0000
0000
0000
,
0010
0000
0000
0000
,
1000
0000
0000
0000
,
1001
0000
0000
0000
,
0001
0000
0000
0000
,
1000
0000
0000
0000
,
0000
0000
0100
0000
,
0000
0000
0000
0000
,
0010
0000
0000
0000
,
0000
0000
0100
0000
,
0000
0000
0000
0000
,
0010
0000
0000
0000
,
0000
0000
0100
0000
,
0000
1001
0000
0000
,
0001
0000
0000
0001
,
0000
0000
0001
0000
,
0000
0001
0000
0000
,
0001
0000
0000
0001
,
0000
0000
0001
0000
,
0000
0001
0000
0000
;
