#TITLE:SYSTEM;
#SUBTITLE:;
#ARTIST:RAM;
#TITLETRANSLIT:;
#SUBTITLETRANSLIT:;
#ARTISTTRANSLIT:;
#CREDIT:DigiMindAxel;
#BANNER:SYSTEM.png;
#BACKGROUND:SYSTEM-bg.png;
#LYRICSPATH:;
#CDTITLE:beatmania.png;
#MUSIC:SYSTEM.ogg;
#METERTYPE:DDR X;
#OFFSET:-6.887;
#SAMPLESTART:58.774;
#SAMPLELENGTH:12.000;
#SELECTABLE:YES;
#BPMS:0.000=111.000;
#STOPS:;
#BGCHANGES:;

//---------------dance-single - ----------------
#NOTES:
     dance-single:
     :
     Easy:
     4:
     0.178,0.184,0.077,0.115,0.000:
1000
1000
0000
1000
,
0010
0010
0000
0100
,
0001
0001
0000
0200
,
0020
0000
0330
0000
,
0100
0000
0000
0010
,
0000
0110
0000
0001
,
1000
0000
0000
0001
,
1000
0002
0000
0000
,
0103
0100
0000
0100
,
0020
0000
0000
1030
,
0001
1000
0000
0020
,
0200
0000
0330
0000
,
0100
0010
0100
0010
,
1000
0001
1000
0001
,
0010
0001
1000
0100
,
1000
0000
0000
0000
,
1001
0000
0000
0001
0000
0000
0002
0000
,
0000
1003
0000
0000
,
1001
0000
0000
1000
0000
0000
1000
0000
,
0002
0000
0000
1003
,
0010
0010
0010
0110
,
0000
0000
0000
0000
,
0100
0100
0100
0100
,
0110
0000
0000
0000
,
1000
0010
1000
0010
,
0100
0001
0000
0000
,
0100
0001
0100
0001
,
1000
0010
0000
0000
,
1000
0100
1000
0001
,
0020
0000
0031
0000
,
0010
0001
1000
0100
,
1000
0000
0000
0000
,
1001
0000
0000
0000
;

//---------------dance-single - ----------------
#NOTES:
     dance-single:
     :
     Hard:
     9:
     0.392,0.412,0.243,0.077,0.192:
0001
0001
1000
0000
1000
0100
0010
0000
,
0001
0001
1000
0000
1000
0010
0100
0000
,
0001
0001
1000
0000
1000
0001
0010
0100
,
2000
0000
0000
0000
0000
0001
3001
0000
,
1001
0000
1000
0000
0000
0000
0010
0000
0000
0000
0010
0000
0000
0100
0000
0000
,
0001
1000
1100
0000
1000
0000
1001
0000
,
0001
0000
0001
0000
0000
0000
0010
0000
0000
0000
0010
0000
0000
0100
0000
0000
,
1000
0000
0001
0000
1000
0000
1100
0000
0000
0010
0000
0000
0001
0000
0000
0000
,
0100
0000
0000
0001
0000
0000
1000
0000
0000
0000
0010
0000
0000
0100
0000
0000
,
0001
0001
1000
0000
0100
0010
0001
0000
,
1000
0000
1000
0000
0000
0000
0010
0000
0000
0000
0010
0000
0000
0100
0000
0000
,
0001
0000
0000
0001
0000
0000
0002
0000
0000
0000
0000
0000
0003
0000
0000
0000
,
1001
0000
0000
1000
0001
0000
0100
0000
0001
0000
1000
0000
0100
0000
0000
0000
,
0010
0010
0001
0001
0100
0100
0110
0000
,
0001
0000
0000
0001
0100
0000
0010
0000
0100
0000
0001
0000
1000
0000
0000
0000
,
0001
0001
0001
0001
0002
0000
0000
0000
,
0013
0100
0000
0000
0100
0000
1000
0001
0000
0000
0001
0000
0010
0000
0000
0000
,
0100
0000
1000
0000
0010
0100
0000
0000
0000
0000
0001
0000
1001
0000
0000
0000
,
0100
0010
0000
0000
0100
0000
0001
1000
0000
0000
0001
0000
0100
0000
0000
0000
,
0001
1000
0001
1000
0001
1000
1001
0000
,
0100
0000
0010
0000
0100
0000
0000
0002
0000
0000
0100
0000
0103
0000
0000
0000
,
0001
1000
0000
0010
0000
0100
0010
0000
,
1001
0000
0001
0100
0000
0010
0010
0000
,
0220
0000
0330
0000
,
0001
0000
0000
0010
0000
0000
0001
0000
0000
0000
1000
0000
0010
1000
0000
0000
,
0001
0000
1000
0000
1001
0000
0000
0001
0100
0000
0010
0000
0100
0000
0001
0000
,
1000
0000
0000
0100
0000
0000
1000
0000
0001
0000
0100
0000
0001
0000
0000
0000
,
1000
0000
1001
0000
0000
0000
0110
0000
0000
0010
0000
0000
0110
0000
0000
0000
,
0001
1000
0000
0001
0000
0010
0000
0100
0000
0000
1000
0000
0010
0100
0000
0000
,
0001
0001
0001
0000
1000
1000
1001
0000
,
1000
0001
0000
0001
0000
1000
0001
0000
0010
0000
0001
0000
0100
0010
0000
0000
,
1001
0000
1000
0000
1000
0000
0000
0000
0010
0100
0010
0000
0110
0000
0000
0000
,
1001
1001
0000
0000
0000
0000
0000
0000
;

//---------------dance-single - ----------------
#NOTES:
     dance-single:
     :
     Challenge:
     11:
     0.498,0.433,0.436,0.026,0.442:
1000
0000
1000
0000
0000
0000
0010
0000
0000
0100
0000
0000
0001
0000
0000
0000
,
0100
0010
0100
0000
0000
0000
0010
0000
0000
1000
0000
0000
0100
0000
0000
0000
,
1000
0000
1000
0000
0000
0000
0010
0000
0000
0100
0000
0000
0001
0000
0000
0000
,
1000
0000
0000
1000
0000
0000
1000
0000
0000
0000
0001
1000
0001
1000
0000
0000
,
1100
0000
1100
0000
0001
0000
0100
0000
0000
0000
0110
0000
0000
0110
0000
0000
,
0110
0000
0001
0000
1001
0000
0000
1000
0001
0000
0100
0000
0001
0000
0000
0000
,
0101
0000
0101
0000
1000
0000
0100
0000
0000
0000
0010
0000
0100
0010
0000
0000
,
0001
0000
1001
0000
1000
0000
0110
0000
0000
0110
0000
0000
0010
0100
0000
0000
,
1000
0000
0000
1100
0000
0000
0101
0000
0000
0000
0100
0000
0010
0100
0000
0000
,
0001
0000
1000
0010
1000
0001
0000
0010
0100
0010
0001
0000
1001
0000
0000
0000
,
0011
0000
0011
0000
1000
0000
0010
0000
0000
0000
0100
0000
0010
0100
0000
0000
,
0001
0000
0000
0001
0000
0000
0002
0000
0000
0000
0000
0000
0003
0000
0000
0000
,
1001
0000
0000
0001
1000
0000
0100
0000
1000
0000
0001
0000
0100
0001
0000
0000
,
1000
0100
1000
0100
1000
0000
0001
0100
0001
0000
0100
0000
0110
0000
0000
0000
,
0001
0000
0000
1000
0001
0000
0010
0000
0001
0000
1000
0000
0010
1000
0000
0000
,
0001
0000
0001
0000
0001
0000
0001
0000
0100
0010
0100
0000
0100
0000
0100
0001
,
1000
0100
0000
0000
0000
0000
1000
0100
0000
1000
0001
0000
0100
0000
0100
0000
,
0000
0000
0001
0000
1000
0100
1000
0000
0000
0000
0001
0000
0011
0000
0000
0000
,
0001
0010
0000
0000
0000
0000
0001
0010
0000
0001
1000
0000
0010
0000
0010
0000
,
1000
0010
1000
0001
0010
0100
1000
0000
,
1001
0000
0001
0000
1000
0000
0000
0010
0000
0000
0010
0000
0100
0010
0000
0000
,
1000
1010
0000
0110
0000
0101
0001
0000
,
1001
0000
1000
0000
0001
0000
0000
0100
0000
0000
0100
0000
0010
0100
0000
0000
,
0001
0001
0002
0000
1000
1003
0000
0000
,
0001
1000
0000
0100
0000
1000
0001
0000
0000
0000
0100
0000
0001
1000
0000
0000
,
0110
0000
1001
0000
1001
0000
0000
1000
0001
0000
0010
0000
0001
0000
0000
0000
,
1000
0001
0000
0100
0000
0001
1000
0000
0010
0000
0010
0000
1000
0001
0000
0000
,
0100
0000
0100
0000
0110
0000
1001
0000
0000
1001
0000
0000
0001
1000
0000
0000
,
0001
1000
0000
0100
0000
1000
0000
0010
0000
0000
0100
0000
0001
1000
0000
0000
,
0001
0100
0001
0100
0010
1000
0000
0100
0010
0100
1000
0000
1001
0000
0000
0000
,
1000
0001
0000
0100
0000
0001
1000
0000
0010
0000
0100
0000
0010
1000
0000
0001
,
0100
0000
0110
0000
1001
0000
0000
0000
1000
0100
1000
0000
1001
0000
0000
0000
,
1000
0001
1000
0001
0000
0000
0000
0000
0000
0000
0000
0000
0000
0000
0000
0000
;

//---------------dance-single - ----------------
#NOTES:
     dance-single:
     :
     Beginner:
     2:
     0.048,0.081,0.026,0.000,0.000:
1000
0000
0000
0000
,
0001
0000
0000
0000
,
1000
0000
0000
0010
,
0000
0000
0000
0110
,
0000
0000
0000
0000
,
0000
0000
0000
0100
,
0000
0000
0000
0000
,
0000
0000
0000
0010
,
0000
0000
0000
0000
,
0000
0000
0000
0010
,
0000
0000
0000
1000
,
0000
0000
0000
0001
,
0000
0000
0000
0000
,
0000
0000
0000
1000
,
0000
0000
0000
0000
,
0000
0000
0000
0010
,
0000
0000
0000
0000
,
0000
0000
0000
0100
,
0000
0000
0000
0001
,
0000
0000
0000
1000
,
0000
0000
0000
0000
,
0000
0000
0000
0001
,
0000
0000
0000
0000
,
0000
0000
0000
0010
,
0000
0000
0000
0000
,
0000
0000
0000
0001
,
0000
0000
0000
1000
,
0000
0000
0000
0100
,
0000
0000
0000
1000
,
0000
0000
0000
0010
,
0000
0000
0000
0100
,
0000
0000
0000
1001
;

//---------------dance-single - ----------------
#NOTES:
     dance-single:
     :
     Medium:
     6:
     0.318,0.350,0.359,0.064,0.000:
0001
0100
0001
0000
0001
0000
1001
0000
,
1000
0010
1000
0000
1000
0000
1001
0000
,
0001
0010
0001
0000
0001
0000
1001
0000
,
1100
0000
0000
0000
,
1000
1000
0000
0010
0000
2000
0000
0000
,
3001
1001
0000
0000
,
0001
0001
0000
0100
0000
0002
0000
0000
,
1003
1001
0000
0000
,
1000
1100
0100
1001
,
0100
0100
0100
0000
0000
0000
0110
0000
,
0001
0011
0010
1001
,
0020
0000
0030
0000
,
1001
0000
0100
0000
0010
0001
0010
0000
,
0001
1000
0001
0000
1001
0000
0110
0000
,
1001
0000
0010
0000
0100
1000
0100
0000
,
0200
0000
0300
0000
,
1001
0000
0000
0010
0000
0000
0001
0000
,
0100
0000
0000
0010
0000
0000
0100
0000
,
0001
0000
0000
1000
0000
0000
0001
0000
,
0010
0100
1000
1001
,
0100
0010
0100
0000
0100
0001
1000
0000
,
1000
0001
1000
0000
1000
0001
0100
0000
,
0010
0100
0010
0000
0010
1000
0001
0000
,
1001
0000
2000
0000
,
3001
0100
0001
1000
0100
0010
0100
0000
,
0010
0110
0110
0000
0001
0000
1000
0000
,
1000
0010
1000
0001
0010
0100
0010
0000
,
0100
0110
0110
0000
1000
0000
0001
0000
,
0001
0010
0001
1000
0100
0010
0100
0000
,
0010
0010
0010
0000
0110
0000
1001
0000
,
1000
0100
1000
0001
0010
0100
0010
0000
,
0110
0100
0100
0000
0001
1000
1001
0000
,
0110
0110
0000
0000
0000
0000
0000
0000
;

//---------------dance-double - ----------------
#NOTES:
     dance-double:
     :
     Easy:
     4:
     0.194,0.184,0.231,0.064,0.000:
10010000
00000000
01000000
00000000
,
01100000
00000000
00100000
00000000
,
10010000
00000000
00010000
00000000
,
02200000
00000000
00000000
03300000
,
01100000
00000000
01000000
00100000
,
01100000
00000000
01000000
00000000
,
00001000
00010000
00001000
00000000
,
00011000
00000000
00010001
00000000
,
00000001
00000100
00000001
00000000
,
00002000
00000000
00000000
00003001
,
00010000
00001000
00010000
00000000
,
00012000
00000000
00003000
00000000
,
00100000
01000000
00100000
01000000
,
10010000
00000000
10010000
00000000
,
10000000
00100000
01000000
00010000
,
01000000
00000000
00000000
00000000
,
01100000
00000000
00000000
00100000
00000000
00000000
00200000
00000000
,
00000000
01300000
00000000
00000000
,
00011000
00000000
00000000
00010000
00000000
00000000
00010000
00000000
,
00001000
00000000
00000000
00011000
,
00010000
00000100
00010000
00000100
,
00000010
00000000
00000001
00000000
,
00000100
00000010
00000100
00000010
,
00010000
00000000
00000000
00000000
,
00001000
10000000
01000000
10000000
,
00001000
10001000
00000000
00000000
,
00010000
00001000
00010000
00001000
,
00000100
00000110
00000000
00000000
,
00000001
00000100
00000001
00000100
,
00000010
00000000
00000010
00000110
,
00000100
00000010
00010000
00001000
,
00010000
00000000
00010000
00000000
,
00011000
00000000
00000000
00000000
;

//---------------dance-double - ----------------
#NOTES:
     dance-double:
     :
     Medium:
     7:
     0.342,0.329,0.372,0.064,0.000:
10000000
00010000
00100000
00000000
01000000
00000000
11000000
00000000
,
01000000
10000000
00010000
00000000
00100000
00000000
00101000
00000000
,
00010000
00001000
00000100
00000000
00000010
00000000
00000110
00000000
,
00001001
00000000
00000000
00001001
00000000
00000000
00000000
00000000
,
00000001
00000001
00000000
00000100
00000000
00000020
00000000
00000000
,
00010030
00001000
00010000
00000000
00000000
00000000
00000000
00000000
,
00100000
00100000
00000000
01000000
00000000
20000000
00000000
00000000
,
30010000
01000000
00010000
00000000
00000000
00000000
00000000
00000000
,
10010000
11000000
00110000
10010000
,
00010000
00010000
00010000
00000000
10000000
10000000
10000000
00000000
,
10001000
10100000
01001000
00011000
,
00020000
00000000
00030000
00000000
,
00000110
00000000
00000100
00000001
00000010
00000001
00001000
00000000
,
00000100
00000010
00000001
00000010
00000100
00010000
00001000
00000000
,
01100000
00000000
00100000
01000000
10000000
01000000
00100000
00000000
,
00020000
00000000
10000000
10030000
,
10010000
00000000
00000000
10010000
00000000
00000000
00100000
00000000
,
01000000
00000000
00000000
00011000
00000000
00000000
00011000
00000000
,
00010001
00000000
00000000
00010001
00000000
00000000
00000100
00000000
,
00000010
00000001
00001000
00001001
,
00000010
00000010
00000010
00000000
00010000
00001000
01000000
00000000
,
00100000
01000000
00100000
00000000
10000000
01000000
00100000
00000000
,
00001000
00001000
00001000
00000000
00010000
00000010
00000100
00000000
,
00000110
00000000
00000020
00000000
,
00001030
00000001
00000010
00000100
00010000
00001000
00010000
00000000
,
00001000
01001000
01100000
00000000
00100000
00000000
00100000
00000000
,
10000000
00010000
00100000
01000000
10000000
00001000
01000000
00000000
,
00001000
00011000
00010010
00000000
00000010
00000000
00000010
00000000
,
00001000
00000100
00000010
00000001
00010000
00000100
00010000
00000000
,
00001000
00001000
00001000
00000000
10000000
10000000
10000000
00000000
,
01000000
00100000
00010000
00100000
01000000
10000000
00001000
00000000
,
00010000
00010000
00010000
00000000
00000010
00000010
00000010
00000000
,
00001001
00001001
00000000
00000000
00000000
00000000
00000000
00000000
;

//---------------dance-double - ----------------
#NOTES:
     dance-double:
     :
     Hard:
     9:
     0.430,0.391,0.397,0.038,0.211:
10010000
10000000
00000000
00000000
01000000
00100000
00001000
00000000
,
00011000
00010000
00000000
00000000
00000010
00000100
00000001
00000000
,
00000010
00000010
00000000
00000000
00000100
00001000
00010000
01000000
,
00200000
00000000
00000000
00000000
00000000
01000000
01300000
00000000
,
10010000
00000000
10010000
00000000
00000000
00000000
10000000
00000000
00000000
00000000
00100000
00000000
00000000
00100000
00000000
00000000
,
00100000
00000000
01100000
00000000
01001000
00000000
00000000
00000000
00000000
00000000
00001000
00000000
00000000
00001000
00000000
00000000
,
00011000
00000000
00011000
00000000
00000000
00000000
00010000
00000000
00000000
00000000
00000100
00000000
00000000
00000100
00000000
00000000
,
00000100
00000000
00000010
00000000
00000011
00000000
00001001
00000000
00000000
00001000
00000000
00000000
00001001
00000000
00000000
00000000
,
00000001
00000000
00000000
00000100
00000000
00000000
00000001
00000000
00000000
00000000
00010000
00000000
00000000
00000100
00000000
00000000
,
00010000
00010000
00001000
00000000
00100000
01000000
10000000
00000000
,
01100000
00000000
01100000
00000000
00000000
00000000
00100000
00000000
00000000
00000000
10000000
00000000
00000000
10000000
00000000
00000000
,
10000000
00000000
00000000
00010000
00000000
00000000
20000000
00000000
00000000
00000000
00000000
00000000
30000000
00000000
00000000
00000000
,
01100000
00000000
00000000
00100000
01000000
00000000
00010000
00000000
00100000
00000000
01000000
00000000
10000000
00000000
00001000
00000000
,
00010000
00010000
00000010
00000010
00000100
00000100
00000110
00000000
,
00000010
00000000
00000000
00000010
00000001
00000000
00000100
00000000
00000010
00000000
00001000
00000000
00010000
00000000
00100000
00000000
,
01000000
01000000
01000000
01000000
01000000
00000000
00000000
00000000
,
10000000
00010000
00000000
00000000
10000000
00000000
00010000
01000000
00000000
00000000
00001000
00000000
00010000
00000000
00001000
00000000
,
00010000
00000000
00000100
00000000
00000010
00000001
00000000
00000000
00000000
00000000
00000100
00000000
00000110
00000000
00000000
00000000
,
00000010
00000100
00000000
00000000
00000001
00000000
00001000
00000100
00000000
00000000
00010000
00000000
00001000
00000000
00100000
00000000
,
01000000
00100000
01000000
10000000
00100000
01000000
01100000
00000000
,
10010000
00000000
00010000
00000000
00010000
00000000
01000000
00010000
00000000
10000000
01000000
00000000
10000000
00000000
00000000
00000000
,
01000000
00000000
00100000
00000000
00001000
00000000
00010000
00000000
00000010
00000000
00000100
00000000
00000010
00000100
00000000
00000000
,
00001001
00000000
00000001
00000000
00000100
00000000
00000001
00000000
00010000
00000000
00001000
00000000
00100000
01000000
00000000
00000000
,
20000000
00000000
30010000
00000000
,
10010000
00000000
00000000
10000000
00000000
00000000
11000000
00000000
00000000
00000000
00100000
00000000
01000000
00100000
00000000
00000000
,
00001000
00000000
00010000
00000000
00011000
00000000
00000000
00001000
00010000
00000000
00000100
00000000
00000010
00000000
00000001
00000000
,
00001001
00000000
00000000
00001000
00000000
00000000
00001010
00000000
00000010
00000000
00000100
00000000
00000001
00000000
00000010
00000000
,
00000100
00000000
00010100
00000000
00000000
00000000
00011000
00000000
00000000
00001000
00000000
00000000
10001000
00000000
00000000
00000000
,
01000000
00100000
00000000
10000000
00000000
01000000
00000000
00100000
00000000
00000000
00001000
00000000
00010000
00001000
00000000
00000000
,
00010000
00010000
00010000
00000001
00000100
00000100
00000110
00000000
,
00000010
00000100
00000000
00000001
00000000
00000000
00000010
00000000
00000100
00000000
00010000
00000000
00001000
00010000
00000000
00000000
,
00001000
00000000
00001000
00000000
00001000
00000000
01000000
00000000
00100000
01000000
00100000
00000000
01100000
00000000
00000000
00000000
,
10010000
10010000
00000000
00000000
00000000
00000000
00000000
00000000
;

//---------------dance-double - ----------------
#NOTES:
     dance-double:
     :
     Challenge:
     12:
     0.527,0.454,0.512,0.051,0.455: // measure 1
10010000
00000000
00010000
00000000
00000000
00000000
01000000
00000000
00000000
10001000
00000000
00000000
00001000
00000000
00000000
00000000
,  // measure 2
00010000
00001000
00010000
00000000
00000000
00000000
00000010
00000000
00000000
00000110
00000000
00000000
00000100
00000000
00000000
00000000
,  // measure 3
00001001
00000000
00000001
00000000
00000000
00000000
00001000
00000000
00000000
00010100
00000000
00000000
00010000
00000000
00000000
00000000
,  // measure 4
00002000
00000000
00000000
02003000
00000000
00000000
03002000
00000000
00000000
00003000
10000000
01000000
10000000
01000000
00000000
00000000
,  // measure 5
10010000
00000000
10010000
00000000
00100000
00000000
01000000
00000000
00000000
00000000
01001000
00000000
00000000
00011000
00000000
00000000
,  // measure 6
00010100
00000000
00000110
00000000
00000110
00000000
00000000
00000001
00000100
00000000
00000010
00000000
00010000
00000000
00000000
00000000
,  // measure 7
00011000
00000000
00011000
00000000
01000000
00000000
00100000
00000000
00000000
00000000
10000000
00000000
00010000
10000000
00000000
00000000
,  // measure 8
00100000
00000000
01100000
00000000
01000000
00000000
01001000
00000000
00000000
00011000
00000000
00000000
00001000
00010000
00000000
00000000
,  // measure 9
00010001
00000000
00000000
00000010
00000000
00000000
00000101
00000000
00000000
00000000
00000001
00000000
00001000
00000001
00000000
00000000
,  // measure 10
00000010
00000000
00000100
00001000
00000100
00001000
00000000
00010000
00001000
00010000
00001000
00000000
00011000
00000000
00000000
00000000
,  // measure 11
01100000
00000000
01100000
00000000
10000000
00000000
00010000
00000000
00000000
00000000
00100000
00000000
00001000
00010000
00000000
00000000
,  // measure 12
00000020
00000000
00000000
00010000
00000000
00000000
00010030
00000000
00000000
00000000
00000000
00000000
00000000
00000000
00000000
00000000
,  // measure 13
00001001
00000000
00000000
00000001
00001000
00000000
00000100
00000000
00010000
00000000
00001000
00000000
00100000
01000000
00000000
00000000
,  // measure 14
10000000
00010000
10000000
00010000
10000000
00000000
00010000
01000000
00010000
00000000
01000000
00000000
01100000
00000000
00000000
00000000
,  // measure 15
00100000
00000000
00000000
00100000
01000000
00000000
00010000
00000000
00100000
00000000
01000000
00000000
10000000
00001000
00000000
00000000
,  // measure 16
00010000
00000000
00010000
00000000
00010000
00000000
00010000
00000000
00001000
00010000
00001000
00000000
00001000
00000000
00001000
00010000
,  // measure 17
00000100
00000010
00000000
00000000
00000000
00000000
00000001
00000100
00000000
00000001
00001000
00000000
00000100
00000000
00010000
00000000
,  // measure 18
00000000
00000000
00001000
00000000
01000000
00100000
01000000
00000000
00000000
00000000
00010000
00000000
10010000
00000000
00000000
00000000
,  // measure 19
10000000
01000000
00000000
00000000
00000000
00000000
10000000
00010000
00000000
00100000
01000000
00000000
10000000
00000000
00010000
00000000
,  // measure 20
01000000
01000000
00010000
00010000
00001000
00001000
00000010
00000000
,  // measure 21
00000110
00000000
00000100
00000000
00000100
00000000
00000001
00001000
00000000
00000001
00001000
00000000
00000100
00010000
00000000
00000000
,  // measure 22
00001000
00011000
00000000
01010000
00000000
01100000
01000000
00000000
,  // measure 23
10010000
00000000
10000000
00000000
00100000
00000000
01000000
00010000
00000000
01000000
00010000
00000000
10000000
01000000
00000000
00000000
,  // measure 24
10000000
10000000
10000000
10000000
00001000
00001000
00001000
00001000
,  // measure 25
00010000
00000010
00000000
00000100
00000000
00000001
00000010
00000000
00000000
00000000
00000001
00000000
00001000
00000010
00000000
00000000
,  // measure 26
00001001
00000000
00000110
00000000
00000110
00000000
00000000
00000100
00000010
00000000
00001000
00000000
00010000
00000000
00000000
00000000
,  // measure 27
01000000
00100000
00000000
10000000
00000000
00100000
01000000
00000000
00001000
00000000
00001000
00000000
00010000
00001000
00000000
00000000
,  // measure 28
00010000
00000000
00010000
00000000
00010010
00000000
00000110
00000000
00000000
00000110
00000000
00000000
00000010
00000100
00000000
00000000
,  // measure 29
00000001
00001000
00000000
00000100
00000000
00000010
00000000
00000001
00000000
00000000
00001000
00000000
00000100
00010000
00000000
00000000
,  // measure 30
00001000
00010000
00001000
00010000
00100000
01000000
00000000
10000000
01000000
10000000
00100000
00000000
01100000
00000000
00000000
00000000
,  // measure 31
01000000
00100000
00000000
00010000
00000000
00100000
01000000
00000000
10000000
00000000
00001000
00000000
01000000
00001000
00000000
01000000
,  // measure 32
00001000
00000000
00011000
00000000
00010010
00000000
00000000
00000000
00000010
00000100
00000010
00000000
00000101
00000000
00000001
00000000
,  // measure 33
00010000
00001000
00010000
00001000
00000000
00000000
00000000
00000000
00000000
00000000
00000000
00000000
00000000
00000000
00000000
00000000
;
