#TITLE:STATISTIK;
#SUBTITLE:;
#ARTIST:lim's Sculpture;
#TITLETRANSLIT:;
#SUBTITLETRANSLIT:;
#ARTISTTRANSLIT:;
#CREDIT:DigiMindAxel;
#BANNER:STATISTIK.png;
#BACKGROUND:STATISTIK-bg.png;
#LYRICSPATH:;
#CDTITLE:Konami original.png;
#MUSIC:STATISTIK.ogg;
#METERTYPE:DDR X;
#OFFSET:-7.201;
#SAMPLESTART:58.764;
#SAMPLELENGTH:12.000;
#SELECTABLE:YES;
#BPMS:0.000=135.000;
#STOPS:112.000=1.333
;
#BGCHANGES:;

//---------------dance-single - ----------------
#NOTES:
     dance-single:
     :
     Easy:
     5:
     0.240,0.217,0.022,0.175,0.000:
0001
1000
0100
0000
,
1000
0001
0100
0000
,
0001
1000
0010
0010
,
1000
0001
0010
0010
,
0001
0010
0100
0000
,
0010
0001
0010
0000
,
0001
0010
0100
0100
,
0010
0001
1000
1000
,
0010
0100
0001
0000
,
0100
0010
1000
0000
,
0100
0010
0001
0001
,
0010
0100
1000
1000
,
0010
0100
0001
0000
,
0100
0001
0010
0000
,
0001
1000
0100
0100
,
1000
0010
0100
0100
,
0002
0000
2003
0000
,
3002
0000
2003
0000
,
3002
0000
2003
0000
,
3002
0000
2003
0000
,
3200
0000
0320
0000
,
0230
0000
0320
0000
,
0031
0001
0001
0001
,
1000
1000
1000
1000
,
0002
0000
0000
0000
,
2000
0000
0000
3003
,
0220
0000
0000
0000
,
0000
0000
0000
0000
,
0330
0100
0001
1000
,
0000
0100
1000
0001
,
0000
0010
0001
1000
,
1000
0010
0100
0001
,
0001
1000
0001
0010
,
0000
0001
1000
0100
,
0000
1000
0001
0010
,
0010
0001
1000
0100
,
0100
1000
0100
0010
,
0000
0100
1000
0100
,
0000
1000
0001
0010
,
0010
0001
1000
0100
,
0100
1000
0010
0100
,
0000
0010
0100
0001
,
0000
1000
0001
0100
,
0100
0001
1000
0010
,
0010
0110
0000
0000
;

//---------------dance-single - ----------------
#NOTES:
     dance-single:
     :
     Medium:
     8:
     0.372,0.339,0.360,0.044,0.000:
1001
0000
1000
0000
0100
1000
0010
0000
,
1001
0000
1000
0000
0100
1000
0010
0000
,
1001
0000
0001
0000
0100
0100
0100
0000
,
1001
0000
0001
0000
0100
0100
0100
0000
,
0110
0000
0010
0000
1000
0100
0010
0000
,
0110
0000
0010
0000
1000
0100
0010
0000
,
0110
0000
0100
0000
0001
0001
0001
0000
,
0110
0000
0100
0000
0001
0001
0001
0000
,
1000
0000
0100
0000
0010
0100
1000
0000
,
0001
0000
0010
0000
0100
0010
0001
0000
,
1000
0000
0010
0000
0100
0100
0100
0000
,
0001
0000
0100
0000
0010
0010
0010
0000
,
1000
0000
0001
0000
0010
0100
1000
0000
,
0001
0000
1000
0000
0100
0010
0001
0000
,
1000
0000
0001
0000
0100
0100
0100
0000
,
0001
0000
1000
0000
0010
0010
0010
0000
,
1000
0001
0100
0001
0000
0001
0100
0001
,
0000
1000
0010
1000
0000
1000
0010
1000
,
0000
0010
0100
0010
0000
0010
0100
0010
,
0000
1000
0100
1000
0000
1000
0100
1000
,
0000
0001
0010
0001
0000
0001
0010
0001
,
0000
0010
0100
0010
0000
0010
0100
0010
,
0001
1000
0001
1000
,
0100
0010
0001
0010
,
2200
0000
0000
3300
,
0100
1000
0100
1000
0100
1000
0100
1000
,
0002
0000
0000
0000
,
2000
0000
0000
0000
,
3003
0100
0110
0101
,
0000
0100
0110
0101
,
0000
0000
0100
0000
1001
0000
1000
0100
,
0010
0000
0100
0000
1001
0000
1000
0100
,
0010
0001
0101
1001
,
0000
0001
0101
1001
,
0000
0000
0001
0000
0110
0000
0010
0100
,
1000
0000
0001
0000
0110
0000
0010
0100
,
1000
0010
0110
1010
,
0000
0010
0110
1010
,
0000
0000
0010
0000
0110
0000
0100
0010
,
0001
0000
0100
0000
0110
0000
0100
0010
,
0001
0100
0110
0101
,
0000
0100
0110
0101
,
0000
0000
0100
0000
1001
0000
1000
0100
,
0010
0000
0100
0000
1001
0000
1000
0100
,
0010
0000
0001
1000
0000
0000
0000
0000
;

//---------------dance-single - ----------------
#NOTES:
     dance-single:
     :
     Hard:
     12:
     0.550,0.508,0.295,0.349,0.769:
1001
0000
0000
0000
0001
0000
0000
1000
0000
0010
0000
0100
0000
0000
0001
0000
,
0101
0000
0000
0000
0100
0000
0000
0001
0000
0010
0000
0100
0000
0000
1000
0000
,
1100
0000
0000
0000
0100
0000
0000
1000
0000
1000
0000
1000
0000
0010
0100
0000
,
0001
0000
0000
0000
0001
0000
0000
1000
0000
1000
0000
1000
0100
0000
0000
0000
,
1001
0000
0000
0000
0001
0000
0000
0010
0000
0001
0000
0100
0000
0000
0010
0000
,
0110
0000
0000
0000
0100
0000
0000
0010
0000
1000
0000
0100
0000
0000
1000
0000
,
1001
0000
0000
0000
0001
0000
0000
1000
0000
1000
0000
1000
0000
0010
0100
0000
,
0001
0000
0000
0000
0001
0000
0000
1000
0000
1000
0000
1000
0001
0000
0000
0000
,
0100
0000
0000
0000
0101
0000
0000
0001
0000
1000
0000
0100
0000
1000
0001
0000
,
0100
0000
0000
0000
0110
0000
0000
0010
0000
0100
0000
0010
0000
1000
0001
0000
,
0010
0000
0000
0000
0011
0000
0000
0001
0000
0001
0000
0001
0000
1000
0010
0000
,
0100
0000
0000
0000
0101
0000
0000
0001
0000
0001
0000
0001
1000
0100
1000
0100
,
1000
0000
0000
0000
1001
0000
0000
0001
0000
0001
0000
0100
0000
0010
1000
0000
,
0100
0000
0000
0000
1100
0000
0000
1000
0000
1000
0000
0100
0000
0010
0001
0000
,
0010
0000
0000
0000
0011
0000
0000
0001
0000
0001
0000
0001
0000
0010
0100
0000
,
0010
0000
0000
0000
0110
0000
0000
1000
0000
1000
0000
1000
0010
0100
0010
1000
,
0000
0100
0000
0100
0010
0000
0010
0000
0000
0001
0000
0001
0010
0000
0010
0000
,
0000
0100
0000
0100
1000
0000
1000
0000
0000
0001
0000
0001
0100
0000
0100
0000
,
0000
0001
0000
0001
1000
0000
1000
0000
0000
0010
0000
0010
1000
0000
1000
0000
,
0000
0100
0000
0100
0010
0000
0010
0000
0000
0001
0000
0001
1000
0000
1000
0000
,
0000
0100
0000
0100
1000
0100
1000
0000
0000
0010
0000
0010
0100
0010
0100
0000
,
0000
0001
0000
0001
0010
0001
0010
0000
0000
0001
0000
0001
1000
0001
1000
0000
,
0001
0010
1000
0010
0001
0010
1000
0010
,
0001
1000
0100
0001
0100
1000
0100
0010
,
0001
1000
0000
0001
1000
0000
0001
1000
0000
0001
1000
0000
0001
1000
0000
0000
,
0010
0100
0010
0100
0010
0100
0010
0100
,
0002
0000
0000
0000
,
2000
0000
0000
0000
,
3003
0000
0000
0000
0201
0000
0000
0000
0320
0000
0000
2000
0000
0000
0000
0000
,
3030
0000
0000
0000
0201
0000
0000
0000
0320
0000
0000
2000
0000
0000
0000
0000
,
3030
0000
0000
0000
0120
0000
0000
0000
2030
0000
0000
3001
0000
0001
0000
0100
,
0000
0000
0000
0000
0210
0000
0000
0000
0302
0000
0000
1003
0000
1000
0000
0010
,
0100
0000
0000
0000
0012
0000
0000
0000
2003
0000
0000
0200
0000
0000
0000
0000
,
3300
0000
0000
0000
0012
0000
0000
0000
2003
0000
0000
0200
0000
0000
0000
0000
,
3300
0000
0000
0000
1002
0000
0000
0000
0023
0000
0000
0130
0000
0100
0000
0010
,
0000
0000
0000
0000
2001
0000
0000
0000
3200
0000
0000
0310
0000
0010
0000
0001
,
1000
0000
0000
0000
0120
0000
0000
0000
1030
0001
0000
0010
0000
0100
0000
1000
,
0010
0000
0010
0000
0210
0000
0000
0000
0301
1000
0000
0100
0000
0010
0000
0001
,
0100
0000
0100
0000
0102
0000
0000
0000
2003
0000
0000
3001
0000
0001
0000
1000
,
0000
0000
0000
0000
2100
0000
0000
0000
3002
0000
0000
1003
0000
1000
0000
0010
,
0100
0001
1000
0001
2000
0000
0000
0000
3010
0100
0000
0001
0000
0100
0000
0010
,
1000
0000
1000
0000
0002
0000
0000
0000
0013
0100
0000
1000
0000
0100
0000
0010
,
0001
0000
0001
0000
2000
0000
0000
0000
3010
0100
0000
0001
0000
0001
0000
1000
,
0100
0000
0000
0000
2000
0000
0000
0000
3100
0010
0000
0001
0000
0001
0000
1000
,
0010
0000
1001
0001
0000
0000
0000
0000
;

//---------------dance-double - ----------------
#NOTES:
     dance-double:
     :
     Easy:
     5:
     0.240,0.241,0.153,0.044,0.000: // measure 1
10000000
00100000
10000000
00000000
,  // measure 2
01000000
00100000
01000000
00000000
,  // measure 3
10000000
00100000
01000000
00001000
,  // measure 4
00010000
00000010
00000100
00000001
,  // measure 5
00001000
00000100
00001000
00000000
,  // measure 6
00000010
00000100
00000010
00000000
,  // measure 7
00001000
00000001
00000010
00000100
,  // measure 8
00010000
00001000
00100000
01000000
,  // measure 9
10000000
00010000
10000000
00000000
,  // measure 10
00100000
01000000
00100000
00000000
,  // measure 11
10000000
01000000
00100000
00001000
,  // measure 12
00010000
00000100
00000010
00000001
,  // measure 13
00000100
00000010
00000100
00000000
,  // measure 14
00000001
00001000
00000001
00000000
,  // measure 15
00001000
00000001
00000100
00000010
,  // measure 16
00010000
00001000
01000000
00100000
,  // measure 17
10010000
00000000
10010000
00000000
,  // measure 18
01100000
00000000
01100000
00000000
,  // measure 19
00011000
00000000
00011000
00000000
,  // measure 20
00000110
00000000
00000110
00000000
,  // measure 21
00001001
00000000
00001001
00000000
,  // measure 22
00000110
00000000
00000110
00000000
,  // measure 23
00000001
00000001
00000001
00000001
,  // measure 24
00010000
00010000
00010000
00010000
,  // measure 25
00002000
00000000
00000000
00000000
,  // measure 26
00020000
00000000
00000000
00033000
,  // measure 27
02200000
00000000
00000000
00000000
,  // measure 28
00000000
00000000
00000000
00000000
,  // measure 29
03300000
00010000
00100000
01000000
,  // measure 30
00000000
00100000
01000000
10000000
,  // measure 31
00000000
00010000
10000000
01000000
,  // measure 32
01000000
10000000
00100000
01000000
,  // measure 33
01000000
00001000
00010000
00000010
,  // measure 34
00000000
00000100
00000001
00000010
,  // measure 35
00000000
00000001
00001000
00000100
,  // measure 36
00000100
00001000
00000001
00000100
,  // measure 37
00000100
00000010
00010000
00001000
,  // measure 38
00000000
00100000
00001000
10000000
,  // measure 39
00000000
01000000
10000000
00100000
,  // measure 40
00100000
01000000
00001000
00010000
,  // measure 41
00010000
00000100
00000010
00000001
,  // measure 42
00000000
00001000
00000100
00000010
,  // measure 43
00000000
00000001
00001000
00000100
,  // measure 44
00000100
00010000
00001000
01000000
,  // measure 45
01000000
10010000
00000000
00000000
;

//---------------dance-double - ----------------
#NOTES:
     dance-double:
     :
     Medium:
     8:
     0.360,0.339,0.273,0.044,0.044: // measure 1
10010000
00000000
00010000
00000000
00100000
00001000
10000000
00000000
,  // measure 2
10010000
00000000
10000000
00000000
01000000
10000000
00001000
00000000
,  // measure 3
00011000
00000000
00000100
00000000
00000010
00000010
00000010
00000000
,  // measure 4
00011000
00000000
01000000
00000000
00100000
00100000
00100000
00000000
,  // measure 5
10010000
00000000
00010000
00000000
01000000
00001000
10000000
00000000
,  // measure 6
10010000
00000000
10000000
00000000
01000000
10000000
00001000
00000000
,  // measure 7
00011000
00000000
01000000
00000000
00100000
00100000
00100000
00000000
,  // measure 8
00011000
00000000
00000100
00000000
00000010
00000010
00000010
00000000
,  // measure 9
00000001
00000000
00000100
00000000
00001000
00000100
00000001
00000000
,  // measure 10
00001000
00000000
00000100
00000000
00000001
00000100
00001000
00000000
,  // measure 11
00000010
00000000
00010000
00000000
00001000
00001000
00001000
00000000
,  // measure 12
01000000
00000000
00010000
00000000
10000000
10000000
10000000
00000000
,  // measure 13
00010000
00000000
00100000
00000000
10000000
00100000
00010000
00000000
,  // measure 14
10000000
00000000
00100000
00000000
00010000
00100000
10000000
00000000
,  // measure 15
00001000
00000000
00010000
00000000
00000100
00000100
00000100
00000000
,  // measure 16
00010000
00000000
00001000
00000000
01000000
01000000
01000000
00000000
,  // measure 17
00001000
10000000
00100000
10000000
00000000
10000000
00100000
10000000
,  // measure 18
00000000
00001000
01000000
00001000
00000000
00001000
01000000
00001000
,  // measure 19
00000000
00010000
00000001
00010000
00000000
00010000
00000001
00010000
,  // measure 20
00000000
00000010
00000100
00000010
00000000
00000010
00000100
00000010
,  // measure 21
00000000
00001000
00000100
00001000
00000000
00001000
00000100
00001000
,  // measure 22
00000000
00000001
00010000
00000001
00000000
00000001
00010000
00000001
,  // measure 23
00000010
00000100
00010000
00001000
,  // measure 24
01000000
00100000
10000000
00001000
,  // measure 25
00022000
00000000
00000000
00033000
,  // measure 26
00010000
00001000
00010000
00001000
00010000
00001000
00010000
00001000
,  // measure 27
02000000
00000000
00000000
00000000
,  // measure 28
00200000
00000000
00000000
00000000
,  // measure 29
03300000
00000000
00000000
00000000
00010000
00000000
00000000
00000000
00010100
00000000
00000000
00000100
00000000
00000000
00000000
00000000
,  // measure 30
00000000
00000000
00000000
00000000
00001000
00000000
00000000
00000000
00001001
00000000
00000000
00000001
00000000
00000000
00000000
00000000
,  // measure 31
00000000
00000000
00000100
00000000
00000110
00000000
00000100
00000001
,  // measure 32
00010000
00000000
00001000
00000000
00011000
00000000
00010000
00001000
,  // measure 33
10000000
00000000
00000000
00000000
00100000
00000000
00000000
00000000
01100000
00000000
00000000
01000000
00000000
00000000
00000000
00000000
,  // measure 34
00000000
00000000
00000000
00000000
00001000
00000000
00000000
00000000
00101000
00000000
00000000
00100000
00000000
00000000
00000000
00000000
,  // measure 35
00000000
00000000
00010000
00000000
00011000
00000000
00001000
00010000
,  // measure 36
00000010
00000000
00000100
00000000
00000110
00000000
00000010
00000100
,  // measure 37
00000001
00000000
00000000
00000000
00010000
00000000
00000000
00000000
00011000
00000000
00000000
00001000
00000000
00000000
00000000
00000000
,  // measure 38
00000000
00000000
00000000
00000000
00100000
00000000
00000000
00000000
01100000
00000000
00000000
01000000
00000000
00000000
00000000
00000000
,  // measure 39
00000000
00000000
10000000
00000000
10010000
00000000
00010000
00100000
,  // measure 40
00001000
00000000
00010000
00000000
00011000
00000000
00010000
00000010
,  // measure 41
00000100
00000000
00000000
00000000
00000001
00000000
00000000
00000000
00001001
00000000
00000000
00001000
00000000
00000000
00000000
00000000
,  // measure 42
00000000
00000000
00000000
00000000
00000100
00000000
00000000
00000000
00010100
00000000
00000000
00010000
00000000
00000000
00000000
00000000
,  // measure 43
00000000
00000000
00001000
00000000
00011000
00000000
00001000
00100000
,  // measure 44
00010000
00000000
00100000
00000000
00101000
00000000
00001000
00010000
,  // measure 45
00000010
00000000
00000100
00000100
00000000
00000000
00000000
00000000
;

//---------------dance-double - ----------------
#NOTES:
     dance-double:
     :
     Hard:
     12:
     0.561,0.508,0.305,0.415,0.769: // measure 1
20010000
00000000
00000000
00000000
31000000
00000000
00000000
10000000
00000000
01000000
00000000
10000000
00000000
00000000
00100000
00000000
,  // measure 2
02100000
00000000
00000000
00000000
03010000
00000000
00000000
01000000
00000000
00010000
00000000
01000000
00000000
00000000
00001000
00000000
,  // measure 3
00021000
00000000
00000000
00000000
00030100
00000000
00000000
00010000
00000000
00010000
00000000
00010000
00000000
00000100
00010000
00000000
,  // measure 4
00000100
00000000
00000000
00000000
00000010
00000000
00000000
00000001
00000000
00000001
00000000
00000001
00000100
00000000
00000000
00000000
,  // measure 5
00001002
00000000
00000000
00000000
00000013
00000000
00000000
00000001
00000000
00000010
00000000
00000001
00000000
00000000
00010000
00000000
,  // measure 6
00012000
00000000
00000000
00000000
01003000
00000000
00000000
00001000
00000000
01000000
00000000
00001000
00000000
00000000
01000000
00000000
,  // measure 7
01200000
00000000
00000000
00000000
10300000
00000000
00000000
00100000
00000000
00100000
00000000
00100000
00000000
10000000
00010000
00000000
,  // measure 8
00100000
00000000
00000000
00000000
00001000
00000000
00000000
00010000
00000000
00010000
00000000
00010000
00000100
00000000
00000000
00000000
,  // measure 9
00000011
00000000
00000000
00000000
00001100
00000000
00000000
00001000
00000000
00000001
00000000
00000100
00000000
00000001
00001000
00000000
,  // measure 10
00000100
00000000
00000000
00000000
00010100
00000000
00000000
00001000
00000000
10000000
00000000
01000000
00000000
10000000
00001000
00000000
,  // measure 11
00100000
00000000
00000000
00000000
00101000
00000000
00000000
10000000
00000000
10000000
00000000
10000000
00000000
00100000
01000000
00000000
,  // measure 12
00001000
00000000
00000000
00000000
00011000
00000000
00000000
00010000
00000000
00010000
00000000
00010000
00000010
00000100
00000010
00000100
,  // measure 13
00000010
00000000
00000000
00000000
00000110
00000000
00000000
00000001
00000000
00000001
00000000
00000100
00000000
00000010
00010000
00000000
,  // measure 14
00001000
00000000
00000000
00000000
00011000
00000000
00000000
00010000
00000000
00010000
00000000
00001000
00000000
01000000
00100000
00000000
,  // measure 15
01000000
00000000
00000000
00000000
01100000
00000000
00000000
10000000
00000000
10000000
00000000
10000000
00000000
01000000
00100000
00000000
,  // measure 16
01000000
00000000
00000000
00000000
01100000
00000000
00000000
00010000
00000000
00010000
00000000
00010000
01000000
00100000
01000000
00100000
,  // measure 17
00000000
10000000
00000000
10000000
00010000
00000000
00010000
00000000
00000000
01000000
00000000
01000000
00010000
00000000
00010000
00000000
,  // measure 18
00000000
01000000
00000000
01000000
00100000
00000000
00100000
00000000
00000000
10000000
00000000
10000000
00001000
00000000
00001000
00000000
,  // measure 19
00000000
00010000
00000000
00010000
00000100
00000000
00000100
00000000
00000000
00001000
00000000
00001000
00000001
00000000
00000001
00000000
,  // measure 20
00000000
00010000
00000000
00010000
00000100
00000000
00000100
00000000
00000000
00001000
00000000
00001000
00000001
00000000
00000001
00000000
,  // measure 21
00000000
00001000
00000000
00001000
00000100
00001000
00000100
00000000
00000000
00000010
00000000
00000010
00000100
00000010
00000100
00000000
,  // measure 22
00000000
00010000
00000000
00000010
00000100
00000010
00000100
00000000
00000000
00000010
00000000
00010000
00001000
00010000
00001000
00000000
,  // measure 23
01000000
00001000
00010000
00001000
01000000
00001000
00010000
00001000
,  // measure 24
01000000
00010000
10000000
00010000
01000000
00010000
10000000
00010000
,  // measure 25
00100000
00001000
00000000
00100000
00001000
00000000
00100000
00001000
00000000
00100000
00001000
00000000
00100000
00001000
00000000
00000000
,  // measure 26
00010000
00010000
00000100
00000100
00000010
00000010
00000001
00000001
,  // measure 27
00000200
00000000
00000000
00000000
,  // measure 28
00000020
00000000
00000000
00000000
,  // measure 29
00000330
00000000
00000000
00000000
00201000
00000000
00000000
00000000
00320000
00000000
00000000
02000000
00000000
00000000
00000000
00000000
,  // measure 30
03030000
00000000
00000000
00000000
00201000
00000000
00000000
00000000
00320000
00000000
00000000
02000000
00000000
00000000
00000000
00000000
,  // measure 31
03030000
00000000
00000000
00000000
00120000
00000000
00000000
00000000
02030000
00000000
00000000
03001000
00000000
00001000
00000000
00100000
,  // measure 32
00000000
00000000
00000000
00000000
02100000
00000000
00000000
00000000
03020000
00000000
00000000
10030000
00000000
10000000
00000000
00100000
,  // measure 33
01000000
00000000
00000000
00000000
00020100
00000000
00000000
00000000
00030002
00000000
00000000
00000020
00000000
00000000
00000000
00000000
,  // measure 34
00000033
00000000
00000000
00000000
00020100
00000000
00000000
00000000
00030002
00000000
00000000
00000020
00000000
00000000
00000000
00000000
,  // measure 35
00000033
00000000
00000000
00000000
00020001
00000000
00000000
00000000
00030200
00000000
00000000
00000310
00000000
00000010
00000000
00000100
,  // measure 36
00000000
00000000
00000000
00000000
00001002
00000000
00000000
00000000
00000023
00000000
00000000
00000130
00000000
00000100
00000000
00000010
,  // measure 37
00000001
00000000
00000000
00000000
00102000
00000000
00000000
00000000
01003000
00001000
00000000
00100000
00000000
01000000
00000000
10000000
,  // measure 38
00001000
00000000
00001000
00000000
00201000
00000000
00000000
00000000
00301000
10000000
00000000
01000000
00000000
00100000
00000000
00001000
,  // measure 39
00010000
00000000
00010000
00000000
00012000
00000000
00000000
00000000
02003000
00000000
00000000
03001000
00000000
00001000
00000000
01000000
,  // measure 40
00000000
00000000
00000000
00000000
00021000
00000000
00000000
00000000
00030200
00000000
00000000
00010300
00000000
00010000
00000000
00000001
,  // measure 41
00000100
00000010
00000100
00000010
00000200
00000000
00000000
00000000
00000301
00010000
00000000
00001000
00000000
00010000
00000000
00000001
,  // measure 42
00001000
00000000
00001000
00000000
00000200
00000000
00000000
00000000
00010300
00001000
00000000
01000000
00000000
00001000
00000000
01000000
,  // measure 43
00010000
00000000
00010000
00000000
20000000
00000000
00000000
00000000
30100000
01000000
00000000
00001000
00000000
00001000
00000000
01000000
,  // measure 44
00100000
00000000
00000000
00000000
20000000
00000000
00000000
00000000
31000000
00100000
00000000
00001000
00000000
00001000
00000000
00100000
,  // measure 45
01000000
00000000
10010000
00010000
00000000
00000000
00000000
00000000
;

//---------------dance-single - ----------------
#NOTES:
     dance-single:
     :
     Beginner:
     2:
     0.075,0.097,0.065,0.000,0.000:
0001
0000
0000
0000
,
0010
0000
0000
0000
,
0001
0000
0000
0000
,
0100
0000
0000
0000
,
0010
0000
0000
0000
,
0100
0000
0000
0000
,
0001
0000
0000
0000
,
1000
0000
0000
0000
,
0001
0000
0000
0000
,
0010
0000
0000
0000
,
0100
0000
0000
0000
,
0010
0000
0000
0000
,
0001
0000
0000
0000
,
1000
0000
0000
0000
,
0010
0000
0000
0000
,
1000
0000
0000
0000
,
1001
0000
0000
0000
,
0000
0000
0000
0000
,
0010
0000
0000
0000
,
0000
0000
0000
0000
,
0010
0000
0000
0000
,
0000
0000
0000
0000
,
0010
0000
0000
0000
,
0010
0000
0000
0000
,
0110
0000
0000
0000
,
0100
0000
0000
0000
,
0010
0000
0000
0000
,
0000
0000
0000
0000
,
0000
1001
0000
0000
,
0000
1000
0000
0000
,
0000
0001
0000
0000
,
0000
0010
0000
0000
,
0000
1001
0000
0000
,
0000
0001
0000
0000
,
0000
1000
0000
0000
,
0000
0010
0000
0000
,
0000
0110
0000
0000
,
0000
0010
0000
0000
,
0000
0100
0000
0000
,
0000
1000
0000
0000
,
0000
0001
0000
0000
,
0000
0100
0000
0000
,
0000
0010
0000
0000
,
0000
0100
0000
0100
,
0000
1001
0000
0000
;
