#TITLE:すているめいと!;
#SUBTITLE:;
#ARTIST:イオシスjkガールズ;
#TITLETRANSLIT:STALEMATE!;
#SUBTITLETRANSLIT:;
#ARTISTTRANSLIT:IOSYS jk GIRLS;
#CREDIT:DigiMindAxel;
#BANNER:STALEMATE!.png;
#BACKGROUND:STALEMATE!-bg.png;
#LYRICSPATH:STALEMATE!.lrc;
#CDTITLE:DigiMindAxel original simfile.png;
#MUSIC:STALEMATE!.ogg;
#METERTYPE:DDR X;
#OFFSET:-7.306;
#SAMPLESTART:50.465;
#SAMPLELENGTH:12.000;
#SELECTABLE:YES;
#BPMS:0.000=143.000;
#STOPS:;
#BGCHANGES:-18.000=STALEMATE!.avi=1.000=1=1=0,
99999=-nosongbg-=1.000=0=0=0 // don't automatically add -songbackground-
;

//---------------dance-single - ----------------
#NOTES:
     dance-single:
     :
     Easy:
     4:
     0.242,0.264,0.142,0.164,0.000:
1001
0000
1001
0000
,
0010
0100
0010
0000
,
1001
0000
1001
0000
,
0220
0000
0000
0330
,
0010
0100
0010
0100
,
0001
0100
0001
0100
,
0001
0001
1000
1000
,
0100
0010
0001
1000
,
0020
0000
0230
0000
,
0320
0000
0030
0000
,
1000
0001
1000
0001
,
1000
1000
0001
0001
,
0100
0010
0100
0010
,
1000
0100
0010
0001
,
2000
0000
3002
0000
,
1003
1000
1000
1000
,
1001
0000
0000
0000
,
0010
0000
0010
0000
,
0110
0000
0000
0000
,
0100
0000
0100
0000
,
0110
0000
0000
0000
,
1001
0000
0000
0000
,
1001
0000
0000
0000
,
1001
0000
0001
0000
,
2000
0000
3002
0000
,
2003
0000
3000
0000
,
0001
1000
0001
1000
,
0001
0100
0001
0100
,
0010
1000
0010
1000
,
0001
0001
0001
0001
,
1000
0100
1000
0100
,
0010
0001
0010
0001
,
1000
0100
0010
0001
,
2000
0000
3000
0000
,
0010
0100
0010
0100
,
0001
1000
0001
1000
,
0100
0010
0100
0010
,
0001
0001
0001
0001
,
2000
0000
0000
0000
,
0000
0000
0000
0000
,
3001
0000
0000
0000
,
2000
0000
0000
0000
,
0000
0000
0000
0000
,
3000
1001
0001
1000
,
0001
1000
0001
1000
,
0100
0000
0100
0000
,
0010
0000
0010
0000
,
0001
0100
0010
0100
,
2002
0000
0000
3003
0000
0000
0000
0000
;

//---------------dance-single - ----------------
#NOTES:
     dance-single:
     :
     Medium:
     7:
     0.341,0.372,0.262,0.120,0.038:
1000
0000
0100
0000
1000
0000
0000
0001
0000
0000
1000
0000
0001
0000
0000
0000
,
0010
0100
1000
0001
,
0100
0000
0010
0000
0100
0000
0000
0001
0000
0000
1000
0000
0001
0000
0000
0000
,
2002
0000
0000
3003
,
1000
0100
1000
0000
0010
0100
0010
0000
,
1000
0000
0100
0000
0010
0100
0010
0000
,
0001
0001
0001
0000
1000
1000
1000
0000
,
0001
0000
0100
0000
0010
0100
0010
0000
,
1001
0000
0110
0000
,
1001
0000
0000
0000
,
0001
0010
0001
0000
0100
0010
0100
0000
,
0001
1000
0001
0000
1000
0100
1000
0000
,
0010
0010
0010
0000
0100
0100
0100
0000
,
0001
1000
0100
0010
,
1001
0000
0110
0000
,
1001
0001
0001
0001
,
2002
0000
0000
3003
,
1000
1000
1000
1000
,
0001
0001
0001
0001
,
1000
1000
1000
1000
,
1001
0000
0000
0000
,
0110
0000
0000
0000
,
0110
0000
0000
0000
,
0110
0000
0110
0000
,
0100
0010
1000
0100
,
0010
0001
1000
0000
,
0001
0100
0001
0000
0100
0010
0100
0000
,
0001
0010
0100
1000
0001
0000
1000
0000
,
0200
0000
0000
1300
0001
0000
0010
0000
,
0200
0000
0000
0300
,
1000
0000
0000
0001
0000
0000
0000
0000
0010
0000
0000
0100
0000
0000
0000
0000
,
1000
0000
0000
0001
0000
0000
0000
0000
0010
0000
0000
0100
0000
0000
1000
0000
,
0000
0001
0010
0100
1000
0100
0010
0001
,
0200
0000
0310
0000
,
1000
0010
0100
0000
0010
0100
0010
0000
,
1000
0100
0010
0001
1000
0000
0100
1000
,
0100
0000
0000
1000
0001
0000
0010
0000
,
0200
0000
0000
0300
,
2000
0000
0000
0000
,
0000
0000
0000
0000
,
3001
0000
0000
0000
0000
0000
1000
0001
,
0100
0001
0000
0010
0000
0100
0000
1000
,
0000
0100
0000
0010
0000
0001
0000
0100
,
0000
0110
0110
0110
,
1001
1001
1001
1001
,
0110
0000
0110
0000
,
1001
0000
0000
0000
0001
0010
0100
1000
,
0001
0100
0010
0000
0100
0010
0100
0000
,
0001
0000
0000
1000
0000
0000
2002
0000
0000
0000
0000
0000
3003
0000
0000
0000
;

//---------------dance-single - ----------------
#NOTES:
     dance-single:
     :
     Hard:
     11:
     0.505,0.479,0.535,0.251,0.196: // measure 1
1000
0000
0010
0000
0010
0000
0000
0100
0000
0000
0001
0000
0001
0000
0000
1000
,  // measure 2
0000
0001
0100
1000
0100
0001
1000
0000
,  // measure 3
0001
0000
1000
0000
1000
0000
0000
0100
0000
0000
0010
0000
0010
0000
0000
0000
,  // measure 4
2002
0000
0000
3003
,  // measure 5
0001
0100
0010
0100
0001
0010
1000
0010
,  // measure 6
0001
1000
0100
1000
0001
0100
1000
0100
,  // measure 7
0001
0001
1001
0000
1000
1000
1001
0000
,  // measure 8
0001
0010
1000
0010
0001
0001
1001
0000
,  // measure 9
2000
3020
0230
0302
,  // measure 10
2000
0000
0000
3003
,  // measure 11
1000
0001
0100
0001
1000
0100
0001
0100
,  // measure 12
1000
0001
0010
0001
1000
0010
0001
0010
,  // measure 13
1000
1000
1001
0000
0001
0001
1001
0000
,  // measure 14
1000
0010
0001
0010
1000
1000
1001
0000
,  // measure 15
0022
0030
2000
3003
,  // measure 16
1000
1000
1000
1000
,  // measure 17
1001
0000
0000
1001
0000
0000
0220
0000
0000
0000
0000
0000
0330
0000
0000
0000
,  // measure 18
0010
0000
0010
0000
0010
0000
0010
0100
,  // measure 19
0001
0000
0001
0000
0001
0010
0100
0000
,  // measure 20
0100
0100
0100
0100
,  // measure 21
1001
0000
0000
1001
0000
0000
1001
0000
0000
0000
0010
0000
0000
0010
0000
0000
,  // measure 22
0220
0000
0000
0330
,  // measure 23
0220
0000
0000
0330
,  // measure 24
1000
0000
0000
1000
0000
0000
0010
0000
0100
0000
0000
0100
0000
0000
0001
0000
,  // measure 25
1000
0000
0000
0100
0000
1000
0000
0000
0001
0000
0000
0010
0000
0001
0000
0000
,  // measure 26
1000
0000
0000
0010
0000
0100
0000
0010
2000
0000
0000
0000
0000
0000
0000
0000
,  // measure 27
3001
0100
0010
0100
0001
0100
0010
0100
,  // measure 28
0001
0010
1000
0010
0001
0000
0010
0100
,  // measure 29
1000
0000
0001
0100
0010
0001
0010
1000
,  // measure 30
0001
1001
0000
1001
0000
0110
0000
0110
,  // measure 31
0010
0000
0000
0010
0000
0000
1000
0000
0001
0000
0000
0001
0000
0000
0010
0000
,  // measure 32
0100
0000
0000
0100
0000
0000
1000
0000
0010
0000
0000
0100
0000
0000
0001
0000
,  // measure 33
0000
0000
1000
0000
0100
0000
0010
0000
0001
1000
0000
0010
0000
1000
0001
0000
,  // measure 34
1000
0100
0010
0001
2000
0000
0000
0000
,  // measure 35
3100
0010
0001
0010
0100
1000
0001
0100
,  // measure 36
0001
1000
0100
1000
0010
0000
1000
0001
,  // measure 37
0010
0000
0001
0010
0100
0001
0100
1000
,  // measure 38
0001
1001
0000
1001
0000
0110
0000
0110
,  // measure 39
0200
0000
0000
0000
,  // measure 40
0000
0000
0000
0300
,  // measure 41
2002
0000
0000
0000
0000
0000
0000
0000
3003
0000
0000
0000
0001
1000
0001
1000
,  // measure 42
0001
0000
0000
0101
0000
0000
0000
0110
0000
0000
0000
0101
0000
0000
0000
0110
,  // measure 43
0000
0000
0000
1100
0000
0000
0000
0011
0000
0000
0000
1100
0000
0000
0000
0110
,  // measure 44
0000
1001
1001
1001
,  // measure 45
0110
0110
0110
1010
,  // measure 46
0101
0000
0000
0101
0000
0000
0000
0000
1010
0000
0000
1010
0000
0000
0000
0000
,  // measure 47
0110
0000
0000
0110
0000
0000
0000
0000
0010
0000
1000
0000
0100
0000
0001
0000
,  // measure 48
0100
1000
0001
0010
0001
0100
0001
0010
,  // measure 49
0011
0000
0000
1100
0000
0000
2002
0000
0000
0000
0000
0000
3003
0000
0000
0000
;

//---------------dance-double - ----------------
#NOTES:
     dance-double:
     :
     Easy:
     5:
     0.295,0.344,0.327,0.185,0.000:
10010000
00000000
10010000
00000000
,
10000000
00001000
01000000
00001000
,
00011000
00000000
00011000
00000000
,
00022000
00000000
00000000
00033000
,
00001000
00010000
00000100
00010000
,
00000100
00001000
00000010
00001000
,
00000001
00000010
00000100
00001000
,
00010000
00011000
00001000
00011000
,
00020000
00000000
00030200
00000000
,
00020300
00000000
00032000
00000000
,
01003000
00001000
01000000
00010000
,
01000000
00001000
00010000
00100000
,
01000000
10000000
01000000
00100000
,
00010000
00011000
00001000
00011000
,
00020000
00000000
00030200
00000000
,
00010300
00001000
00010000
00001000
,
00022000
00000000
00000000
00033000
,
00001000
00000000
00010000
00000000
,
00001000
00000000
00010000
00000000
,
00001000
00000000
00010000
00000000
,
00011000
00000000
00000000
00000000
,
00010100
00000000
00000000
00000000
,
00101000
00000000
00000000
00000000
,
00011000
00000000
00011000
00000000
,
00002000
00000000
00023000
00000000
,
00032000
00000000
00013000
00000000
,
00001000
01000000
00001000
01000000
,
00001000
00010000
00001000
00010000
,
00000100
00010000
00000100
00010000
,
00000100
00001000
00000010
00000100
,
00000001
00001001
00000001
00001001
,
00000001
00001001
00000001
00001001
,
00001000
00000010
00010000
00000010
,
00020000
00000000
00031000
00000000
,
00010000
00000100
00010000
00000100
,
00010000
00001000
00010000
00001000
,
01000000
00010000
01000000
00010000
,
00100000
01000000
10000000
00010000
,
02000000
00000000
00000000
00000000
,
00000000
00000000
00000000
03000000
,
10010000
00000000
00000000
00010000
,
10000000
01000000
00100000
00010000
,
01000000
00001000
00010000
00000100
,
00010000
00011000
00011000
00011000
,
00011000
00011000
00010000
00001000
,
00010100
00000000
00011000
00000000
,
01001000
00000000
00011000
00001000
,
00010000
00001000
00000100
00000010
,
00000220
00000000
00000330
00000000
;

//---------------dance-double - ----------------
#NOTES:
     dance-double:
     :
     Medium:
     7:
     0.391,0.422,0.273,0.185,0.038:
00010000
00000000
00010000
00000000
01000000
00000000
00000000
00010000
00000000
00000000
10000000
00000000
10000000
00000000
00000000
00000000
,
00100000
01000000
00001000
01000000
00001000
01000000
00100000
00000000
,
01000000
00000000
01000000
00000000
00001000
00000000
00000000
00010000
00000000
00000000
00000100
00000000
00000100
00000000
00000000
00000000
,
00022000
00000000
00000000
00033000
,
00001000
00100000
00001000
00000000
00010000
00001000
00010000
00000000
,
00001000
00100000
00001000
00000000
00010000
00001000
00010000
00000000
,
00000100
00000100
00000100
00000000
00000010
00000010
00000010
00000000
,
00000100
00010000
00001000
00010000
00001000
00010000
00000100
00000000
,
00002000
00003200
00000320
00000032
,
00002000
00000000
00000000
00003003
,
00010000
00000100
00010000
00000000
00001000
00010000
00001000
00000000
,
00010000
00000100
00010000
00000000
00001000
00010000
00001000
00000000
,
00100000
00100000
00100000
00000000
01000000
01000000
01000000
00000000
,
00100000
00001000
00010000
00001000
00010000
00001000
00100000
00000000
,
02200000
03300000
20021001
30030000
,
10000000
01000000
00100000
00001000
,
00022000
00000000
00000000
00033000
,
00001000
00010000
00001000
00010000
,
00001000
00010000
00001000
00010000
,
00001000
00010000
00001000
00010000
,
00011000
00000000
00000000
00011000
00000000
00000000
00000000
00000000
,
00010100
00000000
00000000
00000000
,
01001000
00000000
00000000
00000000
,
00011000
00000000
00011000
00000000
,
00011000
00001000
00010000
00000100
,
00000010
00000001
00000010
00000000
,
00000001
00000100
00000001
00000000
00000010
00000100
00000010
00000000
,
00000100
00010000
00000100
00010000
00001000
00100000
00010000
00000000
,
00110000
00000000
00000000
00010000
10000000
00000000
01000000
00000000
,
00200000
00001000
00000000
00001000
00000000
00001000
00000000
00301000
,
00010000
00000000
00000000
00000100
00000000
00000000
00000000
00000000
00001000
00000000
00000000
00000010
00000000
00000000
00000000
00000000
,
00010000
00000000
00000000
00000100
00000000
00000000
00000000
00000000
00001000
00000000
00000000
00000010
00000000
00000000
00001000
00000000
,
00000000
00000001
00000010
00000100
00001000
00000100
00000010
00000001
,
00020000
00000000
00031000
00000000
,
10000000
01000000
10000000
00000000
01000000
00100000
01000000
00000000
,
00010000
00000100
00010000
00000100
00010000
00000010
00001000
00000010
,
00000100
00000000
00000000
00000001
00001000
00000000
00000010
00000000
,
00020000
00001000
00000000
00001000
00000000
00001000
00000000
00031000
,
00200000
00000000
00000000
00000000
,
00000000
00000000
00000000
00000000
,
00301000
00000000
00000000
00000000
00000000
00000000
00010000
00001000
,
00010000
00100000
00000000
01000000
00000000
10000000
00000000
00100000
,
00000000
01000000
00000000
00001000
00000000
00010000
00000000
00000100
,
00000000
00001001
00001001
00001001
,
00000110
00000110
00000110
00000110
,
00010100
00000000
01001000
00000000
,
00011000
00000000
00000000
00000000
00001000
00100000
00001000
00100000
,
00010000
10000000
01000000
00100000
00001000
01000000
00001000
00000000
,
00011000
00000000
00000000
00011000
00000000
00000000
00011000
00000000
00000000
00000000
00000000
00000000
00000000
00000000
00000000
00000000
;

//---------------dance-double - ----------------
#NOTES:
     dance-double:
     :
     Hard:
     11:
     0.503,0.501,0.589,0.120,0.240:
00010000
00000000
01000000
00000000
01010000
00000000
00000000
01000000
00000000
00000000
00100000
00000000
01100000
00000000
00000000
10000000
,
00000000
01000000
00100000
00001000
00000100
00000010
00000100
00000000
,
00000001
00000000
00000100
00000000
00000110
00000000
00000000
00000010
00000000
00000000
00001000
00000000
00001001
00000000
00000000
00000000
,
00020200
00000000
00000000
00030300
,
00000100
00010000
00001000
00010000
00000100
00010000
00100000
10000000
,
00010000
01000000
00001000
01000000
00010000
00000010
00000001
00001000
,
00000010
00000010
00000110
00000000
00010000
00010000
00010100
00000000
,
00001000
00010000
00001000
00000000
00100000
00000000
00001000
00000000
00010000
00000000
00010000
00000000
00011000
00000000
00000000
00000000
,
00010100
00010000
00001000
01000000
,
02200000
00000000
00000000
03300000
,
00001000
00100000
00010000
00100000
00001000
00000100
00000001
00001000
,
00000010
00000100
00000010
00010000
00001000
00010000
00000010
00010000
,
00001000
00001000
00011000
00000000
01000000
01000000
01001000
00000000
,
00001000
00010000
00001000
00000000
00100000
00000000
00001000
00000000
00010000
00000000
00010000
00000000
00011000
00000000
00000000
00000000
,
00010100
00000000
00001100
00000000
,
00011000
00010000
00001000
00010000
,
00011000
00000000
00000000
00010010
00000000
00000000
00000220
00000000
00000000
00000000
00000000
00000000
00000330
00000000
00000000
00000000
,
00000010
00000010
00000010
00000010
,
00000100
00000001
00000010
00000100
,
00010000
00010000
00010000
00010000
,
01100000
00000000
00000000
01100000
00000000
00000000
01100000
00000000
00000000
00000000
00100000
00000000
00000000
01000000
00000000
00000000
,
00022000
00000000
00000000
00033000
,
00022000
00000000
00000000
00033000
,
00001000
00000000
00000000
00001000
00000000
00000000
01000000
00000000
00100000
00000000
00000000
00100000
00000000
00000000
10000000
00000000
,
01000000
00000000
00000000
10000000
00000000
00010000
00000000
00000000
00100000
00000000
00000000
00001000
00000000
00010000
00000000
00000000
,
00000010
00000000
00000000
00001000
00000000
00000100
00000000
00000000
00001100
00000000
00000000
00000000
00000000
00000000
00000000
00000000
,
00001000
00000100
00001000
00000001
00001000
00000100
00001000
00000001
,
00001000
00000100
00001000
00000001
00001000
00000100
00010000
00001000
,
00100000
00001000
00010000
01000000
00100000
00010000
10000000
01000000
,
10000000
10010000
00000000
01100000
00000000
10010000
00000000
01100000
,
01000000
00000000
00000000
10010000
00000000
00000000
00000000
00000000
01000000
00000000
00000000
10010000
00000000
00000000
00000000
00000000
,
01000000
00000000
00000000
10010000
00000000
00000000
00000000
00000000
01000000
00000000
00000000
10010000
00000000
00000000
00010000
00000000
,
00000000
00000000
10000000
00000000
01000000
00000000
00100000
00000000
00001000
00010000
00000000
00010000
00000000
00010000
00000010
00000000
,
00000100
00000001
00010000
00001000
00011000
00000000
00000000
00000000
,
00010000
00100000
00010000
10000000
00010000
00100000
00010000
10000000
,
00010000
00100000
00010000
10000000
00010000
00100000
00001000
00010000
,
00000010
00010000
00001000
00000010
00000001
00001000
00000100
00001000
,
00000010
00000110
00000000
00001001
00000000
00000110
00000000
00001001
,
00000000
00000000
00000000
00000000
00000000
00000000
00000000
00001000
00000000
00000000
00000000
00000100
00000000
00000000
00000000
00000010
,
00000000
00000000
00000000
00000001
00000000
00000000
00000000
00000010
00000000
00000000
00000000
00000100
00000000
00000000
00000000
00001000
,
00000002
00000000
00000000
00000000
00000000
00000000
00000000
00000000
00000003
00000000
00000000
00000000
00000100
00000010
00000100
00000010
,
00000100
00000000
00000000
00000001
00000000
00000000
00000000
00000010
00000000
00000000
00000000
00000100
00000000
00000000
00000000
00010000
,
00000000
00000000
00000000
01000000
00000000
00000000
00000000
00100000
00000000
00000000
00000000
10000000
00000000
00000000
00000000
00001000
,
00000000
00011000
00011000
00011000
,
00011000
00011000
00011000
00011000
,
01001000
00000000
00000000
01001000
00000000
00000000
00000000
00000000
00101000
00000000
00000000
00101000
00000000
00000000
00000000
00000000
,
00010010
00000000
00000000
00010010
00000000
00000000
00000000
00000000
00010000
00000000
00000100
00000000
00010000
00000000
00000100
00000000
,
00001000
00000010
00010000
00001000
00100000
00010000
01000000
00100000
,
01001000
00000000
00000000
00011000
00000000
00000000
00010100
00000000
00000000
00000000
00000000
00000000
00000000
00000000
00000000
00000000
;

//---------------dance-single - ----------------
#NOTES:
     dance-single:
     :
     Challenge:
     13:
     0.608,0.612,0.458,0.185,0.404: // measure 1
0001
1000
0001
0000
1001
0000
0000
1000
0000
0010
0100
0000
0110
0000
0000
0100
,  // measure 2
0000
0000
0001
0010
0001
0000
0010
0100
0010
0000
0001
0000
0100
0000
0000
0000
,  // measure 3
0010
0100
0010
0000
0110
0000
0000
1000
0000
0001
1000
0000
1001
0000
0000
0000
,  // measure 4
0120
0000
0000
0000
0000
0100
0230
0000
,  // measure 5
0301
0010
0001
1000
0100
0001
1000
0010
,  // measure 6
0001
1000
0001
1000
0100
0001
1000
0010
,  // measure 7
0001
1000
1000
0010
0100
0001
0001
1000
,  // measure 8
0100
1000
0100
0000
0010
0000
0010
0000
0001
0000
1000
0000
1001
0000
0000
0000
,  // measure 9
0001
0010
1000
0010
0001
1000
0100
0010
,  // measure 10
0001
0000
0000
1000
0000
0000
0010
0000
0100
0010
0100
0010
0200
0000
0000
0000
,  // measure 11
0301
0010
0001
1000
0100
0001
1000
0010
,  // measure 12
0001
0100
0001
1000
0100
0001
1000
0010
,  // measure 13
0001
1000
0001
0000
1000
0000
0100
0000
0010
0001
0010
0000
0001
0000
1000
0000
,  // measure 14
0010
1000
0010
0000
0100
0010
0100
0000
0010
1000
0010
0000
1001
0000
0000
0000
,  // measure 15
2020
3000
0200
0330
,  // measure 16
0001
0010
0100
1000
0001
0010
0100
1000
,  // measure 17
1001
0000
0000
0110
0000
0000
2002
0000
0000
0000
0000
0000
3003
0000
0000
0000
,  // measure 18
0001
0000
0010
0000
0001
0000
0010
0001
,  // measure 19
1000
0000
0010
0000
1000
0100
0010
0000
,  // measure 20
0100
0000
0010
0000
0100
0001
0010
0100
,  // measure 21
1001
0000
0000
1001
0000
0000
0110
0000
0000
0000
0101
0000
0000
0110
0000
0000
,  // measure 22
2020
0000
0000
3030
,  // measure 23
2002
0000
0000
3003
,  // measure 24
0101
0000
0000
0100
0000
0000
0001
0000
1001
0000
0000
1000
0000
0000
0100
0000
,  // measure 25
1000
0001
0000
0100
0000
0001
0000
0010
0100
0010
0000
0001
0000
1000
0000
0100
,  // measure 26
0010
0100
0000
1000
0000
0010
0000
0100
0002
0000
0000
0000
0000
0000
0000
0000
,  // measure 27
1003
0010
0100
1000
0100
0010
1000
0001
,  // measure 28
0010
1000
0010
0001
1000
0100
0010
1000
,  // measure 29
0010
0100
1000
0001
0011
0000
0110
0000
,  // measure 30
1100
0000
1000
0000
0010
0000
0010
0000
0100
0000
0100
0000
0001
1000
0001
1000
,  // measure 31
0001
0000
0000
1001
0000
0000
0010
0000
0110
0000
0000
0110
0000
0000
1000
0000
,  // measure 32
1001
0000
0000
1001
0000
0000
0100
0000
0110
0000
0000
1010
0000
0000
0101
0000
,  // measure 33
0000
0000
0001
0000
0010
0000
0100
0000
1000
0001
0000
0100
0000
0001
1000
0000
,  // measure 34
0100
0010
0001
1000
0002
0000
0000
0000
,  // measure 35
1003
0100
0010
1000
0010
0100
1000
0001
,  // measure 36
1000
0010
0100
1000
0100
0010
1000
0001
,  // measure 37
0100
0010
1000
0100
1100
0000
0011
0000
,  // measure 38
1001
0000
0001
0000
0100
0000
0100
0000
0010
0000
0010
0000
1000
0001
1000
0001
,  // measure 39
1000
0000
0000
0000
0000
0000
0000
0001
0000
0000
0000
0100
0000
0000
0000
0010
,  // measure 40
0000
0000
0000
1000
0000
0000
0000
0010
0000
0000
0000
0100
0000
0000
0000
0001
,  // measure 41
2000
0000
0000
0000
0000
0000
0000
0000
0000
0000
0000
0000
3001
1000
0001
1000
,  // measure 42
0001
0000
1000
0010
0000
0000
0100
0010
0000
0000
1000
0001
0000
0000
0010
0100
,  // measure 43
0000
0000
0010
0001
0000
0000
0010
0100
0000
0000
1000
0010
0000
0000
0100
0010
,  // measure 44
0000
0110
0110
0110
,  // measure 45
1001
0000
0000
0000
1001
0000
0000
1000
0001
0000
0000
0001
1000
0000
0100
0000
,  // measure 46
0010
0000
0001
1000
0000
1000
0001
0000
0100
0000
0001
1000
0000
1000
0001
0000
,  // measure 47
0010
0000
0001
1000
0000
1000
0001
0000
0100
0000
0001
0000
0010
0100
0010
0100
,  // measure 48
0010
0001
1000
0100
0001
1000
0010
0001
,  // measure 49
1001
0000
0000
0110
0000
0000
2002
0000
0000
0000
0000
0000
3003
0000
0000
0000
;

//---------------dance-double - ----------------
#NOTES:
     dance-double:
     :
     Challenge:
     13:
     0.611,0.612,0.469,0.218,0.404:
00001000
00000001
00001000
00000000
00001001
00000000
00000000
00000001
00000000
00010000
00000100
00000000
00010100
00000000
00000000
00010000
,
00000000
00000000
00001000
00100000
00001000
00000000
01000000
00100000
01000000
00000000
00001000
00000000
00100000
00000000
00000000
00000000
,
00010000
10000000
00010000
00000000
10010000
00000000
00000000
00001000
00000000
01000000
00001000
00000000
01001000
00000000
00000000
00000000
,
00021000
00000000
00000000
00000000
00000000
00001000
00032000
00000000
,
10003000
00100000
01000000
00100000
10000000
01000000
00001000
00000100
,
00010000
00000010
00000100
00000001
00001000
00000001
00000100
00001000
,
01000000
00010000
10010000
10000000
00100000
01000000
01010000
00010000
,
10000000
00010000
10000000
00000000
01000000
00000000
00010000
00000000
00000100
00000000
00001000
00000000
00001001
00000000
00000000
00000000
,
00000001
00000010
00001000
00000010
00000001
00000100
00000010
00010000
,
00011000
00000000
00000000
00101000
00000000
00000000
00110000
00000000
00010000
10000000
00010000
10000000
00020000
00000000
00000000
00000000
,
00130000
00010000
00100000
00001000
00010000
00000010
00000100
00001000
,
00100000
00001000
00100000
00001000
00010000
00000100
00000010
00000100
,
00010000
00001000
00010000
00000000
00001000
00000000
01000000
00000000
00100000
01000000
00100000
00000000
01000000
00000000
00001000
00000000
,
00100000
00001000
00100000
00000000
00001000
00010000
00001000
00000000
00010000
00000100
00010000
00000000
00010100
00000000
00000000
00000000
,
00000210
00000000
00000020
00000330
,
00001000
00000100
00000010
00000001
00000010
00000100
00001000
00010000
,
00011000
00000000
00000000
00101000
00000000
00000000
00220000
00000000
00000000
00000000
00000000
00000000
00330000
00000000
00000000
00000000
,
10000000
00000000
01000000
00000000
10000000
00000000
01000000
10000000
,
00010000
00000000
01000000
00000000
00010000
00100000
00100000
00000000
,
00001000
00100000
00001000
00100000
,
00101000
00000000
00000000
00101000
00000000
00000000
00101000
00000000
00000000
00000000
00011000
00000000
00000000
00010100
00000000
00000000
,
00000220
00000000
00000000
00000330
,
00002002
00000000
00000000
00003003
,
00001010
00000000
00000000
00001000
00000000
00000000
00000010
00000000
00010010
00000000
00000000
00010000
00000000
00000000
00001000
00000000
,
00100000
00000100
00000000
00010000
00000000
00000100
00000000
00010000
00001000
00010000
00000000
00000100
00000000
00010000
00000000
00001000
,
00010000
00001000
00000000
00100000
00000000
00001000
00000000
00010000
00000200
00000000
00000000
00000000
00000000
00000000
00000000
00000000
,
00100300
00001000
00010000
00000100
00010000
00001000
01000000
00001000
,
00010000
00000010
00010000
00001000
00010000
00000010
00000100
00000001
,
00000100
00001000
01000000
00010000
20010000
00000000
32000000
00000000
,
03100000
00000000
00100000
00000000
01000000
00000000
01000000
00000000
10000000
00000000
10000000
00000000
00001000
01000000
00001000
01000000
,
00001000
00000000
00000000
01001000
00000000
00000000
00010000
00000000
00011000
00000000
00000000
00011000
00000000
00000000
00000100
00000000
,
00100100
00000000
00000000
00100100
00000000
00000000
00000010
00000000
00000110
00000000
00000000
00000110
00000000
00000000
00000101
00000000
,
00000000
00000000
00000001
00000000
00000010
00000000
00000100
00000000
00001000
00000001
00000000
00000100
00000000
00000001
00001000
00000000
,
00000100
00000010
00000001
00001000
00000002
00000000
00000000
00000000
,
00100003
00001000
00010000
00000100
00010000
00001000
01000000
00001000
,
00010000
00000010
00010000
00001000
00010000
00000010
00000100
00000001
,
00000100
00001000
01000000
00010000
20010000
00000000
32000000
00000000
,
03100000
00000000
00100000
00000000
01000000
00000000
01000000
00000000
10000000
00000000
10000000
00000000
00100000
01000000
00100000
01000000
,
00100000
00000000
00000000
00000000
00000000
00000000
00000000
10000000
00000000
00000000
00000000
01000000
00000000
00000000
00000000
00100000
,
00000000
00000000
00000000
00001000
00000000
00000000
00000000
00000010
00000000
00000000
00000000
00000100
00000000
00000000
00000000
00000001
,
00002000
00000000
00000000
00000000
00000000
00000000
00000000
00000000
00000000
00000000
00000000
00000000
00003100
00010000
00000100
00010000
,
00000100
00000000
00010000
00001000
00000000
00000000
00100000
00001000
00000000
00000000
01000000
00010000
00000000
00000000
10000000
00010000
,
00000000
00000000
00100000
01000000
00000000
00000000
10000000
00001000
00000000
00000000
01000000
00001000
00000000
00000000
00010000
00000100
,
00000000
00011000
00011000
00011000
,
00010010
00000000
00000000
00000000
00010010
00000000
00000000
00010000
00000010
00000000
00000000
00000010
00010000
00000000
00000001
00000000
,
00000100
00000000
00000010
00010000
00000000
00010000
00000010
00000000
00001000
00000000
00000010
00010000
00000000
00010000
00000010
00000000
,
00000100
00000000
00000010
00010000
00000000
00010000
00000010
00000000
00001000
00000000
00000010
00000000
00010000
00001000
00010000
00001000
,
00010000
00000001
00000100
00001000
01000000
00010000
10000000
01000000
,
11000000
00000000
00000000
01001000
00000000
00000000
02200000
00000000
00000000
00000000
00000000
00000000
03300000
00000000
00000000
00000000
;

//---------------dance-single - ----------------
#NOTES:
     dance-single:
     :
     Beginner:
     2:
     0.101,0.131,0.087,0.000,0.000:
1000
0000
1000
0000
,
0001
0000
0000
0000
,
1000
0000
1000
0000
,
0001
0000
0000
0000
,
0100
0000
0000
0000
,
0010
0000
0000
0000
,
0100
0000
0000
0000
,
0001
0000
0000
0000
,
1000
0000
0001
0000
,
1000
0000
0000
0000
,
0100
0000
0000
0000
,
1000
0000
0000
0000
,
0010
0000
0000
0000
,
0100
0000
0000
0000
,
0010
0000
0000
0000
,
0110
0000
0000
0000
,
0110
0000
0000
0000
,
0100
0000
0000
0000
,
0000
0000
0000
0000
,
0100
0000
0000
0000
,
0000
0000
0000
0000
,
0110
0000
0000
0000
,
0110
0000
0000
0000
,
0001
0000
1000
0000
,
0001
0000
0000
0000
,
1000
0000
0000
0000
,
1001
0000
0000
0000
,
0001
0000
0000
0000
,
1000
0000
0100
0000
,
1000
0000
0000
0000
,
0010
0000
0100
0000
,
0010
0000
0100
0000
,
0001
0000
0000
0000
,
1000
0000
0000
0000
,
0001
0000
0100
0000
,
0001
0000
0000
0000
,
1000
0000
0010
0000
,
1000
0000
0000
0000
,
0001
0000
0000
0000
,
0000
0000
0000
0000
,
1001
0000
0000
0000
,
1000
0000
0000
0000
,
0100
0000
0000
0000
,
0000
1001
0000
0000
,
1000
0000
0000
0000
,
1001
0000
0001
0000
,
1000
0000
0000
0000
,
0010
0000
0100
0000
,
0001
0000
0000
0000
;
