#TITLE:SOUND OF SOS;
#SUBTITLE:;
#ARTIST:DJ SHARPNEL;
#TITLETRANSLIT:;
#SUBTITLETRANSLIT:;
#ARTISTTRANSLIT:;
#CREDIT:DigiMindAxel;
#BANNER:SOUND OF SOS.png;
#BACKGROUND:SOUND OF SOS-bg.png;
#LYRICSPATH:SOUND OF SOS.lrc;
#CDTITLE:DigiMindAxel original simfile.png;
#MUSIC:SOUND OF SOS.ogg;
#METERTYPE:DDR X;
#OFFSET:-6.518;
#SAMPLESTART:69.869;
#SAMPLELENGTH:12.000;
#SELECTABLE:YES;
#BPMS:0.000=193.180;
#STOPS:;
#BGCHANGES:0.000=SOUND OF SOS.avi=1.000=1=0=1,
99999=-nosongbg-=1.000=0=0=0 // don't automatically add -songbackground-
;

//---------------dance-single - ----------------
#NOTES:
     dance-single:
     :
     Easy:
     6:
     0.250,0.302,0.046,0.146,0.000:
0000
0000
0000
0000
,
0000
0000
0000
0000
,
0000
0000
0000
0000
,
0002
0000
0000
0000
,
2003
0000
0000
0000
,
3002
0000
0000
0000
,
0023
0000
0000
0000
,
0230
0000
0000
0000
,
2300
0000
0000
0000
,
3002
0000
0000
0000
,
2003
0000
0000
0000
,
3100
0000
1000
0000
,
0100
0000
1000
0000
,
0010
0000
0100
0000
,
0010
0000
0100
0000
,
0001
0000
1000
0000
,
0001
0000
1000
0000
,
0001
0000
0010
0000
,
0001
0000
0001
0000
,
1000
0000
0100
0000
,
1000
0000
0001
0000
,
1000
0000
0100
0000
,
1000
0000
0001
0000
,
0010
0000
0100
0000
,
0010
0000
0100
0000
,
1000
0000
0010
0000
,
0000
0000
0000
0000
,
0110
0000
0100
0000
,
0100
0000
0010
0000
,
0010
0000
0100
0000
,
0100
0000
0001
0000
,
1000
0000
1000
0000
,
0001
0000
0001
0000
,
0010
0000
0010
0000
,
0100
1000
0100
0000
,
1000
0000
1000
0000
,
0001
0000
0001
0000
,
0100
0000
0010
0000
,
1000
0000
1000
0000
,
0010
0000
0100
0000
,
0001
0000
0001
0000
,
1000
0000
0100
0000
,
0010
0001
0010
0001
,
1000
0000
0000
0000
,
1000
0000
0000
0000
,
1001
0000
0000
0000
,
1000
0000
0000
0000
,
1001
0000
0000
0000
,
0001
0000
0000
0000
,
1001
0000
0000
0000
,
0000
0000
0000
0000
,
0001
0100
0001
0000
,
1000
0001
1000
0000
,
0001
0100
0001
0000
,
1000
0001
1000
0000
,
0100
0010
0100
0000
,
1000
0100
1000
0000
,
0010
0100
0010
0100
,
0001
0000
0001
0000
,
0010
0001
0010
0000
,
0001
1000
0001
0000
,
0010
0001
0010
0000
,
0001
1000
0001
0000
,
0100
0010
1000
0000
,
0010
0100
0010
0000
,
1000
0001
1000
0001
,
1000
0001
0010
0000
,
0001
1000
0001
0000
,
1000
0100
1000
0000
,
0010
0100
0010
0000
,
1000
0010
1000
0000
,
0001
1000
0001
0000
,
0010
0001
0010
0000
,
0001
1000
0001
1000
,
0100
0000
0100
0000
,
1000
0010
0100
0000
,
0010
0100
0010
0000
,
1000
0001
1000
0000
,
0001
0010
0100
0000
,
0010
0001
0010
0000
,
0001
1000
0001
0000
,
0100
0010
0100
0010
,
0100
0001
0100
0000
,
0001
1000
0200
0000
,
2300
0000
0000
0000
,
3100
0010
0002
0000
,
0203
0000
0000
0000
,
0301
0000
0000
0000
,
0000
0000
0000
0000
,
1001
0000
0001
0000
,
2000
0000
0000
0000
,
3100
1000
0020
0000
,
0230
0000
0000
0000
,
0301
0000
1000
0000
,
0020
0000
0000
0000
,
0130
0010
0100
0000
,
0002
0000
0000
0003
,
2002
0000
0000
0000
,
3003
0000
0000
0000
;

//---------------dance-single - ----------------
#NOTES:
     dance-single:
     :
     Medium:
     10:
     0.491,0.491,0.093,0.262,0.000:
0000
0000
0000
0000
,
0000
0000
0000
0000
,
0000
0000
0000
0000
,
2000
0000
3200
0000
,
2300
0000
0000
0000
,
3001
0001
0200
0000
,
0302
0000
0000
0000
,
2003
0000
3200
0000
,
2300
0000
0000
0000
,
3001
0001
0020
0000
,
0230
0000
0000
0000
,
1300
0000
0010
0100
0000
0100
0000
0000
,
0001
0000
1000
0100
0000
0100
0000
0000
,
2000
0000
0000
3002
0000
0000
0000
1003
,
0000
0001
0010
0001
0000
1000
0001
0000
,
0010
0000
0100
1000
0000
1000
0000
0000
,
0010
0000
0100
0001
0000
0001
0000
0000
,
2000
0000
0000
3002
0000
0000
0000
1003
,
0000
0001
0100
0001
0000
1000
0001
0000
,
0100
0000
0001
1000
0000
1000
0000
0000
,
0100
0000
0010
0001
0000
0001
0000
0000
,
0200
0000
0000
0320
0000
0000
0000
0130
,
0000
0001
1000
0001
0000
0010
0100
0000
,
1000
0000
0001
0010
0000
0010
0000
0000
,
0001
0000
1000
0010
0000
0010
0000
0000
,
2000
0000
0000
3002
0000
0000
0000
1003
,
0000
1000
0000
1000
0000
0001
0010
0000
,
1001
0000
0001
0010
0001
0010
0001
0000
,
1000
0000
0010
0100
0010
0100
0010
0000
,
1000
0001
0010
1000
,
0010
0000
0001
0000
0100
0010
1000
0000
,
0001
0000
1000
0000
0100
1000
0000
0010
,
0000
0010
0000
0000
1000
0000
0100
0000
,
0001
0100
1000
0001
,
1000
0000
0010
0100
0010
0100
0010
0000
,
1000
0000
0001
0010
0001
0010
0001
0000
,
1000
0000
0010
0100
0010
0100
0010
0000
,
1000
0000
0001
0100
0000
0100
0000
0001
,
1000
0010
0001
0010
,
1000
0000
0001
0100
0001
0100
0010
0000
,
1000
0001
1000
0010
,
0001
0010
1000
0001
,
1000
0001
1000
0001
0100
0001
0100
0001
,
1000
1000
2000
0000
,
3100
0000
0000
0000
,
0110
0010
0020
0000
,
0031
0001
0001
0000
,
1001
1000
2000
0000
,
3010
0010
0010
0000
,
0110
0110
0000
0000
,
0000
0000
0000
0000
,
0100
0001
0000
1000
0001
0000
0010
0100
,
1000
0100
0010
0000
0001
0000
1000
0000
,
0010
0100
0000
0001
1000
0000
0100
1000
,
0010
0100
0010
0000
0100
0000
0001
0000
,
1000
0100
1000
0000
0001
0000
1000
0010
,
1000
0000
0001
0000
0010
0000
0100
1000
,
0100
0000
1000
0000
0001
0100
0001
0000
,
1000
1000
0001
0001
,
1000
0001
0000
0010
0001
0000
1000
0010
,
0100
0010
1000
0000
0001
0000
0010
0000
,
0001
1000
0000
0010
1000
0000
0100
0010
,
0001
0010
0100
0000
1000
0000
0001
0000
,
1000
0100
1000
0000
0001
0000
0100
0001
,
0100
0001
1000
0100
,
1000
0000
1000
0000
1001
0000
0010
0100
,
0010
0000
1000
0001
0000
0000
1000
0000
,
1000
0100
0000
0010
0100
0000
1000
0001
,
0100
0001
1000
0000
0100
0000
0010
0000
,
0001
0100
0000
0001
1000
0000
0100
0010
,
0001
0010
0100
0000
1000
0000
0001
0100
,
0001
0000
1000
0000
0100
0000
0010
0001
,
0010
0000
0001
0000
1000
0000
0010
0100
,
0010
0000
1000
0001
0000
0010
0000
0100
,
0010
0000
0010
0000
0001
1000
0100
0010
,
0001
1000
0000
0010
1000
0000
0001
0010
,
0100
0010
0001
0000
1000
0000
0010
0000
,
0100
0001
0000
1000
0100
0000
1000
0010
,
0100
0010
1000
0000
0001
0000
1000
0010
,
1000
0000
0100
0000
0010
0000
0001
1000
,
0001
0100
0010
1000
,
0001
0010
0001
0010
0001
0000
1000
0000
,
0010
0100
0010
0100
0010
0000
1000
0000
,
0010
0100
0002
0000
,
2003
0001
0001
3001
,
1000
0001
0020
0000
,
0230
1000
1000
1300
,
1000
0001
1000
0000
0000
0001
1000
0000
,
0000
0001
0010
0100
1000
0000
0000
0000
,
0110
0010
2010
0000
,
3002
0000
0000
0000
0000
0000
1003
0001
,
1000
0010
0210
0000
,
0302
0000
0000
0000
0000
0000
1003
0001
,
0010
0010
0210
0000
,
2300
0000
0000
0000
0000
0000
3001
1000
,
0010
0010
0210
0000
,
0301
0010
0001
1000
0010
1000
0001
0000
,
2002
0000
0000
0000
,
3003
0000
0000
0000
;

//---------------dance-single - ----------------
#NOTES:
     dance-single:
     :
     Hard:
     12:
     0.641,0.604,0.316,0.393,0.015:
0000
0000
0000
0000
,
0000
0000
0000
0000
,
0000
0000
0000
0000
,
1001
1001
0200
0000
,
2300
0001
0001
3001
,
0011
0011
0200
0000
,
2300
0010
0010
3010
,
0110
0110
0020
0000
,
0230
0001
0001
0301
,
1001
1001
2100
0000
,
3100
0000
0010
0000
0001
1000
1000
0000
,
1001
0000
0001
1000
0000
0200
0000
0000
,
1300
0000
0010
0100
0000
0002
0000
0000
,
1003
0100
1000
0020
0000
0000
0000
0130
,
0000
0001
0010
0100
1000
0100
0010
0000
,
1001
0000
0001
0010
0000
0200
0000
0000
,
0310
0000
0001
1000
0000
0020
0000
0000
,
1030
0001
1000
0200
0000
0000
0000
1300
,
0010
0100
0001
0100
0010
1000
0100
0000
,
1001
0000
1000
0001
0000
0020
0000
0000
,
0031
0000
0100
0010
0000
2000
0000
0000
,
3001
1000
0100
0010
0100
1000
0010
0110
,
0000
0100
0001
2000
0000
0001
3001
0000
,
1100
0000
0010
0100
0000
0002
0000
0000
,
0103
0000
0010
1000
0000
0200
0000
0000
,
0310
0001
0100
0001
0010
0100
1000
0002
,
0000
1000
0000
1000
0000
1003
0100
0010
,
0011
0000
0001
1000
0100
1000
0001
0000
,
0010
0000
0100
0010
0001
1000
0000
1000
,
0001
0010
0001
0010
0100
1000
0001
0000
,
1000
0010
1000
0010
0100
0001
1000
0000
,
1001
0000
0010
0100
0010
0001
0000
2000
,
0000
0000
3020
0000
0000
0000
0130
0000
0001
0000
0000
0100
0000
0000
1000
0000
,
0100
0000
0001
0100
1000
0000
0100
0000
,
0010
0001
1000
0000
0100
0010
0001
1000
,
0100
0000
1000
0100
0010
0100
1000
0000
,
0001
0000
0100
0001
0010
0001
0000
0001
,
1000
0000
1000
0010
0100
0001
0000
0001
,
1000
0000
1000
0001
0010
0100
1000
0100
,
0010
0000
0001
1000
0100
0010
0000
0002
,
0000
0000
0203
0000
0000
0000
0301
0000
1000
0000
0000
0010
0000
0000
0001
0000
,
0010
0000
1000
0001
0100
0000
0010
0000
,
1000
0100
0001
0100
1000
0001
0010
0000
,
0011
0110
2100
0000
,
3001
0000
1000
0000
,
1001
1001
0020
0000
,
0130
0001
1000
0000
,
1001
1001
0002
0000
,
0103
0001
0010
0000
,
1100
0000
1100
0000
2000
0000
0000
0001
,
0000
0001
0000
0001
3001
0000
0000
0000
,
1000
0010
0000
0010
0100
0000
0001
1000
,
0010
0001
0010
1000
0001
0010
0001
0000
,
0010
0100
0000
0100
1000
0000
0001
1000
,
0100
0001
0100
1000
0001
0100
0001
0100
,
0020
0000
1000
1030
0000
0001
0010
0100
,
2000
0000
0010
3010
0000
0000
1000
0001
,
0010
0000
0001
1000
0000
0100
0000
0020
,
0001
0000
0031
0000
1000
0010
0100
0001
,
1000
0100
0000
0100
0010
0000
0001
1000
,
0100
0001
0100
1000
0001
0100
0001
0000
,
0100
0010
0000
0010
1000
0000
0001
1000
,
0010
0001
0010
1000
0001
0010
0001
0000
,
2000
0000
0100
3100
0000
1000
0010
0100
,
0002
0000
1000
1000
0000
1003
0000
0000
,
0110
0000
0110
0000
0110
0000
0100
0010
,
1000
0000
0100
0010
0001
0000
0001
0000
,
0100
0010
0000
0010
1000
0000
0001
1000
,
0100
0001
0100
1000
0100
0010
0100
0000
,
1000
0010
0000
0010
0100
0000
0001
1000
,
0010
0001
0010
1000
0010
0100
0010
0000
,
2000
0000
0001
3001
0000
1000
0010
0100
,
0002
0000
1000
1003
0000
0001
0100
0010
,
1000
0000
0001
1000
0000
0100
0000
0020
,
0001
0000
0031
0000
1000
0100
0010
0001
,
1000
0010
0000
0010
0100
0000
0001
1000
,
0010
0001
0010
1000
0100
0010
0100
0000
,
1000
0010
0000
0010
0100
0000
0001
1000
,
0100
0001
0100
1000
0010
0100
0010
0100
,
0002
0000
1000
1003
0000
0000
1010
0000
,
1010
0000
0200
0001
0000
0301
0000
0000
,
1000
0100
0010
0100
1000
0001
0100
0001
,
1000
0100
0010
0100
1000
0000
0001
0010
,
0200
0000
1000
1300
0000
0020
0000
0000
,
0100
0000
0100
0000
0130
0000
0001
0010
,
0200
0000
1000
1300
0000
0020
0000
0000
,
0100
0100
0100
0130
,
0001
1000
0100
0000
0000
1000
0100
0000
,
0000
1000
0100
0010
0001
0000
0000
0000
,
1001
0101
1020
0100
,
0230
0000
0001
0000
0301
0000
1000
0100
,
0001
1100
0120
0100
,
0230
0000
0000
0000
0001
0000
0000
0000
0301
0000
0000
1000
0100
0000
0000
0000
,
1200
1300
0021
0031
,
1002
0000
1000
0000
1003
0000
0001
0100
,
0010
1010
0102
0000
,
1003
0000
0001
0000
0010
0000
0100
0000
1000
0000
0000
0001
0100
0000
0001
0000
,
2002
0000
0000
0000
,
3003
0000
0000
0000
;

//---------------dance-single - ----------------
#NOTES:
     dance-single:
     :
     Challenge:
     15:
     0.771,0.718,0.547,0.216,0.120:
0000
0000
0000
0000
,
0000
0000
0000
0000
,
0000
0000
0000
0000
,
0101
0101
1001
0000
,
1001
0000
0100
0000
0001
0100
1000
0000
,
1001
1001
0011
0000
,
1001
0000
0100
0000
0001
0100
1000
0000
,
1100
1100
0101
0000
,
1001
0000
0010
0000
1000
0010
0001
0000
,
0011
0011
1001
0000
,
0001
0100
0001
1000
0001
0100
0001
0000
,
1000
0100
0010
0001
0010
0100
1000
0001
,
0000
0001
1000
0100
0010
0001
0010
0100
,
0000
0100
1000
0010
0100
0001
0100
0110
,
0000
1000
0001
0011
0000
0100
0110
0000
,
1001
0000
1000
0010
0100
0001
1000
0100
,
0000
0100
0010
0001
0010
0100
1000
0001
,
0000
0001
1000
0010
0100
0001
0100
0110
,
0000
1000
0001
0011
0000
0100
0110
0000
,
1001
0000
0001
1000
0100
0010
0001
1000
,
0000
1000
0010
0100
0001
1000
0010
0100
,
0000
0100
0001
0010
0100
1000
0100
0110
,
0000
0001
1000
1010
0000
0100
0110
0000
,
1001
0000
1000
0001
0100
0010
0100
0001
,
0000
0001
1000
0100
0010
0100
1000
0010
,
0000
0010
0100
0001
0010
0100
1000
1010
,
0000
1010
0000
1010
0000
1010
1000
0001
,
1001
0000
1000
1000
0001
0001
0010
0001
,
0010
0000
0100
0100
1000
1000
0001
0100
,
0020
0000
1000
1030
0001
0010
0000
1000
,
0020
0000
0000
0000
0001
0000
0031
0000
1000
0000
0000
0100
0010
0000
0000
0010
,
0100
0000
1000
0001
0100
0010
0100
0001
,
0000
0001
1000
0100
0010
0100
1000
0001
,
0000
0001
1000
0010
0001
0010
1000
0001
,
0000
0000
0001
0000
1000
0000
0100
0000
0010
0000
0000
0001
1000
0000
0000
1000
,
0010
0000
0100
0100
0001
0001
1000
0100
,
0010
0000
0010
0001
0100
0020
0000
1000
,
1030
0001
0010
0100
1000
0020
0000
0100
,
0130
0000
0001
0000
1000
0000
0100
0000
0010
0000
0000
0001
0100
0000
0000
0100
,
0010
0000
1000
0001
0010
1000
0010
0001
,
0000
0001
1000
0100
0001
0100
1000
0010
,
0100
0000
0001
1000
0100
0010
0100
1000
,
0001
0100
0001
0000
1000
0001
1000
0000
0100
1000
0100
0000
0010
0000
0001
0000
,
0101
1010
0210
0000
,
0302
0000
1003
0000
,
1100
1100
1002
0000
,
0013
0110
1100
0000
,
1001
1001
2000
0000
,
3010
1010
0110
0000
,
0011
0000
0011
0000
0020
0000
0000
0100
,
0000
0100
0000
0100
0130
0000
0000
0000
,
1000
0001
0010
1000
0010
0000
0001
2000
,
0000
0100
3100
0010
0001
0100
1000
0100
,
0010
1000
0100
0001
0100
0000
1000
0002
,
0000
0000
0100
0000
0103
0000
0001
0000
1000
0000
0100
1000
0100
0000
1000
0001
,
2000
0000
0001
3001
0000
0100
0010
1000
,
0002
0000
1000
1003
0000
0001
1000
0010
,
0100
1000
0100
0001
1000
0100
0010
0001
,
2000
0000
0000
0000
3002
0000
0000
0000
1003
0000
0001
1000
0001
0000
1000
0100
,
1000
0001
0010
1000
0010
0000
0001
0200
,
0000
0010
0310
1000
0001
0010
0100
1000
,
0001
1000
0100
0001
0100
0000
1000
0002
,
0000
0000
0100
0000
0103
0000
0010
0000
1000
0000
0001
0010
0001
0000
1000
0001
,
1000
0100
0010
0001
1000
0001
0200
0000
,
0320
0000
0130
0001
1000
0100
1000
0000
,
1001
0000
1001
0000
1001
0001
1000
0100
,
0020
0000
0000
0000
0230
0000
0000
0000
0310
0000
0001
0100
0001
0000
1000
0001
,
1000
0001
0010
1000
0010
0000
0001
1000
,
0100
0010
1000
0010
0001
1000
0010
0100
,
0001
1000
0010
0001
0010
0000
1000
0010
,
0100
0000
1000
0000
0100
0000
0001
0000
1000
0000
0100
1000
0100
0000
1000
0001
,
1000
0010
0100
0001
1000
0000
1000
0001
,
0010
0100
1000
0001
0100
0000
0100
0001
,
1000
0100
1000
0001
0100
1000
0100
0001
,
2000
0000
0000
0000
3002
0000
0000
0000
1003
0000
0001
0100
0001
0000
1000
0001
,
1000
0001
0100
1000
0100
0000
0001
0010
,
0100
0001
0100
1000
0001
0100
0010
1000
,
0001
1000
0010
0001
0010
0000
1000
0001
,
0100
0000
0010
0000
0001
0000
0010
0000
1000
0000
0001
0100
0001
0000
1000
0001
,
1000
0100
0010
0001
0100
0000
0100
0001
,
0010
0100
1000
0010
0100
0010
1000
0000
,
1001
0000
1001
0000
1001
1000
0010
0100
,
0002
0000
0000
0000
2003
0000
0000
0000
3001
0000
1000
0100
1000
0000
0001
1000
,
0001
0010
0100
1000
0001
0100
0000
0100
,
0001
1000
0100
0010
0001
0000
1000
0010
,
0100
0001
1000
0200
0000
1000
1300
0000
,
0001
0100
0010
0100
0001
0100
0010
1010
,
0000
0100
0110
0000
0000
0100
0110
0000
,
0000
0100
0010
0001
1000
0000
0000
0000
,
1100
0000
1001
0000
1100
0000
0010
0001
,
0100
0000
0101
0000
1001
0000
0100
0100
,
0001
0000
1001
0000
1010
0000
0100
0010
,
0001
0000
0000
0000
0011
0000
0000
0000
1001
0000
1000
0010
1000
0000
0001
1000
,
0001
0000
1001
0000
1100
0000
0100
1000
,
0001
0000
0101
0000
1001
0000
1000
1000
,
0001
0011
1001
1000
,
0001
0010
0001
0000
1000
0001
1000
0000
0100
1000
0100
0000
0010
0100
0010
0000
,
2002
0000
0000
0000
,
3003
0000
0000
0000
;

//---------------dance-single - ----------------
#NOTES:
     dance-single:
     :
     Beginner:
     4:
     0.135,0.187,0.116,0.000,0.000:
0000
0000
0000
0000
,
0000
0000
0000
0000
,
0000
0000
0000
0000
,
1000
0000
0000
0000
,
0000
0000
0000
0000
,
1000
0000
0000
0000
,
0000
0000
0000
0000
,
1000
0000
0000
0000
,
0000
0000
0000
0000
,
1000
0000
0000
0000
,
0000
0000
0000
0000
,
1001
0000
0000
0000
,
0001
0000
0000
0000
,
0010
0000
0000
0000
,
0001
0000
0000
0000
,
0010
0000
0000
0000
,
0100
0000
0000
0000
,
0010
0000
0000
0000
,
0100
0000
0000
0000
,
1000
0000
0000
0000
,
0100
0000
0000
0000
,
1000
0000
0000
0000
,
0001
0000
0000
0000
,
0100
0000
0000
0000
,
0001
0000
0000
0000
,
0100
0000
0000
0000
,
0000
0000
0000
0000
,
0110
0000
0000
0000
,
0010
0000
0000
0000
,
0010
0000
0000
0000
,
0000
0000
0000
0000
,
1001
0000
0000
0000
,
1000
0000
0000
0000
,
1000
0000
0000
0000
,
0000
0000
0000
0000
,
0110
0000
0000
0000
,
0100
0000
0000
0000
,
0100
0000
0000
0000
,
0000
0000
0000
0000
,
1001
0000
0000
0000
,
0001
0000
0000
0000
,
0001
0000
0000
0000
,
1000
0000
1000
0000
,
1001
0000
0000
0000
,
0000
0000
0000
0000
,
1001
0000
0000
0000
,
0000
0000
0000
0000
,
1001
0000
0000
0000
,
0000
0000
0000
0000
,
1001
0000
0000
0000
,
0000
0000
0000
0000
,
0010
0000
0100
0000
,
0010
0000
0100
0000
,
0001
0000
0100
0000
,
0001
0000
0000
0000
,
1000
0000
0100
0000
,
1000
0000
0100
0000
,
1000
0000
0001
0000
,
1000
0000
0000
0000
,
0100
0000
0010
0000
,
0100
0000
0010
0000
,
0100
0000
0010
0000
,
0001
0000
0000
0000
,
0010
0000
0001
0000
,
0010
0000
0000
0000
,
1001
0000
0001
0000
,
0001
0000
0000
0000
,
1000
0000
0010
0000
,
1000
0000
0010
0000
,
0100
0000
0010
0000
,
0100
0000
0000
0000
,
0001
0000
0100
0000
,
0001
0000
0100
0000
,
0010
0000
0100
0000
,
0010
0000
0000
0000
,
1000
0000
0001
0000
,
1000
0000
0001
0000
,
0010
0000
0001
0000
,
0010
0000
0000
0000
,
0001
0000
1000
0000
,
0001
0000
1000
0000
,
0100
0000
0100
0000
,
0100
0000
0000
0000
,
1001
0000
0000
0000
,
0000
0000
0000
0000
,
0110
0000
0000
0000
,
0000
0000
0000
0000
,
1001
0000
0000
0000
,
0000
0000
0000
0000
,
1001
0000
0001
0000
,
0001
0000
0000
0000
,
1000
0000
1000
0000
,
1000
0000
0000
0000
,
0001
0000
0001
0000
,
0001
0000
0000
0000
,
1000
0000
1000
0000
,
1000
0000
0000
0000
,
1001
0000
0000
0000
;

//---------------dance-double - ----------------
#NOTES:
     dance-double:
     :
     Easy:
     6:
     0.260,0.340,0.069,0.170,0.000: // measure 1
00000000
00000000
00000000
00000000
,  // measure 2
00000000
00000000
00000000
00000000
,  // measure 3
00000000
00000000
00000000
00000000
,  // measure 4
20000000
00000000
00000000
00000000
,  // measure 5
30020000
00000000
00000000
00000000
,  // measure 6
20030000
00000000
00000000
00000000
,  // measure 7
32000000
00000000
00000000
00000000
,  // measure 8
03200000
00000000
00000000
00000000
,  // measure 9
00302000
00000000
00000000
00000000
,  // measure 10
00203000
00000000
00000000
00000000
,  // measure 11
00302000
00000000
00000000
00000000
,  // measure 12
00013000
00000000
00000100
00000000
,  // measure 13
00001000
00000000
00000100
00000000
,  // measure 14
00010000
00000000
00000001
00000000
,  // measure 15
00010000
00000000
00000001
00000000
,  // measure 16
00000010
00000000
00000100
00000000
,  // measure 17
00000010
00000000
00000001
00000000
,  // measure 18
00010000
00000000
00000001
00000000
,  // measure 19
00000010
00000000
00000100
00000000
,  // measure 20
00010000
00000000
00001000
00000000
,  // measure 21
00010000
00000000
01000000
00000000
,  // measure 22
00100000
00000000
10000000
00000000
,  // measure 23
00010000
00000000
10000000
00000000
,  // measure 24
00100000
00000000
01000000
00000000
,  // measure 25
00100000
00000000
10000000
00000000
,  // measure 26
01000000
00000000
00100000
00000000
,  // measure 27
00000000
00000000
00000000
00000000
,  // measure 28
00011000
00000000
00001000
00000000
,  // measure 29
00001000
00000000
00010000
00000000
,  // measure 30
00010000
00000000
00001000
00000000
,  // measure 31
00001000
00000000
00000100
00000000
,  // measure 32
00000010
00000000
00000001
00000000
,  // measure 33
00001000
00000000
00001000
00000000
,  // measure 34
00000001
00000000
00000001
00000000
,  // measure 35
00000100
00000010
00000100
00000000
,  // measure 36
00000001
00000000
00000001
00000000
,  // measure 37
00010000
00000000
00010000
00000000
,  // measure 38
00000100
00000000
00000010
00000000
,  // measure 39
00000001
00000000
00000001
00000000
,  // measure 40
00001000
00000000
00000100
00000000
,  // measure 41
00010000
00000000
00010000
00000000
,  // measure 42
00001000
00000000
01000000
00000000
,  // measure 43
00100000
01000000
00100000
01000000
,  // measure 44
00020000
00000000
00000000
00000000
,  // measure 45
10030000
00000000
00000000
00000000
,  // measure 46
00020000
00000000
00000000
00000000
,  // measure 47
10030000
00000000
00000000
00000000
,  // measure 48
01100000
00000000
00000000
00000000
,  // measure 49
01000000
00000000
00000000
00000000
,  // measure 50
01100000
00000000
00000000
00000000
,  // measure 51
00000000
00000000
00000000
00000000
,  // measure 52
10000000
00100000
10000000
00000000
,  // measure 53
00001000
10000000
00001000
00000000
,  // measure 54
00100000
00001000
00100000
00000000
,  // measure 55
00001000
00010000
00001000
00000000
,  // measure 56
00000010
00000100
00000010
00000000
,  // measure 57
00001000
00000001
00001000
00000000
,  // measure 58
00000010
00001000
00000010
00001000
,  // measure 59
00000001
00000000
00000010
00000000
,  // measure 60
00000100
00100000
00000100
00000000
,  // measure 61
00010000
00001000
00010000
00000000
,  // measure 62
01000000
00100000
01000000
00000000
,  // measure 63
10000000
00010000
10000000
00000000
,  // measure 64
00100000
01000000
00001000
00000000
,  // measure 65
00010000
00001000
00010000
00000000
,  // measure 66
00000010
00000100
00000010
00000100
,  // measure 67
00000010
00000100
00000001
00000000
,  // measure 68
00001000
00000001
00001000
00000000
,  // measure 69
00000001
00000010
00000001
00000000
,  // measure 70
00000100
00000010
00000100
00000000
,  // measure 71
00000001
00000010
00000100
00000000
,  // measure 72
00010000
00001000
00010000
00000000
,  // measure 73
00001000
01000000
00001000
00000000
,  // measure 74
00100000
01000000
00100000
01000000
,  // measure 75
10000000
00000000
10000000
00000000
,  // measure 76
10000000
01000000
00100000
00000000
,  // measure 77
00001000
00010000
00001000
00000000
,  // measure 78
00010000
00000100
00010000
00000000
,  // measure 79
00000100
00000010
00000001
00000000
,  // measure 80
00000100
00000010
00000100
00000000
,  // measure 81
00000001
00001000
00000001
00000000
,  // measure 82
00010000
00001000
00010000
00001000
,  // measure 83
00100000
01000000
00100000
00000000
,  // measure 84
00010000
10000000
00200000
00000000
,  // measure 85
02300000
00000000
00000000
00000000
,  // measure 86
03001000
00010000
00002000
00000000
,  // measure 87
00023000
00000000
00000000
00000000
,  // measure 88
00031000
00000000
00000000
00000000
,  // measure 89
00000000
00000000
00000000
00000000
,  // measure 90
00011000
00000000
00010000
00000000
,  // measure 91
00000220
00000000
00000000
00000330
,  // measure 92
00000100
00000010
00000100
00000000
,  // measure 93
00002002
00000000
00000000
00003003
,  // measure 94
00001001
00000000
00000100
00000000
,  // measure 95
00022000
00000000
00000000
00033000
,  // measure 96
01000000
00100000
01000000
00000000
,  // measure 97
00010000
00100000
01000000
10000000
,  // measure 98
20020000
00000000
00000000
00000000
,  // measure 99
30030000
00000000
00000000
00000000
;

//---------------dance-double - ----------------
#NOTES:
     dance-double:
     :
     Medium:
     10:
     0.501,0.529,0.162,0.262,0.000: // measure 1
00000000
00000000
00000000
00000000
,  // measure 2
00000000
00000000
00000000
00000000
,  // measure 3
00000000
00000000
00000000
00000000
,  // measure 4
00020000
00000000
20030000
00000000
,  // measure 5
30020000
00000000
00000000
00000000
,  // measure 6
10030000
10000000
02000000
00000000
,  // measure 7
03200000
00000000
00000000
00000000
,  // measure 8
00302000
00000000
00023000
00000000
,  // measure 9
00030020
00000000
00000000
00000000
,  // measure 10
00000130
00000100
00000002
00000000
,  // measure 11
00020003
00000000
00000000
00000000
,  // measure 12
00031000
00000000
01000000
00100000
00000000
00100000
00000000
00000000
,  // measure 13
10000000
00000000
00100000
01000000
00000000
01000000
00000000
00000000
,  // measure 14
00002000
00000000
00000000
00023000
00000000
00000000
00000000
00030001
,  // measure 15
00000000
00001000
00000100
00001000
00000000
00000001
00001000
00000000
,  // measure 16
00000100
00000000
00010000
00001000
00000000
00001000
00000000
00000000
,  // measure 17
00100000
00000000
01000000
10000000
00000000
10000000
00000000
00000000
,  // measure 18
00200000
00000000
00000000
02300000
00000000
00000000
00000000
03100000
,  // measure 19
00000000
10000000
01000000
10000000
00000000
00001000
01000000
00000000
,  // measure 20
00001000
00000000
00010000
00000010
00000000
00000010
00000000
00000000
,  // measure 21
00000100
00000000
00000001
00000010
00000000
00000010
00000000
00000000
,  // measure 22
00000002
00000000
00000000
00002003
00000000
00000000
00000000
00003001
,  // measure 23
00000000
00010000
00000010
00010000
00000000
00001000
00010000
00000000
,  // measure 24
00001000
00000000
01000000
00100000
00000000
00100000
00000000
00000000
,  // measure 25
10000000
00000000
00010000
01000000
00000000
01000000
00000000
00000000
,  // measure 26
00002000
00000000
00000000
00023000
00000000
00000000
00000000
00031000
,  // measure 27
00000000
00001000
00000000
00001000
00000000
00010000
00001000
00010000
,  // measure 28
00000001
00000000
00001000
00000010
00001000
00000010
00001000
00000000
,  // measure 29
00000001
00000000
00000010
00000100
00000010
00000100
00000010
00000000
,  // measure 30
00000001
00000100
00001000
00000100
,  // measure 31
00000001
00000000
00000010
00000000
00000100
00001000
00010000
00000000
,  // measure 32
01000000
00000000
00100000
00000000
10000000
00010000
00000000
01000000
,  // measure 33
00000000
01000000
00000000
00000000
00010000
00000000
00100000
00000000
,  // measure 34
10000000
00100000
00010000
01000000
,  // measure 35
00001000
00000000
00010000
00001000
00010000
00001000
00010000
00000000
,  // measure 36
00000010
00000000
00000100
00000001
00000100
00000001
00000100
00000000
,  // measure 37
00000001
00000000
00010000
00000010
00010000
00000010
00010000
00000000
,  // measure 38
00001000
00000000
00100000
01000000
00000000
01000000
00000000
10000000
,  // measure 39
00010000
00100000
01000000
00100000
,  // measure 40
00001000
00000000
00010000
00001000
00010000
00001000
00000010
00000000
,  // measure 41
00000100
00000001
00000010
00001000
,  // measure 42
00000010
00000001
00010000
00001000
,  // measure 43
00100000
01000000
00100000
10000000
00010000
10000000
00010000
10000000
,  // measure 44
00010000
10010000
00020000
00000000
,  // measure 45
01030000
00000000
00000000
00000000
,  // measure 46
00011000
00011000
00002000
00000000
,  // measure 47
00013000
00001000
00001000
00000000
,  // measure 48
00001001
00001001
00000020
00000000
,  // measure 49
00000130
00000100
00000100
00000000
,  // measure 50
00011000
00011000
00000000
00000000
,  // measure 51
00000000
00000000
00000000
00000000
,  // measure 52
00010000
00100000
00000000
01000000
00100000
00000000
00010000
10000000
,  // measure 53
00100000
10000000
00010000
00000000
00100000
00000000
00001000
00000000
,  // measure 54
00010000
00000010
00000000
00000100
00000010
00000000
00001000
00000100
,  // measure 55
00000010
00000100
00001000
00000000
00000001
00000000
00000100
00000000
,  // measure 56
00000010
00001000
00000010
00000000
00010000
00000000
00001000
00010000
,  // measure 57
00001000
00000000
00100000
00000000
01000000
00000000
10000000
00100000
,  // measure 58
10000000
00000000
00001000
00000000
00100000
00001000
00100000
00000000
,  // measure 59
00011000
00001000
00011000
00010000
,  // measure 60
00000001
00000100
00000000
00000001
00001000
00000000
00000001
00000010
,  // measure 61
00000100
00000010
00000001
00000000
00000100
00000000
00000010
00000000
,  // measure 62
00010000
00001000
00000000
01000000
00100000
00000000
10000000
01000000
,  // measure 63
00100000
01000000
10000000
00000000
00001000
00000000
00010000
00000000
,  // measure 64
00000001
00001000
00000001
00000000
00000010
00000000
00000100
00010000
,  // measure 65
00000100
00010000
00001000
01000000
,  // measure 66
01100000
00000000
01100000
00000000
01100000
00000000
00100000
01000000
,  // measure 67
00100000
00000000
10000000
00010000
00000000
00000000
10000000
00000000
,  // measure 68
01000000
00100000
00000000
00010000
01000000
00000000
00100000
10000000
,  // measure 69
00010000
10000000
00100000
00000000
01000000
00000000
00001000
00000000
,  // measure 70
00010000
00000100
00000000
00000010
00000100
00000000
00001000
00000001
,  // measure 71
00000100
00000001
00001000
00000000
00000100
00000000
00000010
00000001
,  // measure 72
00010000
00000000
00001000
00000000
01000000
00000000
00100000
10000000
,  // measure 73
00010000
00000000
00100000
00000000
00001000
00000000
00010000
00001000
,  // measure 74
00010000
00000000
00000010
00000100
00000000
00000100
00000000
00000001
,  // measure 75
00001000
00000000
00001000
00000000
00000001
00000100
00000010
00010000
,  // measure 76
00001000
01000000
00000000
00100000
01000000
00000000
00010000
00100000
,  // measure 77
01000000
00100000
00010000
00000000
00100000
00000000
00001000
00000000
,  // measure 78
00010000
00000100
00000000
00000010
00000100
00000000
00001000
00000001
,  // measure 79
00000100
00000001
00001000
00000000
00000100
00000000
00010000
00001000
,  // measure 80
00010000
00000000
00001000
00000000
00100000
00000000
01000000
10000000
,  // measure 81
00100000
01000000
00010000
10000000
,  // measure 82
10010000
00000000
10010000
00000000
10010000
00000000
00010000
10000000
,  // measure 83
00001000
01000000
00001000
01000000
00001000
00000000
00010000
00000000
,  // measure 84
00000100
00000010
00000002
00000000
,  // measure 85
00002003
00000001
00000001
00003001
,  // measure 86
00001000
00000100
00020000
00000000
,  // measure 87
00032000
10000000
10000000
10003000
,  // measure 88
00010000
10000000
00010000
00000000
00000000
10000000
00010000
00000000
,  // measure 89
00000000
10000000
00100000
01000000
00001000
00000000
00000000
00000000
,  // measure 90
00011000
00010000
00010020
00000000
,  // measure 91
00000230
00000000
00000000
00000000
00000000
00000000
00000310
00001000
,  // measure 92
00000001
00000001
00002001
00000000
,  // measure 93
00003200
00000000
00000000
00000000
00000000
00000000
00010300
00001000
,  // measure 94
01000000
01000000
01200000
00000000
,  // measure 95
20300000
00000000
00000000
00000000
00000000
00000000
31000000
00100000
,  // measure 96
00001000
00001000
00012000
00000000
,  // measure 97
00013000
00000010
00000100
00000001
00000100
00000010
00010000
00000000
,  // measure 98
00022000
00000000
00000000
00000000
,  // measure 99
00033000
00000000
00000000
00000000
;

//---------------dance-double - ----------------
#NOTES:
     dance-double:
     :
     Hard:
     12:
     0.638,0.642,0.308,0.386,0.015: // measure 1
00000000
00000000
00000000
00000000
,  // measure 2
00000000
00000000
00000000
00000000
,  // measure 3
00000000
00000000
00000000
00000000
,  // measure 4
00011000
00011000
00002000
00000000
,  // measure 5
02003000
00100000
00100000
03100000
,  // measure 6
10010000
10010000
02000000
00000000
,  // measure 7
03002000
00010000
00010000
00013000
,  // measure 8
00010010
00010010
00000020
00000000
,  // measure 9
00002030
00000001
00000001
00003001
,  // measure 10
00000110
00000110
00020100
00000000
,  // measure 11
00030100
00010000
00001000
01000000
,  // measure 12
01100000
00000000
10000000
00100000
00000000
20000000
00000000
00000000
,  // measure 13
30010000
00000000
01000000
00001000
00000000
00020000
00000000
00000000
,  // measure 14
00031000
00010000
00000010
00000200
00000000
00000000
00000000
00000310
,  // measure 15
00000000
00001000
00000100
00000010
00000001
00000010
00000100
00000000
,  // measure 16
00011000
00000000
00001000
01000000
00000000
00200000
00000000
00000000
,  // measure 17
01300000
00000000
00010000
10000000
00000000
02000000
00000000
00000000
,  // measure 18
03100000
00010000
00100000
02000000
00000000
00000000
00000000
13000000
,  // measure 19
00001000
00100000
00001000
10000000
00001000
00100000
00001000
00000000
,  // measure 20
00011000
00000000
00000100
00000010
00000000
00000002
00000000
00000000
,  // measure 21
00001003
00000000
00000001
00000010
00000000
00000002
00000000
00000000
,  // measure 22
00001003
00000001
00000010
00000100
00010000
00001000
00010000
00011000
,  // measure 23
00000000
01000000
00100000
02000000
00000000
00010000
03010000
00000000
,  // measure 24
10010000
00000000
10000000
01000000
00000000
20000000
00000000
00000000
,  // measure 25
30010000
00000000
00100000
00001000
00000000
00020000
00000000
00000000
,  // measure 26
00030100
00000010
00000001
00000010
00000100
00010000
00001000
02000000
,  // measure 27
00000000
00100000
00000000
00100000
00000000
03100000
10000000
01000000
,  // measure 28
00100000
00000000
00001000
00100000
00010000
00100000
00001000
00000000
,  // measure 29
00010000
00000000
00000100
00000010
00000001
00010000
00000000
00010000
,  // measure 30
00000010
00000100
00000010
00000100
00000001
00000010
00000100
00000000
,  // measure 31
00010000
00001000
00010000
00001000
00100000
01000000
10000000
00000000
,  // measure 32
10010000
00000000
00010000
00100000
00001000
00010000
00000000
00000200
,  // measure 33
00000000
00000000
00000320
00000000
00000000
00000000
00000031
00000000
00001000
00000000
00000000
00000100
00000000
00000000
00001000
00000000
,  // measure 34
00010000
00000000
00100000
01000000
10000000
00000000
00010000
00000000
,  // measure 35
01000000
00100000
01000000
00000000
00010000
00100000
00001000
00010000
,  // measure 36
00001000
00000000
00010000
00000010
00000100
00000010
00010000
00000000
,  // measure 37
00000001
00000000
00000010
00000100
00001000
00000100
00000000
00001000
,  // measure 38
00000001
00000000
00000001
00000010
00000100
00010000
00000000
00010000
,  // measure 39
00001000
00000000
01000000
00100000
10000000
00100000
01000000
00001000
,  // measure 40
00010000
00000000
00001000
00010000
00000010
00000100
00000000
00000002
,  // measure 41
00000000
00000000
00002003
00000000
00000000
00000000
00003100
00000000
00010000
00000000
00000000
00001000
00000000
00000000
00100000
00000000
,  // measure 42
01000000
00000000
10000000
00010000
00100000
00000000
00010000
00000000
,  // measure 43
10000000
01000000
00010000
01000000
10000000
00001000
00010000
00000000
,  // measure 44
00011000
00010010
00000120
00000000
,  // measure 45
00000130
00000000
00000100
00000000
,  // measure 46
00001001
00001001
00002000
00000000
,  // measure 47
00003100
00010000
00001000
00000000
,  // measure 48
01100000
01100000
00200000
00000000
,  // measure 49
10300000
00001000
00010000
00000000
,  // measure 50
00011000
00000000
00011000
00000000
00020000
00000000
00000000
00000010
,  // measure 51
00000000
00000010
00000000
00000010
00030010
00000000
00000000
00000000
,  // measure 52
00001000
00000010
00000000
00000010
00000100
00000000
00000001
00001000
,  // measure 53
00000010
00000001
00000010
00001000
00000001
00000010
00000001
00000000
,  // measure 54
00000010
00000100
00000000
00000100
00010000
00000000
00001000
10000000
,  // measure 55
01000100
00010000
01000000
10000000
00001000
00010000
00001000
00010000
,  // measure 56
00000020
00000000
00000100
00000130
00000000
00000001
00000010
00000100
,  // measure 57
00002000
00000000
00000001
00003001
00000000
00000000
00001000
00000100
,  // measure 58
00010000
00000000
00001000
00100000
00000000
01000000
00000000
20000000
,  // measure 59
00010000
00000000
30010000
00000000
10000000
00100000
01000000
00010000
,  // measure 60
00100000
00001000
00000000
00001000
00010000
00000000
00000001
00001000
,  // measure 61
00000100
00000001
00000100
00001000
00000010
00000100
00000010
00000000
,  // measure 62
00010000
00001000
00000000
00001000
10000000
00000000
00010000
10000000
,  // measure 63
00100000
00010000
00100000
10000000
00001000
00010000
00001000
00000000
,  // measure 64
00020000
00000000
00001000
00031000
00000000
00000100
00000010
00000001
,  // measure 65
00002000
00000000
00000001
00000001
00000000
00003001
00000000
00000000
,  // measure 66
00000110
00000000
00000110
00000000
00000110
00000000
00000100
00000010
,  // measure 67
00010000
00000000
00001000
00010000
00001000
00000000
00000000
00000000
,  // measure 68
01000000
00100000
00000000
00100000
10000000
00000000
00010000
10000000
,  // measure 69
01000000
00010000
01000000
10000000
01000000
00100000
01000000
00000000
,  // measure 70
10000000
00001000
00000000
00001000
00010000
00000000
00000001
00001000
,  // measure 71
00000010
00000001
00000010
00001000
00000010
00000100
00000010
00000000
,  // measure 72
00002000
00000000
00000001
00003001
00000000
00010000
00001000
00100000
,  // measure 73
02000000
00000000
10000000
13000000
00000000
00100000
01000000
00100000
,  // measure 74
10000000
00000000
00100000
01000000
00000000
00001000
00000000
00020000
,  // measure 75
00001000
00000000
00031000
00000000
00010000
00000100
00000010
00000001
,  // measure 76
00010000
00001000
00000000
00001000
10000000
00000000
00010000
10000000
,  // measure 77
00100000
00010000
00100000
10000000
00001000
00100000
00001000
00000000
,  // measure 78
00010000
00000100
00000000
00000100
00000010
00000000
00000001
00001000
,  // measure 79
00000100
00000001
00000100
00001000
00000010
00000100
00000010
00000100
,  // measure 80
00000002
00000000
00001000
00001003
00000000
00000000
00000110
00000000
,  // measure 81
00000110
00000000
00000010
00000100
00000000
00000010
00000000
00000000
,  // measure 82
00001000
00000100
00000010
00000100
00001000
00010000
01000000
00100000
,  // measure 83
10000000
00100000
01000000
00001000
00010000
00000000
00001000
00100000
,  // measure 84
02000000
00000000
10000000
13000000
00000000
00020000
00000000
00000000
,  // measure 85
10000000
00000000
10000000
00000000
10030000
00000000
00001000
00010010
,  // measure 86
00000200
00000000
00000010
00000310
00000000
00002000
00000000
00000000
,  // measure 87
00000001
00000001
00000001
00003001
,  // measure 88
00001000
00000100
00010000
00000000
00000000
00000100
00010000
00000000
,  // measure 89
00000000
00000100
00010000
00001000
01000000
00000000
00000000
00000000
,  // measure 90
01100000
10100000
02010000
00010000
,  // measure 91
03002000
00000000
10000000
00000000
10003000
00000000
00001000
00010000
,  // measure 92
00000010
00000110
00000102
00000100
,  // measure 93
00020003
00000000
00000000
00000000
00000001
00000000
00000000
00000000
00030001
00000000
00000000
00010000
00001000
00000000
01000000
00000000
,  // measure 94
00200000
01300000
00020000
10030000
,  // measure 95
01200000
00000000
01000000
00000000
01300000
00000000
00010000
01000000
,  // measure 96
00001000
00011000
00010020
00000000
,  // measure 97
00000130
00000000
00000001
00000000
00000010
00000000
00000100
00000000
00010000
00000000
00000000
00010000
00001000
00000000
01000000
00000000
,  // measure 98
02200000
00000000
00000000
00000000
,  // measure 99
03300000
00000000
00000000
00000000
;

//---------------dance-double - ----------------
#NOTES:
     dance-double:
     :
     Challenge:
     15:
     0.769,0.718,0.547,0.139,0.120: // measure 1
00000000
00000000
00000000
00000000
,  // measure 2
00000000
00000000
00000000
00000000
,  // measure 3
00000000
00000000
00000000
00000000
,  // measure 4
00011000
00011000
01001000
00000000
,  // measure 5
01100000
00000000
01000000
00000000
01000000
00100000
10000000
00000000
,  // measure 6
10100000
10100000
10001000
00000000
,  // measure 7
00011000
00000000
00010000
00000000
00010000
00000100
00000010
00000000
,  // measure 8
00000011
00000011
00010001
00000000
,  // measure 9
00011000
00000000
00001000
00000000
00001000
01000000
00100000
00000000
,  // measure 10
01100000
01100000
10010000
00000000
,  // measure 11
10000000
00100000
10000000
01000000
10000000
00100000
10000000
00000000
,  // measure 12
01000000
00100000
00001000
00010000
00000010
00000100
00000001
00001000
,  // measure 13
00000000
00001000
00000100
00000010
00000001
00010000
00001000
00100000
,  // measure 14
00000000
00100000
01000000
10000000
00001000
01000000
00001000
00011000
,  // measure 15
00000000
00010000
00000010
00000110
00000000
00001000
00001001
00000000
,  // measure 16
00010010
00000000
00010000
00001000
00100000
01000000
10000000
00010000
,  // measure 17
00000000
00010000
00100000
01000000
00100000
00010000
00001000
00000010
,  // measure 18
00000000
00000010
00001000
00000010
00000100
00000001
00010000
00011000
,  // measure 19
00000000
00001000
01000000
01100000
00000000
10000000
11000000
00000000
,  // measure 20
10010000
00000000
10000000
00010000
00100000
01000000
10000000
00001000
,  // measure 21
00000000
00001000
00010000
00000010
00000100
00000001
00000100
00000010
,  // measure 22
00000000
00000010
00001000
00000100
00000010
00000001
00010000
00010100
,  // measure 23
00000000
00001000
01000000
01010000
00000000
10000000
11000000
00000000
,  // measure 24
10010000
00000000
00010000
10000000
00010000
00100000
00010000
10000000
,  // measure 25
00000000
10000000
00001000
00100000
01000000
00100000
00001000
00010000
,  // measure 26
00000000
00010000
00000100
00000010
00000001
00000010
00000100
00011000
,  // measure 27
00000000
00011000
00000000
00011000
00000000
00011000
00010000
00001000
,  // measure 28
01000000
00000000
00010000
00010000
10000000
10000000
00010000
00100000
,  // measure 29
00010000
00000000
01000000
01000000
00001000
00001000
00010000
00000010
,  // measure 30
00000200
00000000
00000010
00000310
00001000
00000100
00000000
00010000
,  // measure 31
00002000
00000000
00000000
00000000
00100000
00000000
00103000
00000000
00010000
00000000
10000000
00100000
10000000
00000000
00010000
10000000
,  // measure 32
00010000
00000000
10000000
01000000
10000000
00010000
10000000
00001000
,  // measure 33
00000000
00001000
00010000
00000100
00000010
00000100
00010000
00000001
,  // measure 34
00000000
00000001
00001000
00000100
00000001
00000100
00001000
00010000
,  // measure 35
00000000
00000000
00010000
00000000
00100000
00000000
01000000
00000000
10000000
00000000
00010000
01000000
00010000
00000000
10000000
00010000
,  // measure 36
10000000
00000000
00001000
00001000
00010000
00010000
00000001
00000010
,  // measure 37
00000100
00000000
00000100
00001000
00000010
00000200
00000000
00000001
,  // measure 38
00000301
00010000
00001000
01000000
00100000
20000000
00000000
00010000
,  // measure 39
30010000
00000000
10000000
00000000
01000000
00000000
00100000
00000000
00001000
00000000
00010000
00001000
00010000
00000000
00000010
00000100
,  // measure 40
00000010
00000000
00001000
00000001
00000010
00001000
00000010
00000001
,  // measure 41
00000000
00000001
00000010
00000100
00001000
00010000
00100000
01000000
,  // measure 42
10000000
00000000
00010000
10000000
00100000
00010000
00100000
10000000
,  // measure 43
00010000
10000000
00010000
00000000
00100000
00001000
00100000
00000000
00001000
00010000
00001000
00000000
00010000
00000000
00000010
00000000
,  // measure 44
00000110
00000101
00000210
00000000
,  // measure 45
00000320
00000000
00000130
00000000
,  // measure 46
00011000
00011000
01002000
00000000
,  // measure 47
01003000
01100000
10100000
00000000
,  // measure 48
10010000
10010000
20000000
00000000
,  // measure 49
31000000
01100000
00110000
00000000
,  // measure 50
00011000
00000000
00011000
00000000
00020000
00000000
00000000
00000010
,  // measure 51
00000000
00000010
00000000
00000010
00030010
00000000
00000000
00000000
,  // measure 52
00001000
00000001
00000010
00001000
00000010
00000000
00000001
00020000
,  // measure 53
00000000
00001000
00031000
00100000
01000000
10000000
00100000
00010000
,  // measure 54
00100000
01000000
00010000
10000000
00001000
00000000
00001000
00020000
,  // measure 55
00000000
00000000
00000010
00000000
00030010
00000000
00000100
00000000
00000001
00000000
00010000
00000100
00010000
00000000
00001000
00010000
,  // measure 56
00002000
00000000
01000000
01003000
00000000
00100000
10000000
01000000
,  // measure 57
00200000
00000000
00010000
00310000
00000000
10000000
01000000
10000000
,  // measure 58
00100000
01000000
00010000
00001000
00000100
00000010
00000001
00001000
,  // measure 59
00000100
00000000
00000000
00000000
00000100
00000000
00000000
00000000
00000100
00000000
00010000
00001000
00010000
00000000
00001000
01000000
,  // measure 60
00001000
00100000
01000000
10000000
00100000
00000000
00100000
02000000
,  // measure 61
00000000
00001000
03001000
01000000
00001000
00010000
00000100
00000010
,  // measure 62
00000001
00000100
00001000
00000100
00000010
00010000
00000100
00020000
,  // measure 63
00000000
00000000
00001000
00000000
00031000
00000000
01000000
00000000
00100000
00000000
10000000
00100000
10000000
00000000
00010000
10000000
,  // measure 64
00010000
00100000
00001000
00010000
00000010
00000100
00000001
00000000
,  // measure 65
00000001
00000000
00000010
00000100
00001000
00010000
00100000
00000000
,  // measure 66
01100000
00000000
01100000
00000000
01100000
00100000
10000000
00100000
,  // measure 67
01000000
00000000
00000000
00000000
01000000
00000000
00000000
00000000
01000000
00000000
00001000
01000000
00001000
00000000
00010000
00001000
,  // measure 68
00010000
00000100
00000001
00000100
00010000
00000000
00000001
00001000
,  // measure 69
00000100
00000010
00001000
00000010
00000001
00010000
00001000
01000000
,  // measure 70
00100000
10000000
00100000
00010000
00100000
00000000
10000000
00100000
,  // measure 71
01000000
00000000
10000000
00000000
01000000
00000000
00010000
00000000
10000000
00000000
01000000
10000000
01000000
00000000
10000000
00010000
,  // measure 72
01000000
00010000
00001000
00000100
00000010
00000000
00000010
00000001
,  // measure 73
00000010
00000100
00010000
00001000
01000000
00000000
01000000
00100000
,  // measure 74
10000000
01000000
10000000
00001000
00100000
10000000
00100000
00001000
,  // measure 75
10000000
00000000
00000000
00000000
10000000
00000000
00000000
00000000
10000000
00000000
00100000
01000000
00100000
00000000
10000000
00010000
,  // measure 76
10000000
01000000
00010000
01000000
10000000
00000000
00010000
00100000
,  // measure 77
01000000
00010000
01000000
10000000
00010000
00100000
00010000
00001000
,  // measure 78
00000100
00000010
00000001
00000100
00000001
00000000
00000100
00000010
,  // measure 79
00010000
00000000
00001000
00000000
00100000
00000000
01000000
00000000
00100000
00000000
00001000
00010000
00001000
00000000
01000000
00100000
,  // measure 80
01000000
00010000
00100000
01000000
10000000
00000000
10000000
00001000
,  // measure 81
00100000
01000000
10000000
00001000
00010000
00000010
00000100
00000000
,  // measure 82
00000110
00000000
00000110
00000000
00000110
00000100
00000001
00001000
,  // measure 83
00000100
00000000
00000000
00000000
00000100
00000000
00000000
00000000
00000100
00000000
00010000
00000100
00010000
00000000
00001000
00010000
,  // measure 84
00001000
00100000
01000000
10000000
00100000
01000000
00000000
01000000
,  // measure 85
00100000
10000000
01000000
00100000
00001000
00000000
00010000
00000010
,  // measure 86
00000100
00000001
00010000
00002000
00000000
00010000
00013000
00000000
,  // measure 87
00001000
01000000
00100000
01000000
00010000
10000000
01000000
11000000
,  // measure 88
00000000
00100000
01100000
00000000
00000000
00001000
00011000
00000000
,  // measure 89
00000000
00000100
00000010
00000001
00010000
00000000
00000000
00000000
,  // measure 90
00011000
00000000
00010010
00000000
00011000
00000000
00000100
00000010
,  // measure 91
00000001
00000000
00010001
00000000
00010100
00000000
00001000
00001000
,  // measure 92
00101000
00000000
10001000
00000000
00101000
00000000
01000000
10000000
,  // measure 93
00010000
00000000
00000000
00000000
10010000
00000000
00000000
00000000
10000000
00000000
00001000
01000000
00001000
00000000
00010000
00001000
,  // measure 94
00010000
00000000
00010010
00000000
00011000
00000000
00000100
00000010
,  // measure 95
00000001
00000000
00001001
00000000
00010010
00000000
00001000
00001000
,  // measure 96
00011000
00000000
01001000
00000000
00011000
00000000
00100000
10000000
,  // measure 97
00100000
01000000
00100000
00000000
10000000
00010000
10000000
00000000
00001000
00010000
00001000
00000000
00010000
00000010
00010000
00000000
,  // measure 98
00020020
00000000
00000000
00000000
,  // measure 99
00030030
00000000
00000000
00000000
;
