#TITLE:少年は空を辿る;
#SUBTITLE:;
#ARTIST:Power Of Nature;
#TITLETRANSLIT:SHOUNEN WA SORA WO TADORU;
#SUBTITLETRANSLIT:;
#ARTISTTRANSLIT:;
#CREDIT:DigiMindAxel;
#BANNER:SHOUNEN WA SORA WO TADORU.png;
#BACKGROUND:SHOUNEN WA SORA WO TADORU-bg.png;
#LYRICSPATH:;
#CDTITLE:pop'n music.png;
#MUSIC:SHOUNEN WA SORA WO TADORU.ogg;
#METERTYPE:DDR X;
#OFFSET:-3.556;
#SAMPLESTART:12.340;
#SAMPLELENGTH:12.000;
#SELECTABLE:YES;
#BPMS:0.000=140.000;
#STOPS:;
#BGCHANGES:;

//---------------dance-single - ----------------
#NOTES:
     dance-single:
     :
     Easy:
     5:
     0.224,0.271,0.044,0.285,0.000:
0000
0000
0000
0001
0000
0000
0000
1000
,
0000
0000
0000
0001
0000
0000
0000
1000
,
0000
0000
0000
0001
0000
0000
0000
1000
,
0000
0020
0000
0000
0000
0000
0000
0000
,
0000
0230
0000
0000
0000
0000
0000
0000
,
0000
0310
0000
1000
0000
0100
0000
0010
,
0000
0001
0000
1000
0000
0010
0000
0100
,
0000
0000
0000
0000
0000
0000
0000
0001
,
0000
1000
0000
1000
0000
0001
0000
0001
,
0000
0010
0000
0100
0000
1000
0000
0010
,
0000
0200
0000
0000
0000
0000
0000
0000
,
0000
0302
0000
0000
0000
0000
0000
1003
,
0000
0000
0000
0000
,
0000
0000
0000
0000
,
0010
0000
0100
0000
,
0010
0000
1000
0002
,
0000
0000
0003
0000
,
0000
0000
0000
0000
0000
0000
0000
2002
,
0000
0000
0000
0000
3003
0000
0000
2000
,
0000
0000
0000
0000
0000
0000
3000
0010
,
0000
0100
0000
0010
0000
1000
0000
0100
,
0000
0010
0000
0001
0000
1000
0000
0001
,
0000
0100
0000
0010
0000
1000
0000
0100
,
0000
0010
0000
0002
0000
0000
0000
0000
,
0000
0000
0000
1003
0000
0000
0000
0000
,
0000
0020
0000
0000
0000
0000
0000
0000
,
0000
0130
0000
0000
0000
0000
0000
0000
,
0001
0010
0100
1000
,
0010
0100
0110
0000
,
0000
0000
0000
0000
,
0000
0000
0000
0000
,
0000
0000
1000
0100
,
0010
0001
1000
1000
,
0002
1003
0100
0010
,
0001
0100
0010
1000
,
0002
1003
0000
0000
,
0000
0000
1001
1000
,
0100
1000
0010
0100
,
0001
0010
0100
1000
,
0010
0100
0001
0000
,
0000
0000
0000
1000
0000
0000
0000
0000
,
0000
1001
0000
0000
,
0000
0020
0000
0000
,
0000
0230
0000
0302
,
0000
0023
0000
0230
,
0000
2300
0000
0000
,
3010
0200
0000
0302
,
0000
1003
1000
0001
,
0001
0100
0100
0010
,
0010
1000
0100
0010
,
0001
0100
0100
0200
,
0000
0320
0000
2030
,
0000
3200
0000
0320
,
0000
0032
0000
0203
,
0000
0320
0000
2030
,
0000
3002
0000
0203
,
0000
0302
0000
2003
,
0000
3200
0000
2300
,
0000
3001
0100
0001
,
0010
0100
0010
0001
,
0010
0100
1000
0100
,
1000
0010
0100
0010
,
1000
0100
0010
0001
,
0010
0100
0010
0001
,
1000
0010
0100
0010
,
1000
0100
0010
0001
,
1000
0220
0000
0000
,
0000
0330
0000
1000
,
0000
0001
0000
0000
,
1000
1000
0000
0001
,
0000
2001
0000
0000
,
0000
0000
0000
0000
,
0000
3002
0000
0000
,
0000
0000
0000
0000
,
0000
0003
0000
0000
0000
0000
0000
0000
;

//---------------dance-single - ----------------
#NOTES:
     dance-single:
     :
     Challenge:
     15:
     0.724,0.868,0.176,0.183,0.991: // measure 1
0000
0000
0000
1000
0001
0000
0101
0000
0000
0000
0000
0110
0000
0000
0110
0000
,  // measure 2
0000
0000
0000
0001
1000
0000
1100
0000
0000
0000
0000
1001
0000
0000
1001
0000
,  // measure 3
0000
0000
0000
0100
0010
0000
1010
0000
0000
0000
0000
1001
0000
0000
1001
0000
,  // measure 4
0000
0000
0001
0010
0000
0000
0000
0000
0001
0010
0000
0000
0000
0100
0010
0000
,  // measure 5
0000
0000
0000
0100
1000
0000
0000
0100
1000
0000
0000
0000
0000
0010
0100
0000
,  // measure 6
0000
0000
0001
0000
0001
0000
0000
1000
0000
0010
0000
0100
0000
0000
0001
0010
,  // measure 7
0100
0000
1000
0000
0000
0001
0000
0100
0000
0010
0000
0000
1000
0100
0020
0000
,  // measure 8
0000
0000
0000
0000
0000
0000
0031
0010
0001
0010
0100
1000
0100
1000
0001
0000
,  // measure 9
0100
0001
1000
0000
0100
0000
0001
0000
0100
0000
1000
0100
0010
0000
0100
0010
,  // measure 10
0001
0000
1000
0000
0010
0000
0001
0000
0010
0000
1000
0100
1000
0100
0010
0001
,  // measure 11
0010
0001
0200
0000
0000
0000
0000
0000
0000
0000
0320
0000
0000
0000
0000
0000
,  // measure 12
0000
2030
0000
0000
0000
3002
0000
2003
,  // measure 13
0000
0000
0000
0000
,  // measure 14
0000
0000
0000
0000
0000
3000
0000
0000
,  // measure 15
0002
0000
0203
0000
,  // measure 16
0320
0000
2030
3002
,  // measure 17
0000
0000
0000
0000
,  // measure 18
0000
0000
0000
0000
0003
0000
0000
1000
,  // measure 19
1000
0000
0000
0010
0000
1000
0000
0100
0000
0000
1000
0000
0100
0010
0001
0000
,  // measure 20
0100
0000
0000
0010
0000
1000
0000
0000
0001
0000
0010
0000
0100
1000
0001
0100
,  // measure 21
0001
0000
1000
0010
1000
0001
0000
1000
0001
0010
0100
1000
0001
1000
0000
0010
,  // measure 22
0100
0001
0010
0100
0010
0001
1000
0010
1000
0000
0001
0010
0001
0000
1000
0001
,  // measure 23
1000
0100
0000
0010
0001
0010
0100
1000
0010
1000
0000
0100
1000
0010
0100
0010
,  // measure 24
1000
0100
0010
0001
1000
0001
0100
1000
0100
0001
1000
0001
0010
0100
0000
0000
,  // measure 25
1000
0000
1000
0000
1000
0001
0010
1000
0010
0001
0100
0010
0000
0000
1000
0000
,  // measure 26
1000
0000
1000
0001
0100
1000
0100
0001
0010
0100
0000
0000
1000
0001
0100
0001
,  // measure 27
1000
0001
0010
1000
0010
0001
0100
0010
0000
0000
1000
0001
0100
0010
1000
0001
,  // measure 28
0010
0000
0010
0000
0100
0000
0100
0000
0010
0000
0010
0000
0001
0010
0100
1000
,  // measure 29
0001
0000
0001
0000
0010
0100
1000
0000
1001
0000
0000
0000
0000
0000
0000
0000
,  // measure 30
0000
0000
0001
0001
,  // measure 31
0001
0010
1000
0010
,  // measure 32
0001
0000
0000
0000
0000
0000
1000
0000
0000
0000
0010
0000
0000
0000
0100
0000
0000
0000
0001
0000
0000
0000
0000
0000
1000
0000
0000
0010
0000
0000
1000
0000
0000
0001
0000
0000
0010
0000
0000
0100
0000
0000
0010
0000
0000
0001
0000
0000
,  // measure 33
0000
1000
0100
0010
0001
0010
0100
1000
0000
0000
0010
0100
0010
1000
0001
0100
,  // measure 34
0001
0000
0000
1000
0000
0000
0100
0000
0000
0000
0100
0000
0000
0000
0010
0000
0000
0000
0100
0000
0000
1000
0000
0000
0010
0000
0000
0100
0000
0000
0010
0000
0000
1000
0000
0000
0100
0000
0000
0010
0000
0000
0100
0000
0000
1000
0000
0000
,  // measure 35
0000
0001
0010
0100
1000
0100
0010
0001
0000
0000
0100
0001
0010
0001
0100
0001
,  // measure 36
1000
0000
0000
0100
0000
0000
0010
0000
0000
0000
0010
0000
0000
0000
0100
0000
0000
0000
1000
0000
0000
0001
0000
0000
0000
0000
0000
0000
0000
0000
0000
0000
0000
0000
0000
0000
0000
0000
0000
0000
0000
0000
0000
0000
0000
0000
0000
0000
,  // measure 37
0000
0000
0000
0000
0000
0000
0000
0000
1001
0000
1000
0010
1000
0001
0010
0100
,  // measure 38
1000
0000
0000
0001
0000
0000
0100
0000
0000
0000
0100
0000
0000
0000
0001
0000
0000
0000
0010
0000
0000
0001
0000
0000
1000
0000
0000
0010
0000
0000
1000
0000
0000
0100
0000
0000
0001
0000
0000
0100
0000
0000
1000
0000
0000
0001
0000
0000
,  // measure 39
0000
0010
0100
1000
0100
0010
0001
1000
0000
0000
0001
1000
0100
0001
0100
1000
,  // measure 40
0001
0000
0000
0100
0000
0000
0010
0000
0000
0000
0010
0000
0000
0000
1000
0000
0000
0000
0001
0000
0000
0100
0000
0000
0010
0000
0000
0000
0000
0000
0110
0000
0000
0000
0000
0000
0000
0000
0000
0100
0000
0000
0000
0000
0000
0101
0000
0000
,  // measure 41
0000
1001
0000
0000
0001
0010
0100
0000
1100
0000
0000
0010
0000
0110
0000
0011
,  // measure 42
0000
0000
0001
1000
0010
0000
1000
0000
0100
0000
0010
0000
0100
0000
0010
0000
,  // measure 43
0001
1000
0100
0001
0100
1000
0010
0100
,  // measure 44
0001
0010
1001
1000
0100
0001
0100
0100
,  // measure 45
1000
0001
0100
0100
1000
0100
0010
0010
,  // measure 46
1000
0001
0010
0010
1000
0010
0001
0001
,  // measure 47
0100
0010
0100
0100
0001
0010
0100
0100
,  // measure 48
1000
0001
1000
0001
1000
0100
1000
0000
1001
0000
0001
0000
1000
0010
0100
0000
,  // measure 49
0110
0000
0010
0000
1000
0100
0010
0000
0011
0000
0001
0000
0010
0100
1000
0000
,  // measure 50
1010
0000
0000
0000
0000
0000
0010
0000
0000
0000
0000
0000
0100
0000
0000
0001
0000
0000
0010
0000
0000
0000
0000
0000
0011
0000
0000
0000
0000
0000
0001
0000
0000
0000
0000
0000
0010
0000
0000
0000
0100
0000
0000
0000
1000
0000
0000
0000
,  // measure 51
0010
0000
0000
0010
0000
0000
1000
0000
0000
1000
0000
0000
0001
0000
0000
0001
0000
0000
0010
0000
0100
0000
1000
0000
,  // measure 52
0010
0010
1000
0001
0000
0001
0000
0001
0010
0100
0000
0100
,  // measure 53
0000
0100
1000
0010
0000
0010
0000
0010
0100
0001
0000
0001
,  // measure 54
0000
0001
1000
0100
0000
0100
0000
0100
0010
0001
0000
0001
,  // measure 55
0000
0001
1000
0010
0000
0010
0000
0010
1000
0100
0000
0100
,  // measure 56
0000
0100
1000
0001
0100
0001
0100
0010
1000
0100
0001
0100
,  // measure 57
1000
0010
0100
0001
0100
0001
1000
0010
0100
0010
1000
0001
,  // measure 58
0010
1000
0010
0001
0100
0010
0100
0010
1000
0100
0001
0100
,  // measure 59
1000
0000
0000
0000
0010
0000
0000
0000
0100
0000
0000
0000
0001
0000
0000
0100
0000
0000
0001
0000
0000
0100
0000
0000
1000
0000
0000
0100
0000
0000
1000
0000
0000
0100
0000
0000
0001
0000
0000
0100
0000
0000
0001
0000
0000
0010
0000
0000
,  // measure 60
0100
1000
0100
0010
0001
1000
0001
1000
0001
1000
0001
0100
0010
1000
0010
0100
,  // measure 61
0001
0010
0100
0000
1000
0010
1000
0010
0001
0010
0001
0010
1000
0010
1000
0010
,  // measure 62
0100
0001
0010
0001
0100
0010
0100
0010
0100
0010
0100
0010
1000
0100
0010
0001
,  // measure 63
1000
0100
1000
0000
0001
0100
0001
0100
1000
0100
1000
0100
0001
0010
0001
0010
,  // measure 64
0100
1000
0010
0100
0001
1000
0001
1000
0001
1000
0001
0010
0100
0010
0001
1000
,  // measure 65
0010
0100
0010
0000
1000
0100
1000
0100
0001
0100
0001
0100
1000
0010
1000
0010
,  // measure 66
1000
0100
0010
0001
1000
0100
1000
0100
1000
0100
1000
0001
0010
0100
1000
0010
,  // measure 67
0100
0001
0010
1000
0010
0000
0000
0000
0001
0000
0000
0000
1000
0000
0000
0000
,  // measure 68
0001
0100
2000
0000
3100
0000
0002
0000
,  // measure 69
1003
0020
0130
0001
,  // measure 70
2000
3200
1300
0020
,  // measure 71
0130
0202
0000
0303
,  // measure 72
0100
0001
2000
0000
0000
0000
3002
0000
,  // measure 73
0000
0023
0000
0000
,  // measure 74
0032
2003
0000
3200
,  // measure 75
0000
0300
0000
0000
0000
0000
0000
0000
;

//---------------dance-single - ----------------
#NOTES:
     dance-single:
     :
     Hard:
     12:
     0.498,0.624,0.256,0.220,0.406:
0000
0000
0000
0001
0000
0000
0100
0000
0000
0000
0000
1000
0000
0000
0100
0000
,
0000
0000
0000
0001
0000
0000
0010
0000
0000
0000
0000
1000
0000
0000
0010
0000
,
0000
0000
0000
0001
0000
0000
1000
0000
0000
0000
0000
0010
0000
0000
0100
0000
,
0000
0000
1001
0000
0000
0000
0000
0000
0100
0000
0000
0000
0000
0110
0000
0000
,
0000
0000
0000
0001
0000
0000
0000
1000
0000
0000
0000
0000
0000
1001
0000
0000
,
0000
0000
1000
0000
1000
0000
0000
0001
0000
0100
0000
0001
0000
0000
0100
0000
,
0010
0000
1000
0000
0000
0010
0000
0100
0000
0010
0000
0000
1000
0000
0002
0000
,
0000
0000
0000
0000
0000
0003
0000
1001
,
0000
0100
0001
0010
0100
1000
0000
1010
,
0000
0101
0000
0011
0000
1100
0000
1001
,
0000
2000
0000
0000
0000
3200
0000
0000
,
0000
0320
0000
0000
0000
0031
0000
2000
,
0000
0000
0000
0000
0000
0000
0000
3000
,
0000
0000
0000
0000
,
1002
0000
0023
0000
,
0230
0000
1300
0002
,
0000
0000
0000
0003
,
0000
0000
0000
0000
0000
0000
0000
0001
,
0001
0000
0000
1000
0000
0100
0000
1000
0000
0000
0010
0000
1000
0000
0100
0000
,
0010
0000
0000
0001
0000
0100
0000
0000
0001
0000
1000
0000
0010
0100
0010
0000
,
1000
0100
0010
0100
1000
0010
0100
0001
,
0100
0000
1000
0000
0100
0000
0001
0000
1000
0001
1000
0000
0000
0000
0001
0000
,
0010
0100
0010
0001
0100
1000
0100
0001
,
1000
0000
0010
0000
0100
0000
0010
1000
0010
0000
0000
0000
1000
0001
0000
0000
,
1000
0000
1000
0000
0001
0010
0001
0000
0000
0000
0100
0010
0000
0000
1000
0000
,
0001
0000
0100
0001
0100
0000
0000
0000
0010
0100
0000
0000
0001
0000
1000
0000
,
0001
0010
0001
0000
0000
0000
1000
0010
0000
0000
1000
0000
0100
0000
0010
0000
,
0011
0000
0110
0000
1100
0000
1000
0010
,
0110
0110
1001
0000
,
0000
0000
0002
0000
,
0000
2000
0000
0000
,
3003
0000
0000
0000
0000
0000
0000
0000
1000
0001
1000
0000
0100
0000
0001
0100
,
0000
1000
0010
0000
0100
0000
0010
0100
0000
0000
0001
0000
0010
0000
0100
0000
,
1000
0000
0002
0000
0000
0000
1003
0000
0001
1000
0001
0000
1000
0000
0010
0001
,
0000
0010
1000
0000
0100
0000
1000
0001
0000
0000
0010
0000
0100
0000
1000
0000
,
0100
0020
0000
0031
0000
0000
0000
0000
,
0000
0000
0000
0000
0000
0000
0000
0000
1001
0000
0010
0100
0010
0000
1000
0000
,
0100
0000
0020
0000
0000
0000
0031
0000
0100
0000
0010
0000
1000
0100
1000
0010
,
0000
0000
0100
0010
0100
0010
0100
0010
0000
1000
0001
0000
0010
0000
0100
0000
,
1000
0000
0020
0000
0000
0000
0030
0000
1000
0000
1000
0000
0000
0100
0000
1000
,
0000
0100
0000
0000
1000
0000
0001
0000
0100
0000
0000
0010
0000
0100
0000
0010
,
0000
1000
0002
0000
0100
0000
0010
0000
,
0103
0020
1000
0100
,
1030
0000
0001
0001
0010
0100
1000
1000
,
0010
0100
0001
0001
0010
0100
0010
0010
,
0100
1000
0100
0100
0010
0100
1000
1000
,
0010
0100
0001
0001
0010
0100
0010
0001
,
0200
0000
0000
0000
0301
0000
0000
0000
1001
0000
0000
0000
1000
0100
0000
0000
,
1100
0000
0000
0000
0100
0010
0000
0000
0110
0000
0000
0000
0001
1000
0000
0000
,
1100
0000
0000
0000
0100
0001
0000
0000
1001
0000
0000
0000
0010
0100
0000
0000
,
0110
2002
0000
0000
,
3003
0000
0000
1000
0000
0100
0000
1000
0000
0001
0000
1000
,
0000
0001
0000
0100
0000
0001
0000
0100
0000
0010
0000
0100
,
0000
0010
0000
1000
0000
0010
0000
1000
0000
0100
0000
1000
,
0000
0100
0000
0010
0000
0001
0000
0010
0000
0001
0000
0100
,
0000
0010
0000
1000
0010
1000
0010
0100
0001
0100
0000
0100
,
0000
0100
0000
0010
1000
0010
1000
0001
0100
0001
0100
0010
,
1000
0010
0100
0001
0000
0001
0000
0001
0000
0001
0100
0010
,
1000
0000
0000
0000
0100
0000
0000
0000
0010
0000
0000
0000
0001
0000
0000
1000
0000
0000
0001
0000
0000
0000
0000
0000
1000
0000
0000
0001
0000
0000
1000
0000
0000
0000
0000
0000
0100
0000
0000
0000
0000
0000
0010
0000
0000
0000
0000
0000
,
0100
0000
1000
0000
0001
0000
0001
0000
0100
0000
0100
0000
0010
1000
0100
0000
,
1000
0100
1000
0000
0010
0100
0010
0000
0100
0001
0100
0000
0001
0000
0010
0000
,
0100
0000
0010
0000
0001
0000
0001
0000
0100
0000
0100
0000
0010
1000
0100
0000
,
0010
0100
0010
0000
0001
0100
0001
0000
1000
0010
1000
0000
0001
0000
0010
0000
,
1000
0000
0010
0000
0001
1000
0001
1000
0001
1000
0001
0000
0100
0000
0010
0000
,
1000
0100
0010
0000
0101
0000
0000
0101
0000
0000
1100
0000
0000
0110
0000
0000
,
1001
0000
0000
0000
1100
0000
0000
0110
0000
0000
0011
0000
0000
1001
0000
0000
,
0110
1001
1000
1000
,
1000
0001
0200
0000
0000
0000
0320
0000
,
0000
0130
0100
0100
,
0002
2003
0000
3002
,
0000
1003
0000
0000
,
0010
0100
0020
0000
0000
0000
0230
0000
,
0000
0302
0000
0000
,
0013
0200
0000
0320
,
0000
0030
0000
0000
0000
0000
0000
0000
;

//---------------dance-single - ----------------
#NOTES:
     dance-single:
     :
     Medium:
     8:
     0.354,0.434,0.146,0.154,0.143:
0000
0000
1000
0100
0000
0000
1000
0100
,
0000
0000
0010
0001
0000
0000
0010
0001
,
0000
0000
0100
0010
0000
0000
0100
0010
,
0000
0000
1000
0000
0000
0000
0000
0000
1000
0000
0000
0000
0000
1000
0000
0000
,
0000
0000
0000
0010
0000
0000
0000
0100
0000
0000
0000
0000
0000
0001
0000
0000
,
0000
0000
1000
0000
0001
0000
0000
0100
0000
0010
0000
0100
0000
0000
0000
0000
,
0001
0000
1000
0000
0000
0010
0000
0100
0000
0010
0000
0000
0000
0000
2002
0000
,
0000
0000
0000
0000
0000
3003
0000
1001
,
0000
1000
0100
1000
0000
0001
0100
0001
,
0000
0100
0010
0100
0000
0110
0000
1001
,
0000
1000
0000
0000
0000
0100
0000
0000
,
0000
0010
0000
0000
0000
0001
0000
1000
,
0000
0000
0000
0000
,
0000
0000
0000
0000
,
1001
0000
0010
0000
,
0100
0000
1000
0001
,
0000
0000
0000
0000
,
0000
0000
0000
0000
0000
0000
0000
1000
,
0001
0000
0000
0100
0000
0010
0000
0100
0000
0000
0000
0000
0000
0000
0001
0000
,
1000
0000
0000
0010
0000
0100
0000
0000
0001
0000
1000
0000
0001
0000
0100
0000
,
0010
1000
0000
0100
0010
0100
0000
1000
,
0100
0010
0000
0001
0001
1000
0100
0010
,
0001
0010
0000
0100
0010
0001
0000
0010
,
0100
0000
1000
0000
0010
0000
0110
0000
0000
0000
0000
0000
0000
0110
0000
0000
,
0000
0000
0000
0000
0000
0000
1001
0000
0000
0000
0000
1001
0000
0000
0000
0000
,
0000
0000
0100
0000
1000
0000
0001
0000
0000
1001
0000
0000
0000
0000
0010
0000
,
0001
0000
0010
0000
0100
0000
0000
1001
0000
0000
0000
0000
0000
0000
0000
0000
,
2000
0000
3200
0000
0320
0000
0031
0010
,
0200
0310
0110
0000
,
0000
0000
0000
0000
,
0000
0000
0000
0000
,
0000
0000
0000
0000
0001
0100
0010
0000
,
0100
0010
0100
0000
0001
1000
0100
0010
,
0001
2000
0000
3001
1000
0010
0100
0000
,
0010
0100
0010
0000
1000
0100
0010
0001
,
0100
0020
0000
0130
0000
0000
0000
0000
,
0000
0000
0000
0000
1000
0100
1000
0100
,
1000
0002
0000
1003
0001
0010
0100
1000
,
0010
0000
0100
0001
0100
0001
0100
0010
,
1000
0200
0000
0310
0001
2000
0000
0000
,
0000
0000
3010
0100
0002
0000
0000
0000
,
0003
2002
0000
0000
,
3000
0200
0000
0000
,
0303
0001
0010
0100
,
1000
0100
0010
0001
,
0100
0010
1000
0100
,
0010
0001
0010
0100
,
2000
3001
0101
1000
,
1010
0010
0110
0100
,
0110
0001
1001
1000
,
1001
0010
0100
0020
,
0000
0000
0000
1030
0000
0000
0000
0010
0000
0100
0000
0000
,
0000
0001
0000
0010
0000
0000
0000
0100
0000
0010
0000
0000
,
0000
0001
0000
1000
0000
0000
0000
0100
0000
0010
0000
0000
,
0000
0100
0000
1000
0000
0000
0000
0100
0000
0010
0000
0000
,
0000
0001
0000
1000
0000
0100
0000
1000
0000
0100
0000
1000
,
0000
0001
0000
0100
0000
0001
0000
0100
0000
0001
0000
0010
,
0000
0100
0000
0010
0000
0100
0000
1000
0000
0001
0000
1000
,
0000
0000
0001
0000
0000
0000
1000
0000
0000
0100
0000
0000
1000
0000
0000
0100
0000
0000
1000
0000
0000
0100
0000
0000
,
1000
0000
0100
1000
0010
0000
0100
0001
,
0010
0000
0001
0100
0001
0100
0001
0100
,
0001
0000
0100
0001
0010
0000
0100
1000
,
0010
0000
0100
0010
0100
0010
0100
0010
,
0100
0001
0010
0100
1000
0000
0100
0010
,
0001
0000
0010
0100
0010
0100
0010
0001
,
1000
0010
0100
0001
0010
0100
1000
0001
,
0010
0100
2000
0000
0000
0000
0000
0000
,
3100
0020
0000
0032
,
0000
0103
0000
0000
,
0010
0100
0000
0010
,
0000
1001
0000
0000
,
1000
1000
0000
0001
,
0000
0010
0000
0000
,
0100
1000
0000
0020
,
0000
0030
0000
0000
0000
0000
0000
0000
;

//---------------dance-single - ----------------
#NOTES:
     dance-single:
     :
     Beginner:
     3:
     0.106,0.134,0.066,0.000,0.000:
0000
0000
0000
1000
0000
0000
0000
1000
,
0000
0000
0000
1000
0000
0000
0000
1000
,
0000
0000
0000
0001
0000
0000
0000
0001
,
0000
1000
0000
0000
0000
0000
0000
0000
,
0000
0000
0000
0000
,
0000
0010
0000
0000
0000
0000
0000
0100
,
0000
0000
0000
0000
0000
0000
0000
0110
,
0000
0000
0000
0000
0000
0000
0000
1001
,
0000
0000
0000
1000
0000
0000
0000
0100
,
0000
0000
0000
1000
0000
0000
0000
0000
,
0000
0001
0000
0000
0000
0000
0000
0000
,
0000
0100
0000
0000
0000
0000
0000
0010
,
0000
0000
0000
0000
,
0000
0000
0000
0000
,
1000
0000
0000
0000
,
0010
0000
0000
0100
,
0000
0000
0000
0000
,
0000
0000
0000
0000
0000
0000
0000
0001
,
0000
0000
0000
0000
0000
1000
0000
0000
,
0000
0000
0000
0000
0000
0000
0000
0001
,
0000
0000
0000
0010
0000
0000
0000
0001
,
0000
0000
0000
0010
0000
0000
0000
0100
,
0000
0000
0000
1000
0000
0000
0000
0100
,
0000
0000
0000
0110
0000
0000
0000
0000
,
0000
0000
0000
0110
0000
0000
0000
0000
,
0000
1001
0000
0000
0000
0000
0000
0000
,
0000
1000
0000
0000
0000
0000
0000
0000
,
0001
0000
0000
0000
,
1000
0000
1001
0000
,
0000
0000
0000
0000
,
0000
0000
0000
0000
,
0000
0000
1000
0000
,
0001
0000
1000
0000
,
0100
0000
0010
0000
,
0100
0000
1000
0000
,
0001
0000
0000
0000
,
0000
0000
1000
0000
,
0001
0000
1000
0000
,
0100
0000
0010
0000
,
0001
0000
0100
0000
,
0000
0100
0000
0000
,
0000
0110
0000
0000
,
0000
0000
0000
0000
,
0000
1000
0000
0000
,
0000
0100
0000
0000
,
0000
0010
0000
0000
,
0000
0001
0000
0000
,
0000
0100
0000
0000
,
0000
0010
0000
0000
,
0000
1000
0000
0000
,
0000
0001
0000
0000
,
0000
1000
0000
1000
,
0000
1000
0000
0000
,
0000
0001
0000
0001
,
0000
0001
0000
0000
,
0000
0100
0000
0100
,
0000
0100
0000
0000
,
0000
0010
0000
0010
,
0000
0010
0000
0100
,
0000
0010
0000
0000
,
0000
1000
0000
0001
,
0000
1000
0000
0000
,
0000
0100
0000
1000
,
0000
0100
0000
0000
,
0000
0010
0000
0001
,
0000
0010
0000
0000
,
0000
1001
0000
0000
,
0000
1000
0000
0000
,
0000
1000
0000
0000
,
0000
1000
0000
0000
,
0000
1001
0000
0000
,
0000
0001
0000
0000
,
0000
0001
0000
0000
,
0000
0001
0000
0000
;

//---------------dance-double - ----------------
#NOTES:
     dance-double:
     :
     Easy:
     6:
     0.265,0.380,0.198,0.322,0.000:
00000000
00000000
00000000
10010000
00000000
00000000
00000000
10010000
,
00000000
00000000
00000000
01100000
00000000
00000000
00000000
01100000
,
00000000
00000000
00000000
10010000
00000000
00000000
00000000
10010000
,
00000000
20000000
00000000
00000000
00000000
00000000
00000000
00000000
,
00000000
30020000
00000000
00000000
00000000
00000000
00000000
00000000
,
00000000
10030000
00000000
01000000
00000000
00100000
00000000
01000000
,
00000000
10000000
00000000
00001000
00000000
00100000
00000000
00011000
,
00000000
00000000
00000000
00000000
00000000
00000000
00000000
00011000
,
00000000
00010000
00000000
00010000
00000000
00000010
00000000
00000010
,
00000000
00000100
00000000
00000001
00000000
00000010
00000000
00000100
,
00000000
00020000
00000000
00000000
00000000
00000000
00000000
00000000
,
00000000
00032000
00000000
00000000
00000000
00000000
00000000
01003000
,
00000000
00000000
00000000
00000000
,
00000000
00000000
00000000
00000000
,
00200000
00000000
02300000
00000000
,
03200000
00000000
01300000
00002000
,
00000000
00000000
00003000
00000000
,
00000000
00000000
00000000
00000000
00000000
00000000
00000000
00022000
,
00000000
00000000
00000000
00000000
00030000
00000000
00000000
02023000
,
00000000
00000000
00000000
00000000
00000000
00000000
03030000
00000010
,
00000000
00000100
00000000
00000010
00000000
00010000
00000000
00000100
,
00000000
00010000
00000000
00001000
00000000
00100000
00000000
01000000
,
00000000
10000000
00000000
01000000
00000000
00100000
00000000
00010000
,
00000000
10000000
00000000
00022000
00000000
00000000
00000000
00000000
,
00033000
00000000
00000000
00000220
00000000
00000000
00000000
00000330
,
00000000
00002002
00000000
00000000
00000000
00000000
00003003
00000000
,
00000000
00022000
00000000
00000000
00000000
00033000
00000000
00000000
,
00100000
01000000
10000000
00010000
,
00100000
01000000
10010000
00000000
,
00000000
00000000
00000000
00000000
,
00000000
00000000
00000000
00000000
,
00000000
00000000
10000000
01000000
,
00100000
00001000
00010000
00010000
,
00000020
00000130
00000001
00000010
,
00000100
00000010
00000001
00001000
,
00000020
00010030
00000000
00000000
,
00000000
00000000
00011000
00001000
,
00100000
01000000
10000000
01000000
,
00100000
01000000
10000000
00010000
,
01000000
00001000
00011000
00000000
,
00000000
00000000
00000000
00011000
00000000
00000000
00000000
00000000
,
00000000
00000210
00000000
00000000
,
00000000
00000320
00000000
00000000
,
00000000
00000130
00000001
00000100
,
00000001
00010000
00001000
00010000
,
00001000
00100000
01000000
00100000
,
01000000
10000000
01000000
10000000
,
00200000
01300000
01100000
01000000
,
01100000
00001000
00011000
00001000
,
00011000
00000100
00000110
00000100
,
00000110
00000001
00001000
00000002
,
00000000
00020003
00000000
00032000
,
00000000
00203000
00000000
02300000
,
00000000
03200000
00000000
00302000
,
00000000
00023000
00000000
00030002
,
00000000
00000203
00000000
00000302
,
00000000
00002003
00000000
00023000
,
00000000
00230000
00000000
02300000
,
00000000
13000000
00100000
01000000
,
00010000
00000000
10000000
00010000
10000000
00000000
00010000
00000000
,
10000000
00001000
00010000
00000100
,
00000010
00000000
00000001
00001000
00000001
00000000
00001000
00000000
,
00000010
00001000
00010000
00100000
,
01000000
00000000
10000000
00010000
10000000
00000000
00010000
00000000
,
01000000
00001000
00010000
00000010
,
00000100
00000000
00000001
00001000
00000001
00000000
00001000
00000001
,
00001000
00002002
00000000
00000000
,
00003003
00001000
00000000
00000100
,
00000000
00010000
00000000
00000000
,
00001000
00001000
00000000
00100000
,
00000000
02100000
00000000
00000000
,
00000000
00000000
00000000
00000000
,
00000000
03200000
00000000
00000000
,
00000000
00000000
00000000
00000000
,
00000000
00300000
00000000
00000000
00000000
00000000
00000000
00000000
;

//---------------dance-double - ----------------
#NOTES:
     dance-double:
     :
     Medium:
     8:
     0.369,0.405,0.124,0.183,0.165:
00000000
00000000
10000000
00010000
00000000
00000000
10000000
00010000
,
00000000
00000000
00100000
01000000
00000000
00000000
00100000
01000000
,
00000000
00000000
10000000
00010000
00000000
00000000
10000000
00010000
,
00000000
00000000
01000000
00000000
00000000
00000000
00000000
00000000
01000000
00000000
00000000
00000000
00000000
01000000
00000000
00000000
,
00000000
00000000
00000000
00001000
00000000
00000000
00000000
00010000
00000000
00000000
00000000
00000000
00000000
00000010
00000000
00000000
,
00000000
00000000
00000100
00000000
00000100
00000000
00000000
00000001
00000000
00001000
00000000
00000001
00000000
00000000
00000000
00000000
,
00000010
00000000
00000010
00000000
00000000
00000100
00000000
00010000
00000000
00000100
00000000
00000000
00000000
00000000
00022000
00000000
,
00000000
00000000
00000000
00000000
00000000
00033000
00000000
00011000
,
00000000
00001000
00010000
00001000
00000000
00100000
01000000
10000000
,
00000000
00010000
10000000
00010000
00000000
01000000
00001000
00010000
,
00000000
00021000
00000000
00000000
00000000
00030200
00000000
00000000
,
00000000
00000320
00000000
00000000
00000000
00000031
00000000
00001000
,
00000000
00000000
00000000
00000000
,
00000000
00000000
00000000
00000000
,
00000120
00000000
00020030
00000000
,
00032000
00000000
00103000
01000000
,
00000000
00000000
00000000
00000000
,
00000000
00000000
00000000
00000000
00000000
00000000
00000000
10000000
,
10000000
00000000
00000000
00010000
00000000
10000000
00000000
00010000
00000000
00000000
00000000
00000000
00000000
00000000
00100000
00000000
,
00100000
00000000
00000000
00001000
00000000
00010000
00000000
00000000
00000010
00000000
00000010
00000000
00000100
00000000
00000001
00000000
,
00000010
00000100
00000000
00000010
00000001
00000010
00000000
00000100
,
00010000
00001000
01000000
00100000
00100000
01000000
00010000
10000000
,
01000000
00100000
00000000
00001000
01000000
00001000
00000000
00010000
,
00000100
00000000
00000010
00000000
00000001
00000000
00001000
00000000
00000010
00000000
00001000
00000000
00000000
00001010
00000000
00000000
,
00000000
00000000
00000000
00000000
00010000
00000000
00001000
00000000
00010000
00000000
00000000
00011000
00000000
00000000
00000000
00000000
,
00000000
00000000
01000000
00000000
00100000
00000000
01000000
00000000
00000000
01100000
00000000
00000000
00000000
00000000
10000000
00000000
,
00100000
00000000
10000000
00000000
00010000
00000000
00000000
10010000
00000000
00000000
00000000
00000000
00000000
00000000
00000000
00000000
,
20000000
00000000
32000000
00000000
03200000
00000000
00301000
00010000
,
00000020
00000130
00000110
00000000
,
00000000
00000000
00000000
00000000
,
00000000
00000000
00000000
00000000
,
00000000
00000000
00000000
00000000
00000100
00000001
00000100
00000001
,
00000010
00000100
00000010
00000001
00000000
00000010
00000001
00000100
,
00000010
00002000
00000000
00003100
00010000
00001000
00100000
01000000
,
00000000
10000000
00010000
10000000
00000000
00100000
01000000
00010000
,
00001000
00000020
00000000
00000130
00000000
00000000
00000000
00000000
,
00000000
00000000
00000000
00000000
00000001
00001000
00000100
00000010
,
00000001
00020000
00000000
00031000
01000000
00100000
01000000
00010000
,
00000000
00100000
01000000
00100000
00000000
00010000
10000000
00100000
,
01000000
00000000
00002000
00000000
00000000
00000000
00013000
00000000
00001000
00000000
00001000
00000000
00000000
00010000
00000000
00000010
,
00000000
00010000
00000000
00000000
00000001
00000000
00000100
00000000
00000100
00000000
00000000
00000001
00000000
00001000
00000000
00000001
,
00000000
00010000
00012000
00000000
00000000
00000000
00000000
00000000
,
00000000
02003000
00000000
00000000
,
03000000
00010000
10000000
00010000
,
01000000
00010000
10000000
00010000
,
00100000
00001000
00010000
00000100
,
00000010
00000100
00010000
00001000
,
02000000
03100000
01100000
10000000
,
11000000
00100000
01100000
00010000
,
00110000
00001000
00011000
00000100
,
00000110
00000001
00000001
00002000
,
00000000
00000000
00000000
00003001
00000000
00000000
00000000
00000100
00000000
00000010
00000000
00000000
,
00000000
00001000
00000000
00010000
00000000
00000000
00000000
00100000
00000000
00010000
00000000
00000000
,
00000000
00100000
00000000
01000000
00000000
00000000
00000000
10000000
00000000
00100000
00000000
00000000
,
00000000
10000000
00000000
00001000
00000000
00000000
00000000
00010000
00000000
00001000
00000000
00000000
,
00000000
00010000
00000000
00000010
00000000
00000100
00000000
00000010
00000000
00000100
00000000
00000010
,
00000000
00000100
00000000
00000001
00000000
00000100
00000000
00000001
00000000
00010000
00000000
00001000
,
00000000
00010000
00000000
00001000
00000000
00100000
00000000
01000000
00000000
00100000
00000000
01000000
,
00000000
00000000
10000000
00000000
00000000
00000000
00010000
00000000
00000000
01000000
00000000
00000000
00010000
00000000
00000000
01000000
00000000
00000000
00010000
00000000
00000000
01000000
00000000
00000000
,
00010000
01000000
00001000
00001000
00001000
00000000
00010000
00010000
,
00010000
00000000
00000100
00000010
00000100
00000010
00000100
00000010
,
00000100
00000010
00000001
00000001
00000001
00000000
00000100
00000100
,
00000100
00000000
00000001
00001000
00000001
00001000
00000001
00001000
,
00000001
00000010
00000100
00010000
00001000
00000000
00100000
01000000
,
10000000
00000000
00010000
10000000
00010000
10000000
00010000
00100000
,
00001000
00010000
00000010
00000100
00000001
00000000
00000010
00000100
,
00001000
00010000
02000000
00000000
00000000
00000000
00000000
00000000
,
03100000
20000000
00000000
30200000
,
00000000
01300000
00000000
00000000
,
00001000
00020000
00000000
00031000
,
00000000
00011000
00000000
00000000
,
00000000
00010000
00000000
00000010
,
00000000
00000100
00000000
00000000
,
00000001
00000002
00000000
00001003
;

//---------------dance-double - ----------------
#NOTES:
     dance-double:
     :
     Hard:
     12:
     0.506,0.624,0.241,0.205,0.406:
00000000
00000000
00000000
10000000
00000000
00000000
10010000
00000000
00000000
00000000
00000000
01000000
00000000
00000000
01010000
00000000
,
00000000
00000000
00000000
00001000
00000000
00000000
00011000
00000000
00000000
00000000
00000000
00010000
00000000
00000000
00010100
00000000
,
00000000
00000000
00000000
00000010
00000000
00000000
00000110
00000000
00000000
00000000
00000000
00000100
00000000
00000000
00000101
00000000
,
00000000
00000000
00001001
00000000
00000000
00000000
00000000
00000000
00000010
00000000
00000000
00000000
00000000
00000011
00000000
00000000
,
00000000
00000000
00000000
00010000
00000000
00000000
00000000
00001000
00000000
00000000
00000000
00000000
00000000
00011000
00000000
00000000
,
00000000
00000000
00001000
00000000
00001000
00000000
00000000
00100000
00000000
01000000
00000000
10000000
00000000
00000000
00100000
00000000
,
01000000
00000000
01000000
00000000
00000000
00001000
00000000
00010000
00000000
00000010
00000000
00000000
00000100
00000000
00000020
00000000
,
00000000
00000000
00000000
00000000
00000000
00000030
00000000
00000110
,
00000000
00000100
00000010
00000001
00000100
00000010
00001000
00000100
,
00001000
00010000
01000000
00100000
01000000
00010000
10000000
01000000
,
00000000
12000000
00000000
00000000
00000000
03200000
00000000
00000000
,
00000000
00302000
00000000
00000000
00000000
00013000
00000000
00000020
,
00000000
00000000
00000000
00000000
00000000
00000000
00000000
00000030
,
00000000
00000000
00000000
00000000
,
00000201
00000000
00000320
00000000
,
00020030
00000000
00031000
00200000
,
00000000
00000000
00000000
00300000
,
00000000
00000000
00000000
00000000
00000000
00000000
00000000
00010000
,
00010000
00000000
00000000
00100000
00000000
01000000
00000000
10000000
00000000
00000000
00100000
00000000
01000000
00000000
01000000
00000000
,
00001000
00000000
00000000
00010000
00000000
00001000
00000000
00000000
00000100
00000000
00000010
00000000
00000001
00001000
00000001
00000000
,
00000010
00001000
00000010
00000001
00000100
00000010
00001000
00010000
,
01000000
00000000
00100000
00000000
10000000
00000000
00100000
00000000
01000000
00100000
01000000
00000000
00000000
00000000
00010000
00000000
,
01000000
10000000
01000000
00001000
00010000
00000100
00000010
00000100
,
00010000
00000000
00000000
00000000
00000001
00000000
00000100
00000001
00000100
00000000
00000000
00000000
00000001
00001000
00000000
00000000
,
00000100
00000000
00000010
00000000
00000001
00000100
00000001
00000000
00000000
00000000
00010000
00001000
00000000
00000000
01000000
00000000
,
00100000
00000000
10000000
01000000
10000000
00000000
00000000
00000000
00010000
10000000
00000000
00000000
01000000
00000000
00100000
00000000
,
00001000
01000000
00001000
00000000
00000000
00000000
00010000
00001000
00000000
00000000
00010000
00000000
00000010
00000000
00000100
00000000
,
00000001
00000001
00000100
00000100
00000010
00000010
00010000
00001000
,
00100000
00100000
01000000
01000000
10010000
00000000
00000000
00000000
,
00000000
00000000
00200000
00000000
,
00000000
02000000
00000000
00000000
,
03300000
00000000
00000000
00000000
00000000
00000000
00000000
00000000
01000000
00100000
01000000
00000000
00010000
00000000
10000000
01000000
,
00000000
00100000
01000000
00000000
10000000
00000000
00001000
01000000
00000000
00000000
00010000
00000000
00001000
00000000
00000100
00000000
,
00000010
00000000
00000002
00000000
00000000
00000000
00001003
00000000
00000001
00000100
00000001
00000000
00000010
00000000
00000100
00001000
,
00000000
00010000
00001000
00000000
00100000
00000000
01000000
00100000
00000000
00000000
00010000
00000000
01000000
00000000
10000000
00000000
,
01000000
00020000
00000000
10030000
00000000
00000000
00000000
00000000
,
00000000
00000000
00000000
00000000
00000000
00000000
00000000
00000000
10010000
00000000
10000000
00010000
10000000
00000000
01000000
00000000
,
00100000
00000000
00002000
00000000
00000000
00000000
00013000
00000000
00000100
00000000
00000010
00000000
00000001
00000100
00000001
00001000
,
00000000
00000000
00000100
00001000
00000100
00001000
00000100
00010000
00000000
00001000
00100000
00000000
01000000
00000000
10000000
00000000
,
00100000
00000000
02000000
00000000
00000000
00000000
03000000
00000000
00010000
00000000
00010000
00000000
00000000
00100000
00000000
01000000
,
00000000
10000000
00000000
00000000
00100000
00000000
01000000
00000000
01000000
00000000
00000000
00001000
00000000
00010000
00000000
00000100
,
00000000
00000010
00000002
00000000
00000010
00000000
00000100
00000000
,
00000013
00000200
00010000
00000010
,
00010300
00000000
00001000
00001000
10000000
00010000
01000000
01000000
,
00100000
10000000
00010000
00010000
00001000
00000100
00000010
00000010
,
00000001
00000100
00000001
00000001
00000010
00000100
00010000
00010000
,
00001000
01000000
00100000
00100000
10000000
01000000
00100000
00100000
,
01000000
00000000
00000000
00000000
10010000
00000000
00000000
00000000
11000000
00000000
00000000
00000000
00100000
01000000
00000000
00000000
,
01001000
00000000
00000000
00000000
00010000
00001000
00000000
00000000
00011000
00000000
00000000
00000000
00000010
00000100
00000000
00000000
,
00000101
00000000
00000000
00000000
00000001
00001000
00000000
00000000
00001001
00000000
00000000
00000000
00000010
00010000
00000000
00000000
,
00011000
10002000
10000000
10000000
,
10003000
00000000
00000000
00001000
00000000
00001000
00000000
00100000
00000000
10000000
00000000
00100000
,
00000000
00001000
00000000
00010000
00000000
00010000
00000000
00000100
00000000
00000001
00000000
00000100
,
00000000
00010000
00000000
00001000
00000000
00001000
00000000
01000000
00000000
10000000
00000000
01000000
,
00000000
00001000
00000000
00010000
00000000
00010000
00000000
00000010
00000000
00000001
00000000
00000010
,
00000000
00010000
00000000
00001000
00100000
00001000
00100000
01000000
10000000
00100000
00000000
00100000
,
00000000
01000000
00000000
01000000
00001000
01000000
00001000
00010000
00000100
00010000
00000100
00000010
,
00000001
00000010
00000001
00000100
00000000
00000100
00000000
00000001
00000000
00000001
00001000
00000001
,
00000100
00000000
00000000
00000000
00000010
00000000
00000000
00000000
00001000
00000000
00000000
00000000
00010000
00000000
00000000
00001000
00000000
00000000
00010000
00000000
00000000
00000000
00000000
00000000
00001000
00000000
00000000
01000000
00000000
00000000
00001000
00000000
00000000
00000000
00000000
00000000
10000000
00000000
00000000
00000000
00000000
00000000
01000000
00000000
00000000
00000000
00000000
00000000
,
00100000
00000000
00010000
00000000
01000000
00000000
01000000
00000000
00100000
00000000
00100000
00000000
10000000
01000000
00100000
00000000
,
00001000
00010000
00000100
00000000
00000010
00000001
00000010
00000000
00000001
00001000
00000001
00000000
00000100
00000000
00000010
00000000
,
00000100
00000000
00000001
00000000
00001000
00000000
00001000
00000000
00010000
00000000
00010000
00000000
01000000
00100000
10000000
00000000
,
00010000
10000000
00010000
00000000
10000000
01000000
10000000
00000000
00100000
01000000
00100000
00000000
10000000
00000000
01000000
00000000
,
00100000
00000000
01000000
00000000
10000000
00010000
10000000
00010000
10000000
00010000
10000000
00000000
00100000
00000000
01000000
00000000
,
00001000
00010000
00001000
00000000
00011000
00000000
00000000
00010010
00000000
00000000
00011000
00000000
00000000
00010010
00000000
00000000
,
00011000
00000000
00000000
00000000
00000110
00000000
00000000
00000011
00000000
00000000
00000110
00000000
00000000
00000011
00000000
00000000
,
00000110
00011000
00010000
00010000
,
00010000
00001000
00200000
00000000
00000000
00000000
02300000
00000000
,
00000000
13000000
10000000
10000000
,
00200000
02300000
00000000
03002000
,
00000000
00013000
00000000
00000000
,
00000010
00000100
00000020
00000000
00000000
00000000
00000230
00000000
,
00000000
00000302
00000000
00000000
,
00001003
00000020
00000000
00020030
,
00000000
00030000
00000000
00000000
00000000
00000000
00000000
00000000
;

//---------------dance-double - ----------------
#NOTES:
     dance-double:
     :
     Challenge:
     15:
     0.752,0.895,0.190,0.183,1.000:
00000000
00000000
00000000
10000000
00100000
00000000
01100000
00000000
00000000
00000000
00000000
01010000
00000000
00000000
01001000
00000000
,
00000000
00000000
00000000
00001000
00010000
00000000
00010100
00000000
00000000
00000000
00000000
00000110
00000000
00000000
00000011
00000000
,
00000000
00000000
00000000
00000001
00001000
00000000
00001100
00000000
00000000
00000000
00000000
00011000
00000000
00000000
01001000
00000000
,
00000000
00000000
01000000
00100000
00000000
00000000
00000000
00000000
01000000
00100000
00000000
00000000
00000000
01000000
00100000
00000000
,
00000000
00000000
00000000
10000000
01000000
00000000
00000000
10000000
01000000
00000000
00000000
00000000
00000000
10000000
01000000
00000000
,
00000000
00000000
00100000
00000000
00100000
00000000
00000000
00010000
00000000
01000000
00000000
00001000
00000000
00000000
00010000
00000100
,
00000010
00000000
00000010
00000000
00000000
00000001
00000000
00000100
00000000
00000010
00000000
00000000
00001000
00010000
02000000
00000000
,
00000000
00000000
00000000
00000000
00000000
00000000
03100000
10000000
00100000
10000000
00010000
01000000
00010000
01000000
00001000
00000000
,
00010000
00000100
00000010
00000000
00000100
00000010
00000001
00000000
00000010
00000100
00000010
00000100
00000010
00000001
00001000
00000010
,
00010000
00000000
00001000
00100000
01000000
00000000
00100000
01000000
10000000
00000000
01000000
00100000
01000000
00100000
00010000
00100000
,
00010000
00001000
00020000
00000000
00000000
00000000
00000000
00000000
00000000
00000000
00030200
00000000
00000000
00000000
00000000
00000000
,
00000000
00000320
00000000
00000000
00000000
00000032
00000000
00002003
,
00000000
00000000
00000000
00000000
,
00000000
00000000
00000000
00000000
00000000
00003000
00000000
00000000
,
00000020
00000000
00020030
00000000
,
00032000
00000000
02003000
03200000
,
00000000
00000000
00000000
00000000
,
00000000
00000000
00000000
00000000
00300000
00000000
00000000
10000000
,
10000000
00000000
00000000
01000000
00000000
00100000
00000000
00010000
00000000
00000000
01000000
00000000
01000000
00001000
00010000
00000000
,
00001000
00000000
00000000
00010000
00000000
00000010
00000000
00000000
00000100
00000000
00000001
00000000
00000010
00000100
00001000
00000010
,
00001000
00000000
00000001
00000100
00000001
00010000
00000000
00001000
00100000
01000000
10000000
01000000
00100000
01000000
00000000
10000000
,
00010000
01000000
00100000
01000000
00001000
00010000
00000100
00000010
00000001
00000010
00000100
00010000
00001000
00000000
00010000
00001000
,
00010000
00000010
00000000
00000100
00000001
00000010
00010100
00000010
00000001
00001000
00000000
00000001
00000010
00000001
00000100
00000010
,
00000100
00000010
00010000
00001000
00010000
00001000
00100000
01000000
10000000
00100000
01000000
00100000
10000000
00010000
00000000
00000000
,
01000000
00000000
01000000
00000000
01000000
00100000
10000000
01000000
10000000
00010000
00100000
01000000
00000000
00000000
10000000
00000000
,
10000000
00000000
10000000
00100000
01000000
00001000
00010000
00001000
00010000
00000010
00000000
00000000
00000100
00000001
00000010
00000100
,
00000010
00000001
00000100
00000010
00000100
00000001
00010000
00000100
00000000
00000000
00010000
00001000
00100000
01000000
10000000
01000000
,
00100000
00000000
00100000
00000000
00001000
00000000
00001000
00000000
00010000
00000000
00010000
00000000
00000100
00000010
00000001
00000010
,
00000100
00000000
00000100
00000000
00010000
00001000
01000000
00000000
01100000
00000000
00000000
00000000
00000000
00000000
00000000
00000000
,
00000000
00000000
00100000
00100000
,
00100000
10000000
01000000
00100000
,
00010000
00000000
00000000
00000000
00000000
00000000
01000000
00000000
00000000
00000000
00100000
00000000
00000000
00000000
10000000
00000000
00000000
00000000
01000000
00000000
00000000
00000000
00000000
00000000
10000000
00000000
00000000
01000000
00000000
00000000
00010000
00000000
00000000
01000000
00000000
00000000
10000000
00000000
00000000
00100000
00000000
00000000
01000000
00000000
00000000
00001000
00000000
00000000
,
00000000
00001000
00010000
00000010
00000001
00000010
00010000
00000100
00000000
00000010
00000001
00000100
00000010
00001000
00000100
00010000
,
00001000
00000000
00000000
00000000
00000000
00000000
00010000
00000000
00000000
00000000
00010000
00000000
00000000
00000000
00001000
00000000
00000000
00000000
00100000
00000000
00000000
01000000
00000000
00000000
10000000
00000000
00000000
00100000
00000000
00000000
00010000
00000000
00000000
00100000
00000000
00000000
10000000
00000000
00000000
01000000
00000000
00000000
00100000
00000000
00000000
00001000
00000000
00000000
,
00000000
00100000
00001000
00010000
00001000
00010000
00000100
00000010
00000000
00000000
00000001
00001000
00000001
00000010
00001000
00000010
,
00000001
00000000
00000000
00000100
00000000
00000000
00000010
00000000
00000000
00000000
00000010
00000000
00000000
00000000
00010000
00000000
00000000
00000000
00001000
00000000
00000000
00010000
00000000
00000000
00000000
00000000
00000000
00000000
00000000
00000000
00000000
00000000
00000000
00000000
00000000
00000000
00000000
00000000
00000000
00000000
00000000
00000000
00000000
00000000
00000000
00000000
00000000
00000000
,
00000000
00000000
00000000
00000000
00000000
00000000
00000000
00000000
00001000
00100000
01000000
10000000
01000000
00100000
00001000
00010000
,
00000100
00000000
00000000
00000010
00000000
00000000
00000001
00000000
00000000
00000000
00000001
00000000
00000000
00000000
00000100
00000000
00000000
00000000
00000001
00000000
00000000
00001000
00000000
00000000
00000100
00000000
00000000
00000001
00000000
00000000
00000100
00000000
00000000
00001000
00000000
00000000
00000010
00000000
00000000
00000100
00000000
00000000
00000010
00000000
00000000
00010000
00000000
00000000
,
00000000
00000010
00010000
00001000
00010000
01000000
00100000
10000000
00000000
00000000
00100000
10000000
01000000
00010000
01000000
10000000
,
01000000
00000000
00000000
00100000
00000000
00000000
00001000
00000000
00000000
00000000
00001000
00000000
00000000
00000000
00010000
00000000
00000000
00000000
00000100
00000000
00000000
00000010
00000000
00000000
00000001
00000000
00000000
00000000
00000000
00000000
00000101
00000000
00000000
00000000
00000000
00000000
00000000
00000000
00000000
00000110
00000000
00000000
00000000
00000000
00000000
00010010
00000000
00000000
,
00000000
00011000
00000000
00000000
00100000
01000000
10000000
00000000
11000000
00000000
00000000
01001000
00000000
00011000
00000000
00010100
,
00000000
00000000
00000010
00000001
00001000
00000000
00000100
00000000
00000010
00000000
00000001
00000000
00000010
00000000
00000100
00000000
,
00010000
00001000
01000000
00100000
10000000
00100000
01000000
00010000
,
10000000
00010000
10010000
10000000
01000000
00100000
00001000
00001000
,
00010000
00000010
00000100
00000100
00000001
00000010
00000100
00000100
,
00001000
00010000
01000000
01000000
00100000
10000000
00001000
00001000
,
00100000
01000000
00100000
00100000
00001000
00010000
00000100
00000100
,
00000010
00000001
00000010
00000001
00000100
00000010
00000100
00000000
00001001
00000000
00000001
00000000
00000010
00000100
00010000
00000000
,
00010100
00000000
00000100
00000000
00001000
00010000
00100000
00000000
01100000
00000000
01000000
00000000
10000000
00010000
01000000
00000000
,
01010000
00000000
00000000
00000000
00000000
00000000
00010000
00000000
00000000
00000000
00000000
00000000
00100000
00000000
00000000
00001000
00000000
00000000
00010000
00000000
00000000
00000000
00000000
00000000
00011000
00000000
00000000
00000000
00000000
00000000
00001000
00000000
00000000
00000000
00000000
00000000
00000010
00000000
00000000
00000000
00000100
00000000
00000000
00000000
00000001
00000000
00000000
00000000
,
00000010
00000000
00000000
00000010
00000000
00000000
00000001
00000000
00000000
00000001
00000000
00000000
00000100
00000000
00000000
00000100
00000000
00000000
00000001
00000000
00000010
00000000
00000100
00000000
,
00010000
00001000
00010000
00001000
00100000
01000000
00100000
01000000
10000000
00010000
10000000
00010000
,
00100000
01000000
10000000
00100000
01000000
00100000
01000000
00001000
00010000
00001000
00010000
00000100
,
00000010
00000100
00000010
00000001
00000100
00000010
00010000
00001000
00010000
00001000
00100000
01000000
,
00100000
01000000
10000000
00100000
10000000
00100000
01000000
00010000
00100000
01000000
10000000
01000000
,
10000000
00010000
01000000
00100000
01000000
00001000
00010000
00000100
00000010
00000001
00000010
00000100
,
00000010
00000001
00001000
00000100
00000001
00000100
00010000
00001000
00100000
01000000
00100000
00001000
,
01000000
10000000
01000000
00010000
00100000
00001000
00010000
00000100
00000010
00000001
00000100
00000010
,
00010000
00000000
00000000
00000000
00001000
00000000
00000000
00000000
00010000
00000000
00000000
00000000
00001000
00000000
00000000
01000000
00000000
00000000
00001000
00000000
00000000
01000000
00000000
00000000
00100000
00000000
00000000
01000000
00000000
00000000
00100000
00000000
00000000
01000000
00000000
00000000
00010000
00000000
00000000
10000000
00000000
00000000
00010000
00000000
00000000
10000000
00000000
00000000
,
01000000
00100000
00010000
00100000
01000000
10000000
01000000
10000000
01000000
10000000
01000000
00100000
00001000
01000000
00001000
00010000
,
00001000
00010000
00000010
00000000
00010000
00000010
00010000
00000010
00000100
00000001
00000100
00000001
00000010
00000100
00000010
00000100
,
00001000
00000010
00000001
00000010
00010000
00001000
00010000
00001000
00010000
00001000
00010000
00001000
00100000
01000000
10000000
00100000
,
01000000
00010000
01000000
00000000
00010000
01000000
00010000
01000000
10000000
01000000
10000000
01000000
00001000
00010000
00001000
00010000
,
00000001
00000010
00001000
00000010
00000001
00001000
00000001
00001000
00000001
00001000
00000001
00001000
00000001
00000010
00000100
00000010
,
00000001
00001000
00000100
00010000
00001000
00100000
01000000
10000000
00010000
01000000
00010000
01000000
10000000
01000000
10000000
01000000
,
00001000
10000000
00001000
01000000
00001000
00010000
00001000
00010000
00001000
00010000
00000100
00000010
00000001
00000010
00000100
00001000
,
00000010
00001000
00000001
00010000
00001000
00000000
00000000
00000000
00001000
00000000
00000000
00000000
00001000
00000000
00000000
00000000
,
00010000
00001000
02000000
00000000
03100000
00000000
20000000
00000000
,
31000000
00200000
01300000
00100000
,
02000000
03020000
01030000
00002000
,
00013000
00022000
00000000
00033000
,
00010000
00000100
00000020
00000000
00000000
00000000
00000032
00000000
,
00000000
00002003
00000000
00000000
,
00003020
00020030
00000000
00032000
,
00000000
00003000
00000000
00000000
00000000
00000000
00000000
00000000
;
