#TITLE:白露の風;
#SUBTITLE:;
#ARTIST:Qrispy Joybox feat. 常盤ゆう;
#TITLETRANSLIT:SHIRATSUYU NO KAZE;
#SUBTITLETRANSLIT:;
#ARTISTTRANSLIT:Qrispy Joybox feat. YU TOKIWA;
#CREDIT:DigiMindAxel;
#BANNER:SHIRATSUYU NO KAZE.png;
#BACKGROUND:SHIRATSUYU NO KAZE-bg.png;
#LYRICSPATH:SHIRATSUYU NO KAZE.lrc;
#CDTITLE:beatmania IIDX.png;
#MUSIC:SHIRATSUYU NO KAZE.ogg;
#METERTYPE:DDR X;
#OFFSET:-12.632;
#SAMPLESTART:58.143;
#SAMPLELENGTH:12.000;
#SELECTABLE:YES;
#BPMS:0.000=166.000;
#STOPS:46.000=0.361
,77.000=0.361
,124.000=0.361
;
#BGCHANGES:;

//---------------dance-single - ----------------
#NOTES:
     dance-single:
     :
     Easy:
     5:
     0.237,0.260,0.171,0.082,0.000:
1001
0000
0000
0000
,
1001
0000
0000
0010
,
0010
0000
0000
0000
,
0110
0000
0000
0100
,
0100
0000
0000
0000
,
1001
0000
0000
1000
,
1000
0000
1001
0000
,
1000
0001
1000
0001
,
0020
0000
0000
0000
,
0032
0000
0000
0000
,
2003
0000
0000
0000
,
3020
0000
0030
0100
,
0100
0100
0000
0010
,
0000
0100
0000
0001
,
0001
0001
0000
1000
,
0000
0001
0000
1000
,
1000
1000
0000
0001
,
0000
0010
0000
0200
,
0000
0000
0000
2300
,
0000
3000
0001
1000
,
0001
0000
0010
0000
,
0100
0000
1000
0001
,
1000
0000
0100
0000
,
0010
0000
0001
1000
,
0001
0000
0100
0000
,
0010
0000
2000
0000
,
3002
0000
2003
0000
,
3002
0000
1003
0000
,
0000
0000
0000
0000
,
0000
0000
0000
0000
,
0000
0000
0000
0000
,
0000
1001
0001
0001
,
0000
1000
0001
1000
,
0000
1001
1000
1000
,
0000
0010
0100
0010
,
0000
0110
0000
0110
,
0000
0010
0100
0010
,
0000
1000
0001
1000
,
0001
0010
0000
1001
,
0000
0001
1000
0001
,
1000
0100
1000
0100
,
1000
0001
1000
0001
,
1000
0010
0100
0010
,
0000
1000
0001
1000
,
0001
0010
0001
0010
,
0001
1000
0001
1000
,
0001
0100
0000
0000
,
0000
0110
0010
0100
,
0010
1000
0001
0010
,
0000
0110
0100
0010
,
0100
0001
1000
0100
,
0000
1001
0000
1001
,
0000
0001
1000
0001
,
0000
1001
0000
1000
,
0000
0100
0000
0000
,
0000
1000
0001
1000
,
0001
0010
0001
0010
,
0000
0001
1000
0001
,
1000
0010
1000
0010
,
0000
1001
0000
1001
,
0000
0010
0100
0010
,
0100
0001
0000
0010
,
0000
0100
0000
0000
,
0000
1001
0000
1000
,
0000
0001
1000
0001
,
0000
1001
0000
0001
,
0000
1000
0001
1000
,
0000
0110
0000
0010
,
0000
0100
0010
0100
,
0000
0110
0000
0100
,
0000
0010
0100
0010
;

//---------------dance-single - ----------------
#NOTES:
     dance-single:
     :
     Medium:
     8:
     0.372,0.404,0.269,0.098,0.000:
1001
0000
0001
0000
,
1001
0000
0100
0010
,
0110
0000
0010
0000
,
0110
0000
1000
0001
,
1001
0000
1000
0000
,
1001
0000
0010
0001
,
1001
1000
0110
0001
,
1000
0001
1000
0000
0001
1000
0001
0000
,
0021
0000
0000
0000
,
0032
0000
0003
0000
,
2001
0000
0000
0000
,
3200
0000
0300
1001
,
1000
0001
0010
0100
,
1000
0001
0001
1001
,
0001
1000
0100
0010
,
0001
1000
0010
0010
,
0100
0001
0010
0100
,
1000
0001
0001
2000
,
0000
3020
0000
0230
,
0000
0301
1001
0001
,
0001
0010
0100
1000
,
1000
0001
0010
0001
,
0010
0100
1000
0010
,
0010
0000
1000
0100
,
0010
0001
1000
1000
,
0010
0100
0001
0100
,
1000
0100
1001
0000
,
0110
0000
2002
0000
,
0000
0000
0000
0000
,
0000
0000
0000
0000
,
0000
0000
3003
0000
,
0000
0000
1000
0100
1000
0100
1000
0000
,
0010
0000
0100
0000
0001
1000
0100
0000
,
0100
0000
1000
0001
1000
0001
1000
0000
,
0001
0000
0010
0000
0100
0010
0100
0000
,
0100
0001
1001
0001
,
1001
0001
0110
1000
,
0010
0000
0100
0010
0100
0010
0100
0000
,
1001
0110
0000
1001
,
0000
0000
1000
0001
0100
0001
0000
1000
,
0010
1000
0000
0001
0100
0001
0000
1000
,
0010
1000
0000
0001
1000
0001
0000
1000
,
0001
1000
0100
0000
0010
0000
0001
0000
,
0001
0000
1000
0001
1000
0001
1000
0000
,
0100
0000
1000
0010
0100
0000
0010
0000
,
1000
0001
0000
1000
,
0001
0020
0000
0000
,
0030
0000
0001
0010
0001
0010
0001
0000
,
0100
0000
0001
0000
1000
0010
0100
0000
,
0100
0000
0001
0010
0001
0010
0001
0000
,
0100
0000
0010
0100
0010
0000
1000
0000
,
0000
1000
1001
1000
,
1001
0000
1000
0001
1000
0000
0100
1000
,
0010
1010
1000
0001
,
0010
0100
0000
2000
,
0000
0000
3001
1000
0100
1000
0000
0010
,
0100
0010
1000
0000
0100
0000
0010
0000
,
0000
0000
0001
1000
0010
1000
0000
0010
,
0100
0010
1000
0000
0010
0000
0100
0000
,
0000
0001
1001
0001
,
1001
0000
0001
0000
0010
0000
0100
1000
,
0100
1000
0010
0000
0100
0000
0010
0000
,
0100
0002
0000
0000
,
0003
0000
1001
0000
0100
0001
0100
0001
,
0100
0000
0001
0000
1000
0100
1000
0000
,
0000
0000
1001
0000
0100
1000
0100
1000
,
0100
0000
1000
0000
0001
0100
0001
0000
,
0000
0000
0110
0000
0100
1000
0100
1000
,
0100
0000
0010
0000
0001
0100
0001
0000
,
0000
0000
0110
0000
0010
0001
0010
0001
,
0010
1001
1000
1100
;

//---------------dance-single - ----------------
#NOTES:
     dance-single:
     :
     Hard:
     11:
     0.483,0.462,0.482,0.147,0.045:
1001
1000
1000
1000
,
1010
0010
0010
0110
,
1001
0001
0001
0001
,
0011
0010
0010
0110
,
1010
1000
1000
1000
,
1100
0100
0100
1100
,
1001
0001
1001
1000
,
1001
0001
1100
0011
,
2001
0000
0000
0000
,
3002
0000
0003
1000
,
1002
0000
0000
0000
,
0203
0000
0000
0000
0300
0000
0001
1000
,
0100
0000
1100
0000
1001
0000
0100
0010
,
1000
0000
1010
0000
1001
0000
0001
0010
,
0100
0000
0110
0000
0011
0000
0100
1000
,
0001
1001
1100
0011
,
0100
1000
0001
0000
0101
0000
0100
0010
,
1000
0000
0000
1010
0000
0000
1001
0000
0000
0001
0000
0010
,
0000
0001
0000
0010
0000
0001
0000
1000
0000
0001
0000
1000
,
0000
0000
0100
0000
0000
0000
0010
0000
0000
0000
0000
0000
0001
0000
0000
1000
0000
0000
0001
0000
0000
1000
0000
0000
,
0100
0000
1100
0000
1000
0100
0010
0001
,
0100
0000
0101
0000
0010
0100
0010
0100
,
0001
0000
0101
0000
0100
0001
0010
0100
,
1000
0000
1100
0000
0100
1000
0001
0100
,
0010
0000
0110
0000
0100
0010
0001
1000
,
0100
1100
2001
3100
,
0020
0031
0202
0303
,
0220
0330
2002
0000
,
0000
0000
0000
0000
,
0000
0000
0000
0000
,
0000
0000
3003
0000
,
0000
0000
0000
0000
1000
0000
0000
1000
0000
0000
1000
0000
0000
0000
0010
0000
,
0100
0001
0100
0010
1000
0100
1000
0000
,
1100
0000
0000
0000
0001
0000
0000
0001
0000
0000
0001
0000
0000
0000
0010
0000
,
0100
1000
0100
0010
0001
0100
0010
0000
,
0100
0001
1000
0000
0100
0001
1000
0000
,
0100
0001
1000
0100
0010
0001
1000
0000
,
1001
0000
0000
0000
0010
0000
0000
0010
0000
0000
0010
0000
0000
0000
1000
0000
,
0001
0010
0100
0000
0000
0000
1002
0000
,
0000
0000
1003
0001
0100
1000
0000
0001
,
0010
1000
0000
0001
0100
1000
0000
0001
,
0010
1000
0000
0001
0100
1000
0000
0001
,
0010
1000
0001
0010
0100
1000
0001
0000
,
1001
0000
1000
0001
0010
1000
0010
0001
,
1000
0001
1000
0010
0100
0001
0010
0000
,
0011
0000
1001
0000
0000
0000
1000
0001
,
0010
0100
2000
0000
0000
0000
0000
0000
,
3000
0000
0000
0000
0001
0000
1000
0001
1000
0000
0001
0000
0000
0000
0010
0000
,
0100
1000
0001
0010
0100
1000
0001
0000
,
1001
0000
0000
0000
1000
0000
0001
1000
0001
0000
1000
0000
0000
0000
0001
0000
,
0100
0010
1000
0010
0100
0001
1000
0000
,
0000
0000
1001
0000
0100
1000
0001
0000
,
0100
1000
0001
0010
0100
1000
0001
0100
,
0001
0100
0010
0000
1000
0000
1100
0000
,
0010
0100
0001
2001
,
0000
0000
3001
1000
0100
0001
0000
1000
,
0010
0001
1000
0100
0010
0001
2000
0000
,
0000
0000
3001
1000
0100
0001
0000
1000
,
0010
0001
1000
0010
0100
0001
2000
0000
,
0000
0000
3001
0000
0010
0001
1000
0000
,
0010
0001
1000
0010
0100
0001
1000
0100
,
1000
0001
0010
0000
0100
0000
1010
0000
,
0100
0020
0000
0000
,
0030
0000
1001
0000
1000
1000
1000
0100
,
1000
0001
0100
0110
,
0000
0000
1001
0000
0010
0010
0010
0100
,
0010
1000
0100
1100
,
0000
0000
1001
0000
1000
1000
1000
0100
,
1000
0001
0100
0101
,
0000
0000
0110
0000
0010
0010
0010
0100
,
0010
0110
1100
0011
;

//---------------dance-single - ----------------
#NOTES:
     dance-single:
     :
     Challenge:
     13:
     0.611,0.722,0.506,0.114,0.135:
2001
0100
0001
3100
,
1002
0100
1000
0103
,
0210
0001
0010
0301
,
0120
1000
0100
1030
,
1001
1000
0100
0010
,
1001
0010
0100
1010
,
1001
0000
0010
0100
0001
0000
0100
0010
,
1000
0100
0010
0001
1000
0100
0010
0001
,
1001
0000
1000
1000
1000
0010
0100
0000
,
0001
0001
0001
0010
0100
0000
1010
0000
,
0110
0000
0010
0010
0010
0100
0001
0000
,
0010
0010
0010
0100
1000
0000
0001
1000
,
0100
1000
0001
0000
1000
0010
0001
0010
,
1000
0001
1000
0000
1001
0000
1000
0001
,
0100
0001
1000
0000
0001
0010
1000
0010
,
0001
1000
0001
0000
1001
0000
0100
1000
,
0010
0100
0010
0000
1000
0100
0010
0001
,
0010
0000
0000
0100
0000
0000
1000
0000
0000
0000
0000
0000
1100
0000
0000
0000
0000
0000
1001
0000
0000
0000
1000
0000
,
0000
0010
0000
0110
0000
0100
0000
0001
0000
1001
0000
1000
,
0000
0000
0001
0000
0000
0000
1001
0000
0000
0000
0000
0000
0001
0000
0000
0100
0000
0000
0010
0000
0000
0100
0000
0000
,
0001
0000
1000
0100
0010
0001
1000
0100
,
0010
0000
0110
0000
0100
1000
0010
1000
,
0100
0000
1000
0001
0010
1000
0010
0001
,
1000
0000
1001
0000
0001
1000
0100
1000
,
0001
0000
1000
0001
0010
1000
0010
0001
,
1000
1001
1100
1100
,
0011
0011
0220
0330
,
2200
0000
0000
3300
0000
0000
1001
0000
0000
1000
0100
1000
,
0001
0100
0001
0100
0001
1000
0001
1000
0001
1000
0100
0010
,
0001
0010
0100
1000
0001
0010
0100
1000
0100
0010
0001
0100
,
0010
0100
0001
1000
0100
1000
0002
0000
0000
0000
0000
0000
,
0003
0000
0000
0000
1000
0000
0001
0100
0001
0000
1000
0000
0000
0000
0100
0000
,
0100
1000
0001
0010
0100
1000
0001
0010
,
0100
0000
0010
0000
0001
0000
1000
0010
1000
0000
0001
0000
0000
0000
0010
0000
,
0010
0001
1000
0010
0100
0001
1000
0010
,
0100
0001
1001
0000
0100
0001
1001
0000
,
0100
0001
1001
1000
0100
0010
0001
1000
,
1001
0000
0000
0000
1000
0000
0001
0010
0001
0000
1000
0000
0000
0000
0010
0000
,
0010
1000
0100
0010
0100
1000
1002
0000
,
0000
0000
1003
0001
0100
1000
0100
1000
,
0100
0001
1000
0001
0010
1000
0010
1000
,
0010
0001
1000
0001
0100
1000
0100
1000
,
0100
0001
1000
0001
0010
0100
1100
0000
,
1001
0000
0001
1000
0010
0001
0010
1000
,
0100
0010
0100
1000
0001
0010
1000
0010
,
0001
0100
0110
0000
0010
1000
0001
0010
,
0100
1000
2020
0000
0000
0000
0000
0000
,
3030
0000
0000
0000
1000
0000
0001
0100
0010
0000
0100
0000
0000
0000
0001
0000
,
1000
0100
0010
1000
0010
0100
1000
0001
,
0100
0000
0001
0000
1000
0000
0001
0010
0100
0000
1000
0000
0000
0000
0001
0000
,
1000
0010
0100
1000
0100
0010
1000
0001
,
1000
0000
1001
0000
0001
0100
0110
0000
,
0001
0100
0110
0000
1010
0000
1001
0000
,
0011
0000
1010
1000
0001
0010
0100
0010
,
0001
1000
0010
0100
0010
0000
0210
0000
,
0000
0000
0301
1000
0010
0001
0000
0010
,
1000
0001
0010
0100
0010
0001
1000
0010
,
1000
0000
0001
1000
0100
0001
0000
0100
,
1000
0001
0100
0010
0001
0010
0100
0001
,
1000
0000
1001
0000
1000
0001
0101
0000
,
1000
0001
0101
0000
0110
0000
1010
0000
,
0011
0000
1001
0000
0001
1000
0100
1000
,
0001
0010
0200
0000
0000
0000
0000
0000
,
0300
0000
1010
0000
0010
0010
0010
0100
,
0001
0000
1000
0001
0010
0100
1100
0000
,
1000
0000
1001
0000
0001
0001
0001
0100
,
0010
0000
1000
0001
0010
0100
1100
0000
,
1000
0000
1001
0000
0010
0010
0010
0001
,
1000
0000
0010
0100
0001
0100
0110
0000
,
0010
0000
1010
0000
1000
1000
1000
0010
,
0100
0000
0101
0001
1001
1000
1001
0000
;

//---------------dance-double - ----------------
#NOTES:
     dance-double:
     :
     Easy:
     5:
     0.253,0.318,0.212,0.147,0.000:
20020000
00000000
00000000
30030000
,
20020000
00000000
30000000
10030000
,
20020000
00000000
00000000
30030000
,
20020000
00000000
00030000
30010000
,
10010000
00000000
00010000
00000000
,
00011000
00000000
00000000
00001000
,
00001000
00000000
00011000
00000000
,
00010000
00000001
00010000
00000001
,
00000200
00000000
00000000
00000000
,
00000320
00000000
00000000
00000000
,
00000230
00000000
00000000
00000000
,
00000320
00000000
00000030
00000110
,
00000100
00000100
00000000
00000001
,
00000000
00000100
00000000
00000110
,
00000010
00000010
00000000
00010000
,
00000000
00000100
00000000
00000110
,
00000100
00000100
00000000
00000010
,
00000000
00001000
00000000
00000002
,
00000000
00000000
00000000
00000203
,
00000000
00000300
00000010
00010000
,
00000010
00000000
00010000
00000000
,
00001000
00000000
01000000
00100000
,
01000000
00000000
00010000
00000000
,
10000000
00000000
00010000
10000000
,
00010000
00000000
00100000
00000000
,
01000000
00000000
20000000
00000000
,
30002000
00000000
20003000
00000000
,
30002000
00000000
00013000
00000000
,
00000000
00000000
00000000
00000000
,
00000000
00000000
00000000
00000000
,
00000000
00000000
00000000
00000000
,
00000000
01100000
00100000
00100000
,
00000000
10000000
01000000
10000000
,
00000000
10010000
00010000
00010000
,
00000000
00100000
00001000
00100000
,
00000000
00011000
00000000
00011000
,
00000000
00010000
00001000
00010000
,
00000000
00000010
00000100
00000010
,
00000100
00000001
00000000
00001001
,
00000000
00000001
00001000
00000001
,
00001000
00000100
00001000
00000100
,
00001000
00000001
00010000
00000001
,
00010000
00000100
00010000
00000100
,
00000000
00010000
00001000
00010000
,
00001000
00100000
01000000
00100000
,
01000000
10000000
00100000
10000000
,
00100000
01000000
00000000
00000000
,
00000000
10010000
00010000
10000000
,
00010000
10000000
01000000
10000000
,
00000000
10010000
10000000
00010000
,
10000000
00001000
00100000
00001000
,
00000000
00011000
00000000
00011000
,
00000000
00010000
00001000
00010000
,
00000000
00000110
00000000
00000010
,
00000000
00000100
00000000
00000000
,
00000000
00000001
00001000
00000001
,
00001000
00000100
00010000
00000100
,
00000000
00010000
00001000
00010000
,
00001000
01000000
00001000
01000000
,
00000000
01100000
00000000
01100000
,
00000000
00100000
01000000
00100000
,
01000000
00100000
00000000
10000000
,
00000000
00010000
00000000
00000000
,
00000000
10010000
00000000
10000000
,
00000000
00001000
01000000
00001000
,
00000000
00011000
00000000
00001000
,
00000000
00010000
00000100
00010000
,
00000000
00001001
00000000
00000001
,
00000000
00001000
00000100
00001000
,
00000000
00011000
00000000
00001000
,
00000000
00010000
00001000
00010000
;

//---------------dance-double - ----------------
#NOTES:
     dance-double:
     :
     Medium:
     8:
     0.385,0.462,0.335,0.122,0.000:
20010000
00000000
00010000
30000000
,
10020000
00000000
01000000
01030000
,
01200000
00000000
10000000
00300000
,
20100000
00000000
00001000
30001000
,
00201000
00000000
00001000
00000000
,
00302000
00000000
00010000
00013000
,
00011000
00010000
00010100
00000100
,
00001000
00000100
00001000
00000000
00000001
00000010
00000001
00000000
,
00002001
00000000
00000000
00000000
,
00003200
00000000
00000300
00000000
,
00001002
00000000
00000000
00000000
,
00000023
00000000
00000030
00001001
,
00001000
00000001
00000010
00000100
,
00001000
00000100
00000100
00010100
,
00010000
00001000
01000000
00100000
,
10000000
00010000
00010000
10010000
,
10000000
01000000
00100000
00001000
,
00010000
00000100
00000100
00001100
,
00000000
00000110
00000000
00000011
,
00000000
00001001
00001001
00000001
,
00000001
00000100
00000010
00010000
,
00010000
00001000
01000000
00100000
,
10000000
01000000
00100000
00001000
,
00010000
00010000
00011000
00001000
,
00010000
00000100
00000010
00000001
,
00000010
00000100
00010000
00001000
,
00100000
00001000
00100000
00000000
,
01100000
00000000
20020000
00000000
,
00000000
00000000
00000000
00000000
,
00000000
00000000
00000000
00000000
,
00000000
00000000
30030000
00000000
,
00000000
00000000
10000000
01000000
10000000
01000000
10000000
00000000
,
00100000
00000000
01000000
00000000
00010000
10000000
01000000
00000000
,
01000000
00000000
10000000
00010000
10000000
00010000
10000000
00000000
,
00010000
00000000
00100000
00000000
00001000
00100000
00001000
00000000
,
00010000
00001000
00011000
00001000
,
00011000
00010100
00010100
00010100
,
00010000
00000000
00000010
00000100
00000010
00000100
00000010
00000000
,
00000110
00001001
00000000
00001001
,
00000000
00000000
00000001
00001000
00000100
00001000
00000000
00000100
,
00010000
00000100
00000000
00010000
00001000
00010000
00000000
00001000
,
01000000
00001000
00000000
10000000
00010000
10000000
00000000
00100000
,
01000000
00100000
10000000
00000000
10000000
00000000
00010000
00000000
,
00010000
00000000
01000000
00100000
01000000
00100000
01000000
00000000
,
00010000
00000000
00100000
00001000
00010000
00000000
00001000
00000000
,
00010000
00000000
00000010
00000000
00000000
00000000
00001000
00000100
,
00001000
00000100
00002000
00000000
00000000
00000000
00000000
00000000
,
00003000
00000000
00000001
00001000
00000001
00001000
00000001
00000000
,
00000100
00000000
00000010
00000000
00000100
00000010
00010000
00000000
,
00010000
00000000
00001000
01000000
00001000
01000000
00001000
00000000
,
00100000
00000000
01000000
10000000
01000000
00000000
00100000
00000000
,
00000000
00001000
00011000
00001000
,
00011000
00000000
00001000
00010000
00001000
00000000
00010000
00000100
,
00000010
00000110
00000100
00000001
,
00000010
00000100
00000000
00020000
,
00000000
00000000
00031000
10000000
00100000
10000000
00000000
00010000
,
10000000
00010000
00100000
00000000
01000000
00000000
00100000
00000000
,
00000000
00000000
00001000
00010000
00000100
00010000
00000000
00000010
,
00000100
00000010
00001000
00000000
00000100
00000000
00010000
00000000
,
00000000
00001000
00011000
00001000
,
00011000
00000000
01001000
00000000
01001000
00000000
01000000
00001000
,
01000000
00001000
10000000
00000000
00100000
00000000
01000000
00000000
,
00010000
00200000
00000000
00000000
,
00300000
00000000
10010000
00000000
01000000
00010000
01000000
00010000
,
01000000
00010000
10000000
00010000
,
00000000
00000000
00011000
00000000
00001000
00010000
00001000
00010000
,
00001000
00010000
00000100
00010000
,
00000000
00000000
00001001
00000000
00001000
00000100
00001000
00000100
,
00001000
00000001
00000010
00000100
,
00000000
00000000
00011000
00000000
00001000
00010000
00001000
00010000
,
00001000
01001000
01000000
01100000
;

//---------------dance-double - ----------------
#NOTES:
     dance-double:
     :
     Hard:
     11:
     0.486,0.462,0.425,0.171,0.045:
10010000
10000000
00010000
10000000
,
10010000
00010000
00100000
00110000
,
00011000
00001000
00010000
00001000
,
00011000
00010000
00000100
00010100
,
00010001
00000001
00000010
00000001
,
00000011
00000010
00000100
00000110
,
00001010
00001000
00001001
00000001
,
00010001
00010000
00011000
00011000
,
02002000
00000000
00000000
03003000
,
00200000
00000000
00300000
10010000
,
20020000
00000000
00000000
30030000
,
02000000
00000000
00000000
00000000
03000000
00000000
00010000
10000000
,
01000000
10000000
00010000
00000000
10000000
00000000
00010000
01000000
,
10000000
01000000
00010000
00000000
10010000
00000000
10000000
01000000
,
00100000
01000000
10000000
00000000
11000000
00000000
10000000
00100000
,
00010000
00100000
10000000
00000000
10010000
00000000
01010000
00000000
,
00010000
00100000
00001000
00010000
00001000
00000000
00010000
00000010
,
00000100
00000000
00000000
00000001
00000000
00000000
00001000
00000000
00000000
00000000
00000000
00000000
00001001
00000000
00000000
00000000
00000000
00000000
00000001
00000000
00000000
00000000
00000010
00000000
,
00000000
00000100
00000000
00000010
00000000
00000001
00000000
00010000
00000000
00001000
00000000
00010000
,
00000000
00000000
00001000
00000000
00000000
00000000
00100000
00000000
00000000
00000000
00000000
00000000
00001000
00000000
00000000
00010000
00000000
00000000
00000100
00000000
00000000
00010000
00000000
00000000
,
00001000
00000000
00011000
00000000
00010000
00000100
00000010
00000001
,
00000010
00000000
00000011
00000000
00000001
00001000
00000100
00001000
,
00000001
00000000
00001001
00000000
00000001
00000100
00000010
00010000
,
00001000
00000000
00011000
00000000
00001000
00100000
01000000
00100000
,
00001000
00000000
00011000
00000000
00001000
01000000
00100000
10000000
,
01000000
11000000
20000000
30200000
,
02300000
03010000
02020000
03030000
,
20020000
30030000
02200000
00000000
,
00000000
00000000
00000000
00000000
,
00000000
00000000
00000000
00000000
,
00000000
00000000
03300000
00000000
,
00000000
00000000
00000000
00000000
10010000
00000000
00000000
00010000
00000000
00000000
00010000
00000000
00000000
00000000
01000000
00000000
,
00100000
10000000
00100000
01000000
00001000
00010000
00001000
00000000
,
00011000
00000000
00000000
00000000
00010000
00000000
00000000
00010000
00000000
00000000
00010000
00000000
00000000
00000000
00000100
00000000
,
00000010
00000001
00000010
00000100
00010000
00000010
00000100
00000000
,
00000001
00001000
00000100
00000000
00000001
00001000
00000100
00000000
,
00000001
00001000
00000100
00010000
00001000
00010000
00000100
00000000
,
00010100
00000000
00000000
00000000
00001000
00000000
00000000
00001000
00000000
00000000
00001000
00000000
00000000
00000000
00100000
00000000
,
00010000
00100000
01000000
00000000
00100000
00000000
10020000
00000000
,
00000000
00000000
10030000
00010000
01000000
10000000
00000000
00010000
,
00100000
10000000
00000000
00010000
00100000
00001000
00000000
00010000
,
00000100
00000010
00000000
00000001
00000100
00001000
00000000
00000001
,
00000010
00001000
00000001
00000010
00000100
00001000
00000001
00000000
,
00000010
00000000
00000001
00001000
00000100
00000010
00000100
00001000
,
00000010
00001000
00000001
00000010
00000001
00000100
00000010
00000000
,
00000110
00000000
00001001
00000000
00000000
00000000
00000001
00000010
,
00000100
00010000
00002000
00000000
00000000
00000000
00000000
00000000
,
00003000
00000000
00000000
00000000
01000000
00000000
00001000
00010000
00001000
00000000
01000000
00000000
00000000
00000000
00010000
00000000
,
10000000
01000000
00100000
00001000
00010000
00000100
00001000
00000000
,
00001001
00000000
00000000
00000000
00000010
00000000
00010000
00001000
00010000
00000000
00000010
00000000
00000000
00000000
00001000
00000000
,
00000001
00000100
00000010
00010000
00001000
00100000
00010000
00000000
,
00000000
00000000
10010000
00000000
10000000
00010000
01000000
00000000
,
10000000
00010000
01000000
00010000
00100000
01000000
10000000
00001000
,
00010000
00001000
00100000
00000000
00010000
00000000
10010000
00000000
,
01000000
00100000
00010000
00012000
,
00000000
00000000
00013000
00000001
00000100
00001000
00000000
00000001
,
00000010
00001000
00000001
00000010
00000100
00010000
00002000
00000000
,
00000000
00000000
10003000
00010000
01000000
10000000
00000000
00010000
,
00100000
10000000
00010000
00100000
01000000
10000000
00002000
00000000
,
00000000
00000000
00013000
00000000
00000010
00000100
00000001
00000000
,
00000010
00000100
00000001
00000010
00000100
00010000
00000010
00000100
,
00000010
00010000
00000100
00000000
00000010
00000000
00001001
00000000
,
00001000
00000020
00000000
00000000
,
00000030
00000000
00001001
00000000
00000001
00000001
00000001
00000010
,
00000001
00010000
00001000
00011000
,
00000000
00000000
10010000
00000000
00100000
00100000
00100000
01000000
,
00100000
10000000
00001000
00011000
,
00000000
00000000
00001001
00000000
00000010
00000010
00000010
00000100
,
00000010
00010000
00001000
00011000
,
00000000
00000000
10010000
00000000
00010000
00010000
00010000
00100000
,
00010000
11000000
00110000
01100000
;

//---------------dance-double - ----------------
#NOTES:
     dance-double:
     :
     Challenge:
     13:
     0.607,0.722,0.474,0.114,0.135:
20010000
01000000
00010000
31000000
,
10020000
01000000
10000000
01030000
,
02100000
00010000
00100000
03010000
,
01200000
10000000
01000000
10300000
,
10010000
00100000
01000000
00001000
,
00011000
00010000
00000010
00000110
,
00001001
00000000
00000100
00000010
00001000
00000000
00000010
00000100
,
00000001
00000010
00000100
00001000
00000001
00000010
00000100
00001000
,
00000001
00000000
00000100
00000100
00000100
00000001
00001000
00000000
,
00000100
00000100
00000100
00010000
00001000
00000000
00011000
00000000
,
01100000
00000000
01000000
01000000
01000000
00010000
00100000
00000000
,
00010000
00010000
00010000
00100000
01000000
00000000
10000000
00010000
,
00100000
00010000
10000000
00000000
00010000
01000000
10000000
01000000
,
00010000
10000000
00010000
00000000
10010000
00000000
01000000
00001000
,
00010000
00001000
01000000
00000000
00001000
00010000
00000100
00000001
,
00000100
00010000
00001000
00000000
00011000
00000000
00001000
00010000
,
00000010
00000100
00000010
00000000
00001000
00000100
00000010
00000001
,
00000010
00000000
00000000
00000100
00000000
00000000
00001000
00000000
00000000
00000000
00000000
00000000
00001100
00000000
00000000
00000000
00000000
00000000
00001001
00000000
00000000
00000000
00001000
00000000
,
00000000
00000100
00000000
00010100
00000000
00010000
00000000
00001000
00000000
01001000
00000000
01000000
,
00000000
00000000
00100000
00000000
00000000
00000000
10100000
00000000
00000000
00000000
00000000
00000000
01000000
00000000
00000000
00010000
00000000
00000000
00100000
00000000
00000000
00010000
00000000
00000000
,
01000000
00000000
00001000
00100000
01000000
10000000
01000000
00100000
,
00001000
00000000
00011000
00000000
00010000
00000100
00000010
00000100
,
00010000
00000000
00001000
00010000
00000010
00000001
00000010
00010000
,
00001000
00000000
00011000
00000000
00001000
10000000
01000000
10000000
,
00001000
00000000
00100000
01000000
10000000
01000000
00100000
00010000
,
01000000
01000000
10010000
10000000
,
01100000
00010000
00022000
00033000
,
00002200
00000000
00000000
00003300
00000000
00000000
00001001
00000000
00000000
00000001
00000100
00000001
,
00000100
00000010
00010000
00000010
00010000
00001000
01000000
00001000
01000000
00010000
00100000
01000000
,
10000000
01000000
00100000
00001000
00010000
00000010
00000100
00000001
00000100
00000010
00010000
00000100
,
00001000
00000100
00010000
00000010
00000100
00000010
00020000
00000000
00000000
00000000
00000000
00000000
,
00030000
00000000
00000000
00000000
00000001
00000000
00001000
00000010
00001000
00000000
00000001
00000000
00000000
00000000
00000010
00000000
,
00000010
00000001
00001000
00000100
00000010
00000001
00010000
00000100
,
00000010
00000000
00000100
00000000
00010000
00000000
00000001
00000100
00000001
00000000
00010000
00000000
00000000
00000000
00000001
00000000
,
00000001
00000010
00000100
00010000
00001000
00100000
01000000
10000000
,
00100000
01000000
01010000
00000000
00100000
01000000
01010000
00000000
,
00100000
01000000
01010000
00010000
10000000
01000000
00100000
00001000
,
00011000
00000000
00000000
00000000
00001000
00000000
10000000
00010000
10000000
00000000
00001000
00000000
00000000
00000000
10000000
00000000
,
10000000
00010000
00100000
01000000
00100000
00001000
00021000
00000000
,
00000000
00000000
00030001
00001000
00000100
00000001
00000100
00000001
,
00000100
00001000
00000001
00010000
00000010
00000001
00000010
00000001
,
00000010
00010000
00001000
10000000
00100000
00010000
00100000
00010000
,
00100000
10000000
00010000
01000000
00100000
10000000
10100000
00000000
,
10010000
00000000
10000000
00001000
00100000
01000000
00100000
00001000
,
00010000
00100000
00010000
00001000
10000000
01000000
00100000
01000000
,
10000000
00010000
01010000
00000000
00010000
00100000
00001000
00010000
,
00000100
00001000
00002002
00000000
00000000
00000000
00000000
00000000
,
00003003
00000000
00000000
00000000
00001000
00000000
00000001
00000100
00000010
00000000
00000100
00000000
00000000
00000000
00000001
00000000
,
00001000
00000100
00000010
00001000
00000010
00000100
00001000
00000001
,
00000100
00000000
00000001
00000000
00001000
00000000
00000001
00000010
00000100
00000000
00001000
00000000
00000000
00000000
00000001
00000000
,
00010000
00000010
00000100
00010000
00000100
00000010
00010000
00001000
,
00010000
00000000
00011000
00000000
00001000
01000000
01001000
00000000
,
00001000
01000000
01001000
00000000
01100000
00000000
10010000
00000000
,
11000000
00000000
01010000
00010000
10000000
01000000
00100000
01000000
,
10000000
00010000
01000000
00100000
01000000
00000000
01200000
00000000
,
00000000
00000000
10300000
00010000
01000000
10000000
00000000
01000000
,
00010000
10000000
01000000
00100000
00001000
00010000
00000100
00000010
,
00000001
00000000
00001000
00000001
00000100
00001000
00000000
00000100
,
00000001
00000010
00000100
00010000
00001000
00100000
01000000
10000000
,
00010000
00000000
10010000
00000000
00100000
00010000
10010000
00000000
,
00100000
00010000
10010000
00000000
01100000
00000000
00011000
00000000
,
00010100
00000000
00001001
00000000
00000001
00000100
00000010
00000100
,
00000001
00000010
00000200
00000000
00000000
00000000
00000000
00000000
,
00000300
00000000
00000101
00000000
00000100
00000100
00000100
00000010
,
00001000
00000000
00000001
00001000
00000100
00000010
00000011
00000000
,
00000001
00000000
00001001
00000000
00000001
00000001
00000001
00000100
,
00000010
00000000
00001000
00000001
00000010
00000100
00010100
00000000
,
00010000
00000000
00011000
00000000
00001000
00001000
00001000
01000000
,
00100000
00000000
10000000
00100000
01000000
00100000
10100000
00000000
,
10000000
00000000
10010000
00000000
00010000
00010000
00010000
00100000
,
00001000
00000000
00011000
00010000
00010010
00000010
00000110
00000000
;

//---------------dance-single - ----------------
#NOTES:
     dance-single:
     :
     Beginner:
     1:
     0.072,0.116,0.057,0.000,0.000: // measure 1
0001
0000
0000
0000
,  // measure 2
0001
0000
0000
0000
,  // measure 3
1000
0000
0000
0000
,  // measure 4
1000
0000
0000
0000
,  // measure 5
0010
0000
0000
0000
,  // measure 6
0100
0000
0000
0000
,  // measure 7
0010
0000
0000
0000
,  // measure 8
0100
0000
0000
0000
,  // measure 9
1001
0000
0000
0000
,  // measure 10
0000
0000
0000
0000
,  // measure 11
0001
0000
0000
0000
,  // measure 12
0000
0000
0000
1001
,  // measure 13
0000
0000
0000
0000
,  // measure 14
0000
0000
0000
0100
,  // measure 15
0000
0000
0000
0000
,  // measure 16
0000
0000
0000
0010
,  // measure 17
0000
0000
0000
0000
,  // measure 18
0000
0000
0000
0001
,  // measure 19
0000
0000
0000
0000
,  // measure 20
0000
0000
1001
0000
,  // measure 21
0000
0000
0000
0000
,  // measure 22
0000
0000
0010
0000
,  // measure 23
0000
0000
0000
0000
,  // measure 24
0000
0000
0100
0000
,  // measure 25
0000
0000
0000
0000
,  // measure 26
0000
0000
1000
0000
,  // measure 27
0000
0000
0000
0000
,  // measure 28
0000
0000
1001
0000
,  // measure 29
0000
0000
0000
0000
,  // measure 30
0000
0000
0000
0000
,  // measure 31
0000
0000
0000
0000
,  // measure 32
0000
0001
0000
0000
,  // measure 33
0000
0000
0000
0000
,  // measure 34
0000
0010
0000
0000
,  // measure 35
0000
0000
0000
0000
,  // measure 36
0000
0100
0000
0100
,  // measure 37
0000
0100
0000
0000
,  // measure 38
0000
1000
0000
0000
,  // measure 39
0000
0000
0000
0000
,  // measure 40
0000
0001
0000
0000
,  // measure 41
0000
0100
0000
0000
,  // measure 42
0000
0010
0000
0010
,  // measure 43
0000
0000
0010
0000
,  // measure 44
0000
1000
0000
0000
,  // measure 45
0000
0001
0000
0000
,  // measure 46
0000
1000
0000
1000
,  // measure 47
0000
1000
0000
0000
,  // measure 48
0000
0010
0000
0000
,  // measure 49
0000
0000
0000
0000
,  // measure 50
0000
0100
0000
0000
,  // measure 51
0000
0000
0000
0000
,  // measure 52
0000
0001
0000
0001
,  // measure 53
0000
0001
0000
0000
,  // measure 54
0000
1000
0000
0000
,  // measure 55
0000
0000
0000
0100
,  // measure 56
0000
0010
0000
0000
,  // measure 57
0000
0000
0000
0000
,  // measure 58
0000
0100
0000
0000
,  // measure 59
0000
0000
0000
0000
,  // measure 60
0000
1000
0000
1000
,  // measure 61
0000
1000
0000
0000
,  // measure 62
0000
0001
0000
0000
,  // measure 63
0000
0100
0000
0000
,  // measure 64
0000
0110
0000
0000
,  // measure 65
0000
0000
0000
0000
,  // measure 66
0000
0010
0000
0000
,  // measure 67
0000
0000
0000
0000
,  // measure 68
0000
1001
0000
0000
,  // measure 69
0000
0000
0000
0000
,  // measure 70
0000
1000
0000
0000
,  // measure 71
0000
0010
0000
0110
;
