#TITLE:SAMBA de ASPEL;
#SUBTITLE:;
#ARTIST:Anemo=Aspel by MLREC.;
#TITLETRANSLIT:;
#SUBTITLETRANSLIT:;
#ARTISTTRANSLIT:;
#CREDIT:DigiMindAxel;
#BANNER:SAMBA de ASPEL.png;
#BACKGROUND:SAMBA de ASPEL-bg.png;
#LYRICSPATH:;
#CDTITLE:pop'n music.png;
#MUSIC:SAMBA de ASPEL.ogg;
#METERTYPE:DDR X;
#OFFSET:-7.183;
#SAMPLESTART:18.758;
#SAMPLELENGTH:12.000;
#SELECTABLE:YES;
#BPMS:0.000=145.000;
#STOPS:24.000=0.414
,25.000=0.414
,122.000=0.828
,124.000=0.828
,146.000=0.414
,147.000=0.414
;
#BGCHANGES:;

//---------------dance-single - ----------------
#NOTES:
     dance-single:
     :
     Easy:
     5:
     0.262,0.265,0.143,0.076,0.000:
1000
0100
1000
0100
,
1000
0001
1000
0001
,
0100
0001
0100
0001
,
1000
0001
1000
0001
,
0000
1001
0000
0000
0000
0000
0000
0000
,
1001
0000
0000
0000
,
0010
0010
0100
0010
,
0100
0010
1000
0100
,
1000
0100
0010
0001
,
0010
0001
0200
0000
,
0310
0000
1000
0010
,
1000
0010
1000
0001
,
1000
0001
0200
0000
,
0301
0000
0000
0000
0000
1001
0000
0000
,
0000
0000
0010
0100
,
0010
0100
0001
0010
,
0001
0010
0001
1000
,
0001
1000
0100
1000
,
0100
0000
1000
0001
,
1000
0001
0100
0001
,
0100
0001
2000
0000
,
0000
0000
3000
0000
0000
1001
0000
0000
,
0000
0000
0001
0001
,
0001
0001
1000
1000
,
1000
1000
0001
0001
,
0001
0001
1000
1000
,
1000
1000
0010
0010
,
0010
0010
0100
0100
,
0100
0100
0010
0010
,
0010
0010
1000
1000
,
1000
1000
1001
0000
,
1001
0000
1001
0000
,
1001
0000
0002
0000
,
0000
0000
0003
0000
0000
1001
0000
0000
,
0000
0000
0000
0000
0000
1001
0000
0000
,
0000
0000
0110
0000
,
0000
0000
0010
0010
,
0100
0010
0100
0010
,
1000
0100
1000
0100
,
1000
0001
1000
0001
,
0200
0000
0301
0000
,
0100
0010
0100
0010
,
1000
0100
1000
0001
,
0020
0000
0031
0000
,
0000
1001
0000
0000
0000
0000
0000
0000
,
1000
0001
1000
0001
,
0010
0001
0010
0001
,
0100
0010
0100
0010
,
2000
0000
0000
0000
,
3001
1000
0001
1000
,
0100
1000
0100
1000
,
0010
0100
0010
0100
,
0000
1001
0000
0000
0000
0000
0000
0000
,
1001
0001
0001
0001
,
2000
0000
0000
3000
,
0100
0100
0100
0100
,
0020
0000
0030
0000
,
0001
1000
0001
1000
,
0010
1000
0010
1000
,
0001
0010
0001
0010
,
0001
1000
0001
1000
,
0000
1001
0000
0000
0000
0000
0000
0000
,
0000
1001
0000
0000
0000
0000
0000
0000
,
0110
0000
0000
0000
;

//---------------dance-single - ----------------
#NOTES:
     dance-single:
     :
     Medium:
     8:
     0.410,0.423,0.118,0.151,0.000:
1000
0001
1000
0000
0100
1000
0100
0000
,
0010
0001
0010
0001
0010
0001
0010
0000
,
0001
1000
0001
0000
1000
0010
1000
0000
,
0010
0100
0010
0100
0010
0100
0010
0000
,
0000
1000
1000
0000
0001
0000
0100
0000
,
0020
0200
0000
0000
0000
0000
0330
0000
,
0002
0000
2003
0000
3001
0100
0001
0000
,
1000
0000
0100
0000
0010
0001
0010
0000
,
0001
0000
0100
0000
0010
0100
0010
0000
,
1000
0100
1000
0000
0002
0000
1000
0000
,
1003
0000
0000
0010
0100
0001
0100
0000
,
0001
0000
1000
0000
0100
0010
0100
0000
,
1000
0010
0200
0000
,
0310
0000
0000
0000
0000
0110
0000
0000
,
0110
0000
0000
0010
0100
1000
0100
0000
,
1000
0000
0001
0000
0100
0001
0100
0000
,
0001
0000
1000
0000
0100
1000
0100
0000
,
0010
0000
0100
0000
1000
0010
0100
0000
,
0001
0000
0001
0000
0100
0001
0010
0000
,
0001
0000
1000
0000
0100
0010
0001
0000
,
0100
0000
0010
0000
1000
0100
1000
0000
,
0010
0000
0100
0000
0000
0001
0001
0000
,
1000
0000
0100
0000
0010
0001
0010
0000
,
0010
0001
0010
0000
0100
1000
0100
0000
,
0100
1000
0100
0000
1000
0001
1000
0000
,
1000
0001
1000
0000
0001
0100
0001
0000
,
0001
0100
0001
0000
1000
0010
1000
0000
,
1000
0010
1000
0000
0001
1000
0001
0000
,
0001
1000
0001
0000
1000
0100
1000
0000
,
1000
0100
1000
0000
0100
0010
0100
0000
,
0100
0010
0100
0000
1001
0100
0100
0000
,
0110
0001
0001
0000
1001
0000
1000
0000
,
1001
1000
0220
0000
,
0000
0000
0000
0330
0000
0010
0010
0000
,
1000
0000
0001
0000
0000
0100
0100
0000
,
0001
1000
2002
0000
,
0000
3003
2000
3002
,
1003
0100
1000
0000
0010
0100
0001
0000
,
1000
0010
1000
0000
0100
0010
0001
0000
,
0100
0010
0100
0000
0001
1000
0010
0000
,
2000
0000
0001
0000
3001
1000
0001
0000
,
0010
0001
1000
0000
0010
0100
0010
0000
,
0100
0001
1000
0000
0100
1000
0100
0000
,
0020
0000
0001
0000
0031
1000
0001
0000
,
0000
0220
0000
0000
0000
0000
0330
0000
,
0100
0001
0010
0000
0100
0010
0100
0000
,
1000
0001
0100
0000
0010
0100
0010
0000
,
1000
0100
0010
0000
0001
1000
0001
0000
,
0000
1001
0000
0000
1001
0000
0000
1000
,
0001
0010
0100
0000
0010
0001
0100
0000
,
0010
1000
0100
0000
1000
0100
0010
0000
,
0001
1000
0001
0000
0010
0000
0100
0000
,
0000
1000
1000
0000
0010
0000
0100
0000
,
1001
0001
0001
0001
,
0100
0100
0020
0000
0000
0000
0030
0000
,
1001
1000
1000
1000
,
0010
0010
0000
0000
0200
0000
0000
0000
,
0301
1000
0001
0000
1000
0010
0100
0000
,
0001
1000
0001
0000
1000
0100
0010
0000
,
0100
1000
0001
0000
0010
0001
0010
0000
,
0100
1000
0100
1000
0010
0100
0010
0100
,
0000
0001
0001
0000
0010
0000
0100
0000
,
0000
1000
1000
0000
0010
0000
0100
0000
,
1001
0000
0000
0000
;

//---------------dance-single - ----------------
#NOTES:
     dance-single:
     :
     Hard:
     12:
     0.575,0.608,0.244,0.118,0.349: // measure 1
1000
0100
1000
0001
1000
0010
0100
0000
,  // measure 2
0001
0001
0001
1000
0100
0010
0100
0000
,  // measure 3
1000
0010
1000
0001
1000
0100
0010
0000
,  // measure 4
0001
0001
0001
1000
0001
0100
0010
0100
,  // measure 5
0000
0000
0001
0000
1001
0000
0000
0000
0100
0000
0000
0010
0000
0001
0000
0000
,  // measure 6
1000
2002
0000
0000
0000
0000
3003
0000
,  // measure 7
0002
0000
2003
0000
3001
1000
0100
1000
,  // measure 8
0001
1000
0100
0001
0100
1000
0001
0010
,  // measure 9
0001
1000
0100
0001
0100
1000
0010
0100
,  // measure 10
0010
0000
1000
0000
0010
0000
0001
0000
0010
0000
0000
1000
0000
0000
0002
0000
,  // measure 11
0000
0000
0000
1003
0001
0100
0010
0100
,  // measure 12
0001
1000
0100
0010
0001
0100
0001
1000
,  // measure 13
0010
0001
0010
1000
0100
0010
0002
0000
,  // measure 14
1000
0000
0000
0000
1003
0000
0000
0000
0000
0000
1010
0000
0000
1010
0000
0000
,  // measure 15
0101
0000
0000
0101
0000
0000
0001
0000
1000
0000
0100
0000
1000
0000
0001
0000
,  // measure 16
0100
1000
0100
0010
1000
0010
1000
0001
,  // measure 17
0010
1000
0010
0100
0001
0010
0001
1000
,  // measure 18
0010
0000
0001
0000
0010
0000
0100
0000
0001
0000
0000
0001
0000
0000
0200
0000
,  // measure 19
0000
0010
0000
0310
1000
0010
0001
0010
,  // measure 20
0100
0001
1000
0001
1000
0100
0001
0100
,  // measure 21
0010
0001
1000
0010
1000
0100
0010
0000
,  // measure 22
0001
1000
0010
0100
0000
0001
1001
0000
,  // measure 23
0100
0000
0000
0010
0000
0001
0000
0000
1001
0000
1000
0000
1000
0000
0000
0010
,  // measure 24
0000
0010
0000
0010
0000
0000
0000
0000
0100
0000
0100
0000
0100
0000
0000
0010
,  // measure 25
0000
0010
0000
0010
0000
0000
0000
0000
1000
0000
1000
0000
1000
0000
0000
0001
,  // measure 26
0000
0001
0000
0001
0000
0000
0000
0000
0010
0000
0010
0000
0010
0000
0000
0100
,  // measure 27
0000
0100
0000
0100
0000
0000
0000
0000
1000
0000
1000
0000
1000
0000
0000
0010
,  // measure 28
0000
0010
0000
0010
0000
0000
0000
0000
0001
0000
0001
0000
0001
0000
0000
0010
,  // measure 29
0000
0010
0000
0010
0000
0000
0000
0000
1000
0000
1000
0000
1000
0000
0000
0100
,  // measure 30
0000
0100
0000
0100
0000
0000
0000
0000
0001
0000
0001
0000
0001
0000
0000
0100
,  // measure 31
0000
0100
0000
0100
0000
0000
0000
0000
1001
0000
1000
0000
1000
0000
0010
0000
,  // measure 32
0110
0001
0001
0100
0110
0000
0100
0000
,  // measure 33
1001
0000
0000
0100
0000
0000
1000
0001
1000
0001
1000
0001
,  // measure 34
1000
0000
0001
0000
1000
0000
0001
0000
1000
0000
0001
0000
0000
0000
0000
1000
0000
0000
1001
0000
0000
0000
0000
0000
,  // measure 35
0010
0000
0000
0100
0000
1000
0000
0000
0000
0000
0001
0000
1001
0000
0000
0000
,  // measure 36
0100
0000
0000
0010
0000
0001
0000
0000
0220
0000
0000
0000
0000
0000
0000
0000
,  // measure 37
0000
0330
2000
3002
,  // measure 38
1003
0010
0001
0010
1000
0001
0010
0100
,  // measure 39
0010
0001
1000
0010
0100
0001
0100
1000
,  // measure 40
0100
0000
0001
0000
1000
0000
0100
0000
0010
0000
0100
0000
1000
0000
0001
0100
,  // measure 41
0002
0000
0000
1000
0000
0000
1003
0000
0000
0000
0001
1000
0001
0000
1000
0000
,  // measure 42
0100
0001
0100
1000
0010
0001
0010
0100
,  // measure 43
0001
0000
1000
0000
0010
0000
0100
0000
0001
0000
0010
0000
0100
0000
1000
0001
,  // measure 44
1000
0100
0010
0000
0100
1000
0010
0100
,  // measure 45
0000
0000
0101
0000
0000
0101
0000
0000
1010
0000
0000
1010
0000
0000
1000
0000
,  // measure 46
0001
0010
1000
0010
0001
0100
1000
0100
,  // measure 47
0010
0000
1000
0000
0001
0000
0010
0000
0100
0000
0010
0000
0001
0000
1000
0010
,  // measure 48
1000
0100
0001
0100
1000
0010
0100
0001
,  // measure 49
0000
0000
0011
0000
0000
0011
0000
0000
1001
0000
0000
1001
0000
0000
0001
1000
,  // measure 50
0001
0010
0100
0010
0001
0100
1000
0100
,  // measure 51
0010
1000
0001
0010
1000
0010
0001
1000
,  // measure 52
0100
0010
0100
0000
1000
0001
0100
0001
,  // measure 53
0000
0000
1000
0000
1001
0000
0000
0000
0100
0000
0000
0010
0000
1000
0000
0000
,  // measure 54
1002
0010
1000
0013
,  // measure 55
0001
0000
0001
0000
1000
0001
1000
0001
1000
0100
1000
0100
1000
0000
0001
0000
,  // measure 56
2001
0100
0001
3100
,  // measure 57
1000
0000
1000
0000
0001
1000
0001
1000
0001
0010
0001
0010
0001
0000
1000
0000
,  // measure 58
0001
0000
1000
0010
1000
0000
0001
1000
0000
1000
0000
0001
0100
0000
0010
0000
,  // measure 59
0100
0000
0001
0010
0001
0000
1000
0001
0000
0001
0000
0100
0010
0000
0100
0000
,  // measure 60
0010
0000
1000
0010
1000
0000
0001
1000
0000
1000
0000
0100
0010
0000
0100
0000
,  // measure 61
1000
0000
1000
0000
1000
0000
0010
0100
0000
0100
0000
0001
0010
0000
0010
0000
,  // measure 62
0000
0000
0001
0000
1001
0000
0000
0000
0010
0000
0000
0100
0000
0001
0000
0000
,  // measure 63
0000
0000
0001
0000
1001
0000
0000
0000
0010
0000
0000
0100
0000
0001
0000
0000
,  // measure 64
1001
0000
0000
0000
;

//---------------dance-single - ----------------
#NOTES:
     dance-single:
     :
     Challenge:
     14:
     0.698,0.635,0.445,0.084,0.999: // measure 1
1000
0000
0001
0100
0001
0000
0100
0010
0000
0010
0000
0100
0010
0000
1000
0000
,  // measure 2
0001
0000
0001
0000
0001
0000
0100
0001
0000
0001
0000
0100
0001
0000
1000
0000
,  // measure 3
0100
0000
0010
0001
0010
0000
0001
1000
0000
1000
0000
0001
1000
0000
0100
0000
,  // measure 4
0010
0000
0010
0000
0010
0000
0001
1000
0000
1000
0000
0001
1000
0000
0010
0000
,  // measure 5
0000
0000
1010
0000
1001
0000
0000
0000
0011
0000
0000
0100
0000
0110
0000
0000
,  // measure 6
0110
2200
0000
0000
0000
0000
3300
0000
,  // measure 7
2000
0000
0000
0000
3002
0000
0000
0000
1003
0000
0001
0100
0000
0010
0000
0100
,  // measure 8
0000
0001
0000
0010
0000
0000
0001
0010
0100
0000
1000
0001
0000
0100
0000
0001
,  // measure 9
0000
1000
0000
0100
0000
0000
1000
0100
0010
0000
0001
1000
0000
0010
0000
1000
,  // measure 10
0000
0100
0000
0010
0000
0000
0001
0100
0010
0000
0000
1000
0001
0000
0000
0001
,  // measure 11
0100
0000
0000
0100
0001
0000
0010
0100
1000
0000
0001
1000
0000
0010
0000
1000
,  // measure 12
0000
0100
0000
0010
0000
0000
0001
0010
0100
0000
1000
0001
0000
0010
0000
0001
,  // measure 13
0000
0200
0000
0000
0310
0000
1000
0000
1000
0000
0000
0010
0100
0000
0000
0100
,  // measure 14
0010
0000
0000
0010
1000
0000
0001
0000
0000
0000
0011
0000
0000
0110
0000
0000
,  // measure 15
1100
0000
0000
0110
0000
0000
0011
0000
0001
0000
0100
0010
0000
1000
0000
0010
,  // measure 16
0000
0100
0000
0001
0000
0000
1000
0000
0001
0000
0100
0001
0000
0010
0000
0100
,  // measure 17
0000
0010
0000
0001
0000
0000
1000
0000
0100
0000
1000
0010
0000
0100
0000
0001
,  // measure 18
0000
1000
0000
0100
0000
0000
0010
0000
0001
0000
0000
0010
0100
0000
0000
0100
,  // measure 19
1000
0000
0000
1000
0010
0000
0000
0010
0100
0000
0001
1000
0000
0100
0000
0010
,  // measure 20
0000
0100
0000
1000
0000
0000
0001
0000
0100
0000
0001
1000
0000
0010
0000
0100
,  // measure 21
0000
0001
0000
0010
0000
0000
0001
0000
1000
0000
0000
0001
0010
0000
0000
0010
,  // measure 22
0100
0000
0000
0100
0010
0000
0001
0000
0000
0000
0011
0000
1001
0000
0000
0000
,  // measure 23
1010
0000
0000
0010
0000
0110
0000
0000
1001
0000
0000
0001
0010
0000
0000
0010
,  // measure 24
1000
0000
0000
1000
0010
0000
0000
0010
0001
0000
0000
0001
0100
0000
0000
0100
,  // measure 25
1000
0000
0000
1000
0100
0000
0000
0100
0001
0000
0000
0001
1000
0000
0000
1000
,  // measure 26
0010
0000
0000
0010
0100
0000
0000
0100
0001
0000
0000
0001
1000
0000
0000
1000
,  // measure 27
0100
0000
0000
0100
0010
0000
0000
0010
0001
0000
0000
0001
1000
0000
0000
1000
,  // measure 28
0010
0000
0000
0010
0100
0000
0000
0001
1000
0000
0000
1000
0100
0000
0000
0100
,  // measure 29
0010
0000
0000
0010
0100
0000
0000
1000
0001
0000
0000
0001
0100
0000
0000
0100
,  // measure 30
0010
0000
0000
0010
1000
0000
0000
0001
1000
0000
0000
1000
0100
0000
0000
0100
,  // measure 31
0010
0000
0000
0010
0100
0000
0000
0000
1001
0000
0001
0000
0001
0000
1000
0000
,  // measure 32
1100
1000
1000
0001
0101
0000
0100
0010
,  // measure 33
1010
0000
0000
0000
0000
0000
0010
0000
0000
0100
0000
0000
0001
0000
0100
0000
0001
0000
0100
0000
0010
0000
1000
0000
,  // measure 34
0010
0000
1000
0000
0100
0000
0010
0000
0100
0000
0010
0000
0000
0000
0000
0011
0000
0000
1001
0000
0000
0000
0000
0000
,  // measure 35
1010
0000
0000
0010
0000
0110
0000
0000
0000
0000
0011
0000
1001
0000
0000
0000
,  // measure 36
1010
0000
0000
0010
0000
0110
0000
0000
2002
0000
0000
0000
0000
0000
0000
0000
,  // measure 37
0000
3003
2000
3002
,  // measure 38
1003
0000
0001
1000
0000
0100
0000
1000
0000
0010
0000
0100
0000
0000
0001
0010
,  // measure 39
0100
0000
1000
0001
0000
0100
0000
0001
0000
1000
0000
0100
0000
0000
1000
0100
,  // measure 40
0010
0000
0001
0100
0000
0010
0000
0100
0000
0001
0000
0010
0000
0000
0001
0010
,  // measure 41
0100
0000
0000
1000
0010
0000
0000
0010
0100
0000
0001
1000
0001
0000
0010
0100
,  // measure 42
1000
0000
0010
0100
0000
0001
0000
0100
0000
0010
0000
1000
0000
0000
0100
0010
,  // measure 43
0001
0000
1000
0001
0000
0010
0000
0100
0000
2000
0000
0000
3001
0000
0100
0010
,  // measure 44
0100
0000
0000
0001
1000
0000
0000
1000
0010
0000
0000
0010
0100
0000
0001
0000
,  // measure 45
0000
0000
0011
0000
0000
0110
0000
0000
1100
0000
0000
0110
0000
0000
0011
0000
,  // measure 46
0001
0000
0100
0001
0100
0000
0001
1000
0001
0000
1000
0100
1000
0000
0010
0100
,  // measure 47
0001
0000
1000
0100
1000
0000
0010
0100
0010
0000
1000
0001
1000
0000
0001
0010
,  // measure 48
0100
0000
1000
0010
1000
0000
0001
1000
0001
0000
0010
0001
0010
0000
0100
0000
,  // measure 49
0000
0000
1010
0000
0000
0110
0000
0000
0101
0000
0000
0110
0000
0000
0010
1000
,  // measure 50
0001
0000
0010
0001
0010
0000
0100
0010
0100
0000
1000
0001
1000
0000
0010
0100
,  // measure 51
0001
0000
1000
0001
1000
0000
0100
1000
0100
0000
0010
0100
0010
0000
0001
0100
,  // measure 52
0010
0000
1000
0001
1000
0000
0100
1000
0100
0000
1000
0001
1000
0000
0010
0000
,  // measure 53
0000
0000
1010
0000
1001
0000
0000
0000
0011
0000
0000
0100
0000
0110
0000
0000
,  // measure 54
1001
0000
0000
1000
0001
0000
0000
0001
0100
0000
0000
0100
0010
0000
0000
0010
,  // measure 55
1000
0000
1000
0000
0100
0010
0100
0010
0100
1000
0100
1000
0100
1000
0100
0000
,  // measure 56
1001
0000
0000
0001
1000
0000
0000
1000
0100
0000
0000
0100
0010
0000
0000
0010
,  // measure 57
0001
0000
0001
0000
0100
0010
0100
0010
0100
1000
0100
1000
0010
0100
0010
0000
,  // measure 58
1000
0000
0100
0010
0001
0100
0000
0001
0000
0001
0000
1000
0100
0000
1000
0000
,  // measure 59
0001
0000
0010
0100
1000
0001
0000
0100
0000
0100
0000
0010
0100
0000
0001
0000
,  // measure 60
1000
0000
0100
0010
0001
1000
0000
0010
0000
0010
0000
1000
0001
0000
0010
0000
,  // measure 61
0100
1000
0100
1000
0100
1000
0000
0010
0000
0010
0000
1000
0001
0000
0001
0000
,  // measure 62
0000
0000
0011
0000
1001
0000
0000
0000
1010
0000
0000
0100
0000
0110
0000
0000
,  // measure 63
0000
0000
0011
0000
1001
0000
0000
0000
1010
0000
0000
0100
0000
0110
0000
0000
,  // measure 64
1001
0000
0000
0000
;

//---------------dance-single - ----------------
#NOTES:
     dance-single:
     :
     Beginner:
     3:
     0.131,0.159,0.092,0.000,0.000:
1000
0000
0100
0000
,
1000
0000
0100
0000
,
0010
0000
0001
0000
,
0010
0000
0001
0000
,
0000
0000
0000
0000
,
1001
0000
0000
0000
,
0010
0000
0010
0000
,
0100
0000
0010
0000
,
0100
0000
0010
0000
,
0100
0000
0010
0000
,
0000
0000
1000
0000
,
0001
0000
1000
0000
,
0001
0000
1000
0000
,
0001
0000
1000
0000
,
0000
0000
0001
0000
,
0010
0000
0001
0000
,
0010
0000
0001
0000
,
0010
0000
0001
0000
,
0000
0000
1000
0000
,
0100
0000
1000
0000
,
0100
0000
1000
0000
,
0000
0000
0000
0000
,
0000
0000
1001
0000
,
0001
0000
0001
0000
,
0001
0000
1000
0000
,
1000
0000
1000
0000
,
1000
0000
0001
0000
,
0001
0000
0001
0000
,
0001
0000
1000
0000
,
1000
0000
1000
0000
,
1000
0000
1000
0000
,
1000
0000
0000
1000
,
0000
1000
0000
0000
,
0000
0000
0000
0000
,
1001
0000
0000
0000
,
1001
0000
0000
0000
,
0000
0000
0001
0000
,
0001
0000
1000
0000
,
0001
0000
1000
0000
,
0100
0000
1000
0000
,
0100
0000
0000
0000
,
0010
0000
0001
0000
,
0010
0000
0001
0000
,
0100
0000
0000
0000
,
0000
0000
0000
0000
,
0010
0000
0100
0000
,
0010
0000
0100
0000
,
0001
0000
0010
0000
,
0001
0000
0000
0000
,
1000
0000
0001
0000
,
1000
0000
0100
0000
,
0010
0000
0000
0000
,
0000
0000
0000
0000
,
1001
0000
0000
0000
,
1001
0000
0000
0000
,
0110
0000
0000
0000
,
0110
0000
0000
0000
,
0010
0000
0100
0000
,
0010
0000
0100
0000
,
0001
0000
0010
0000
,
0001
0000
0001
0000
,
1001
0000
0000
0000
,
1001
0000
0000
0000
,
1001
0000
0000
0000
;

//---------------dance-double - ----------------
#NOTES:
     dance-double:
     :
     Easy:
     6:
     0.284,0.423,0.176,0.168,0.000:
10000000
00010000
10000000
00010000
,
01000000
01000000
01000000
01000000
,
00001000
00010000
00001000
00010000
,
00000010
00000010
00000010
00000010
,
00000000
00000110
00000000
00000000
00000000
00000000
00000000
00000000
,
00001001
00000000
00000000
00000000
,
00000002
00002003
00003001
00000100
,
00000010
00000100
00000001
00010000
,
00000100
00010000
00000001
00000010
,
00000100
00001000
00020000
00000000
,
00031000
00000000
10000000
01000000
,
00100000
01000000
10000000
00001000
,
01000000
00001000
00020000
00000000
,
00031000
00000000
00000000
00000000
00000000
00011000
00000000
00000000
,
00000000
00000000
00001000
00100000
,
01000000
00100000
00001000
10000000
,
00100000
10000000
00001000
01000000
,
00100000
01000000
00010000
00001000
,
00000010
00000000
00000100
00000001
,
00000010
00000001
00010000
00000100
,
00010000
00001000
02000000
00000000
,
00000000
00000000
03000000
00000000
00000000
01100000
00000000
00000000
,
00000000
00000000
10010000
10000000
,
00010000
00010000
01000000
01000000
,
00001000
00001000
00010000
00010000
,
00000100
00000100
00000010
00000010
,
00000001
00000001
00000100
00000100
,
00000010
00000010
00001000
00001000
,
00010000
00010000
01000000
01000000
,
00100000
00100000
10000000
10000000
,
00010000
00010000
20020000
30030000
,
20020000
30030000
02200000
03300000
,
02200000
03300000
20020000
00000000
,
00000000
30030000
00000000
00000000
00000000
10001000
00000000
00000000
,
00000000
00000000
00000000
00000000
00000000
00011000
00000000
00000000
,
00000000
00000000
00011000
00000000
,
00000000
00000000
00002000
00003002
,
00001003
00000001
00000010
00000001
,
00010000
00000100
00010000
00001000
,
01000000
00100000
01000000
00010000
,
20000000
00000000
30010000
00000000
,
10000000
01000000
00100000
01000000
,
10000000
00001000
01000000
00100000
,
02000000
00000000
03001000
00000000
,
00000000
00011000
00000000
00000000
00000000
00000000
00000000
00000000
,
00010000
00000100
00000010
00000001
,
00000010
00000100
00000010
00000001
,
00010000
00000100
00001000
00010000
,
02000000
00000000
00000000
00000000
,
03010000
01000000
00100000
10000000
,
00100000
01000000
00001000
00100000
,
00010000
00001000
00000100
00000010
,
00000000
00000110
00000000
00000000
00000000
00000000
00000000
00000000
,
00001001
00000010
00000100
00001000
,
00010000
00010000
00010000
00010000
,
00011000
00001000
01000000
00100000
,
10000000
00000000
10010000
00000000
,
01000000
10000000
01000000
10000000
,
00100000
01000000
00100000
01000000
,
00010000
00001000
00010000
00001000
,
00000100
00000010
00000100
00000010
,
00000000
00001001
00000000
00000000
00000000
00000000
00000000
00000000
,
00000000
00010001
00000000
00000000
00000000
00000000
00000000
00000000
,
00011000
00000000
00000000
00000000
;

//---------------dance-double - ----------------
#NOTES:
     dance-double:
     :
     Medium:
     9:
     0.422,0.423,0.134,0.151,0.000:
10000000
01000000
10000000
00000000
00010000
10000000
00010000
00000000
,
00100000
01000000
00100000
01000000
10000000
00010000
10000000
00000000
,
00001000
00100000
00001000
00000000
00010000
00001000
00010000
00000000
,
00000100
00000010
00000100
00000010
00000001
00000100
00000001
00000000
,
00000000
00010000
00010000
00000000
00001000
00000000
01000000
00000000
,
00020000
20000000
00000000
00000000
00000000
00000000
30030000
00000000
,
02000000
00000000
03200000
00000000
01300000
00100000
01000000
00000000
,
00100000
00000000
10000000
00000000
00001000
00100000
00001000
00000000
,
00010000
00000000
00000100
00000000
00000010
00000001
00000010
00000000
,
00000100
00000010
00000100
00000000
00020000
00000000
00001000
00000000
,
00031000
00000000
00000000
01000000
00010000
00100000
00010000
00000000
,
01000000
00000000
00100000
00000000
10000000
00010000
10000000
00000000
,
01000000
00100000
00002000
00000000
,
00013000
00000000
00000000
00000000
00000000
00011000
00000000
00000000
,
00010010
00000000
00000000
00000010
00000100
00000001
00000010
00000000
,
00000100
00000000
00010000
00000000
00001000
00010000
00001000
00000000
,
01000000
00000000
00100000
00000000
10000000
00100000
10000000
00000000
,
00010000
00000000
10000000
00000000
01000000
00100000
00001000
00000000
,
00010000
00000000
00001000
00000000
00000100
00000010
00000100
00000000
,
00001000
00000000
00000010
00000000
00000100
00000001
00010000
00000000
,
00001000
00000000
00100000
00000000
01000000
10000000
00100000
00000000
,
10000000
00000000
00010000
00000000
00000000
10000000
10000000
00000000
,
01000000
00000000
00100000
00000000
00001000
00001000
00001000
00000000
,
00010000
00010000
00010000
00000000
00000100
00000100
00000100
00000000
,
00000010
00000010
00000010
00000000
00000001
00000001
00000001
00000000
,
00001000
00001000
00001000
00000000
00000010
00000010
00000010
00000000
,
00010000
00010000
00010000
00000000
00001000
00001000
00001000
00000000
,
00100000
00100000
00100000
00000000
01000000
01000000
01000000
00000000
,
10000000
10000000
10000000
00000000
00010000
00010000
00010000
00000000
,
10000000
10000000
10000000
00000000
00001000
00001000
00001000
00000000
,
00010000
00010000
00010000
00000000
00011000
00001000
00001000
00000000
,
00010010
00000010
00000010
00000000
00000110
00000000
00000100
00000000
,
00000110
00000100
00002002
00000000
,
00000000
00000000
00000000
00003003
00000000
00010001
00010001
00000000
,
00000010
00000000
00000100
00000000
00000000
00010000
00010000
00000000
,
00001000
01000000
02200000
00000000
,
00000000
03300000
00200000
02300000
,
03100000
01000000
00100000
00000000
10000000
01000000
00100000
00000000
,
00001000
00010000
00001000
00000000
00010000
00000010
00000100
00000000
,
00000001
00001000
00000001
00000000
00000010
00000100
00010000
00000000
,
00002000
00000000
00010000
00000000
00013000
00001000
00010000
00000000
,
00001000
00100000
01000000
00000000
10000000
00010000
10000000
00000000
,
00100000
01000000
00001000
00000000
00010000
00001000
00010000
00000000
,
00000200
00000000
00000010
00000000
00000310
00000001
00000010
00000000
,
00000000
00002002
00000000
00000000
00000000
00000000
00003003
00000000
,
00000001
00000100
00000010
00000100
00000001
00000100
00000010
00000000
,
00010000
00000100
00000010
00000100
00010000
00001000
00010000
00000000
,
00001000
10000000
00100000
01000000
00010000
00100000
01000000
00000000
,
00000000
11000000
00000000
00000000
00110000
00000000
00000000
00010000
,
10000000
01000000
00100000
01000000
10000000
01000000
00100000
00000000
,
00001000
01000000
00100000
01000000
00001000
00010000
00001000
00000000
,
00010000
00000100
00000010
00000000
00000001
00000000
00000010
00000000
,
00000000
00000001
00000001
00000000
00000100
00000000
00000010
00000000
,
00011000
00010000
00010000
00010000
,
00001000
00001000
02000000
00000000
00000000
00000000
03000000
00000000
,
01100000
00100000
00100000
00100000
,
10000000
10000000
00000000
00000000
00002000
00000000
00000000
00000000
,
00013000
00001000
00010000
00000100
00001000
00000010
00000100
00000000
,
00000001
00000010
00000001
00000100
00000010
00010000
00001000
00000000
,
00100000
01000000
00100000
00010000
10000000
01000000
00100000
00000000
,
00001000
00100000
00001000
00100000
00001000
00010000
00000100
00000010
,
00000000
00000001
00000001
00000000
00000010
00000000
00000100
00000000
,
00000000
00010000
00010000
00000000
00001000
00000000
01000000
00000000
,
01100000
00000000
00000000
00000000
;

//---------------dance-double - ----------------
#NOTES:
     dance-double:
     :
     Hard:
     12:
     0.577,0.608,0.235,0.101,0.370:
10000000
00010000
10000000
01000000
00100000
01000000
10000000
00000000
,
00100000
00100000
00100000
01000000
00010000
00001000
00000100
00000000
,
00000010
00000001
00001000
00000010
00001000
00000001
00000010
00000000
,
00000100
00000000
00000100
00000000
00000100
00000000
00001000
00000000
00010000
00000000
00100000
01000000
00000000
01000000
00000000
00000000
,
00000000
00000000
10000000
00000000
11000000
00000000
00000000
00000000
00100000
00000000
00000000
00001000
00000000
00001000
00000000
00000000
,
00010000
00020020
00000000
00000000
00000000
00000000
00030030
00000000
,
00002000
00000000
00003002
00000000
00001003
00000100
00000010
00000100
,
00001000
00000001
00000100
00000001
00010000
00001000
00100000
01000000
,
00100000
00001000
00010000
01000000
00100000
10000000
01000000
00010000
,
01000000
00000000
10000000
00000000
00100000
00000000
01000000
00000000
00001000
00000000
00000000
00010000
00000000
00000000
00002000
00000000
,
00000000
00000000
00000000
00000000
00003000
00000000
00010000
00001000
00010000
00000000
00000100
00000000
00000001
00000000
00000100
00000000
,
00010000
00000010
00000100
00000001
00001000
00000100
00001000
00010000
,
01000000
00100000
10000000
01000000
00010000
01000000
20000000
00000000
,
00010000
00000000
00000000
00000000
30010000
00000000
00000000
00000000
00000000
00000000
11000000
00000000
00000000
11000000
00000000
00000000
,
00110000
00000000
00000000
00110000
00000000
00000000
00010000
00000000
10000000
00000000
00001000
00000000
00010000
00000000
00000010
00000000
,
00010000
00000010
00001000
00000100
00000010
00000001
00001000
00000001
,
00000010
00000100
00000010
00000001
00001000
00000010
00010000
00001000
,
00100000
00000000
01000000
00000000
00100000
00000000
00010000
00000000
01000000
00000000
00000000
00100000
00000000
00000000
02000000
00000000
,
00000000
00100000
00000000
03100000
10000000
00010000
00100000
10000000
,
00100000
00010000
01000000
00100000
01000000
00001000
00100000
00010000
,
00001000
00000010
00000100
00000010
00001000
00000001
00000010
00000100
,
00001000
00000100
00010000
00001000
00000000
00100000
01100000
00000000
,
01000000
00000000
00000000
10000000
00000000
10000000
00000000
00000000
00010000
00000000
00010000
00000000
00010000
00000000
00000000
01000000
,
00000000
01000000
00000000
01000000
00000000
00000000
00000000
00000000
00010000
00000000
00010000
00000000
00010000
00000000
00000000
00001000
,
00000000
00001000
00000000
00001000
00000000
00000000
00000000
00000000
00000100
00000000
00000100
00000000
00000100
00000000
00000000
00000010
,
00000000
00000010
00000000
00000010
00000000
00000000
00000000
00000000
00000001
00000000
00000001
00000000
00000001
00000000
00000000
00000100
,
00000000
00000100
00000000
00000100
00000000
00000000
00000000
00000000
00000010
00000000
00000010
00000000
00000010
00000000
00000000
00001000
,
00000000
00001000
00000000
00001000
00000000
00000000
00000000
00000000
00100000
00000000
00100000
00000000
00100000
00000000
00000000
00010000
,
00000000
00010000
00000000
00010000
00000000
00000000
00000000
00000000
01000000
00000000
01000000
00000000
01000000
00000000
00000000
00010000
,
00000000
00010000
00000000
00010000
00000000
00000000
00000000
00000000
00100000
00000000
00100000
00000000
00100000
00000000
00000000
00001000
,
00000000
00001000
00000000
00001000
00000000
00000000
00000000
00000000
00011000
00000000
00010000
00000000
00010000
00000000
00000010
00000000
,
00000110
00000100
00000100
00000001
00001001
00000000
00001000
00000000
,
00010100
00000000
00000000
00010000
00000000
00000000
00001000
10000000
00001000
10000000
00001000
10000000
,
00001000
00000000
10000000
00000000
00001000
00000000
10000000
00000000
00001000
00000000
10000000
00000000
00000000
00000000
00000000
01000000
00000000
00000000
01100000
00000000
00000000
00000000
00000000
00000000
,
00001000
00000000
00000000
00010000
00000000
00010000
00000000
00000000
00000000
00000000
00000100
00000000
00000110
00000000
00000000
00000000
,
00000001
00000000
00000000
00001000
00000000
00001000
00000000
00000000
00002002
00000000
00000000
00000000
00000000
00000000
00000000
00000000
,
00000000
00003003
00002000
00003002
,
00001003
00000100
00000010
00000100
00010000
00000100
00000001
00000100
,
00010000
00001000
00100000
01000000
00100000
00010000
01000000
10000000
,
01000000
00000000
00001000
00000000
00010000
00000000
00000010
00000000
00000100
00000000
00000001
00000000
00001000
00000000
00000100
00001000
,
00000200
00000000
00000000
00010000
00000000
00000000
00010300
00000000
00000000
00000000
00001000
00010000
00001000
00000000
01000000
00100000
,
01000000
00010000
01000000
10000000
01000000
00100000
10000000
00010000
,
00001000
00000000
00000010
00000000
00000001
00000000
00000010
00000000
00000100
00000000
00000001
00000000
00010000
00000000
00001000
00010000
,
00001000
00100000
01000000
10000000
00010000
01000000
00001000
00010000
,
00000000
00000000
00010010
00000000
00000000
00010010
00000000
00000000
00000101
00000000
00000000
00000101
00000000
00000000
00000001
00000000
,
00001000
00000010
00000001
00000010
00000100
00000001
00001000
00010000
,
01000000
00000000
10000000
00000000
01000000
00000000
00100000
00000000
10000000
00000000
00001000
00000000
00010000
00000000
00000010
00001000
,
00000010
00010000
00000100
00000010
00000001
00000100
00001000
00000100
,
00000000
00000000
00000101
00000000
00000000
00000101
00000000
00000000
00010010
00000000
00000000
00010010
00000000
00000000
00010000
00001000
,
00010000
00001000
00100000
10000000
00100000
01000000
00001000
00010000
,
00000100
00000001
00000100
00000010
00000001
00001000
00010000
01000000
,
10000000
01000000
00100000
10000000
00010000
00100000
00001000
00010000
,
00000000
00000000
00000010
00000000
00000110
00000000
00000000
00000000
00000001
00000000
00000000
00000100
00000000
00000100
00000000
00000000
,
00001001
00000010
00000100
00001000
,
00010000
00000000
00010000
00000000
01000000
00100000
01000000
00100000
10000000
01000000
10000000
01000000
00100000
00000000
00010000
00000000
,
10010000
00100000
01000000
00010000
,
00001000
00000000
00001000
00000000
00000100
00000010
00000100
00000010
00000001
00000100
00000001
00000100
00000001
00000000
00001000
00000000
,
00000100
00000000
00010000
00001000
00100000
00000000
00010000
10000000
00000000
10000000
00000000
01000000
00100000
00000000
01000000
00000000
,
10000000
00000000
00010000
01000000
00010000
00000000
01000000
00001000
00000000
00001000
00000000
00010000
00000100
00000000
00000010
00000000
,
00000001
00000000
00001000
00000010
00001000
00000000
00000001
00001000
00000000
00001000
00000000
00010000
00100000
00000000
01000000
00000000
,
10000000
00000000
10000000
00000000
00100000
01000000
00000000
00010000
00000000
00010000
00000000
00100000
00001000
00000000
00001000
00000000
,
00000000
00000000
00000010
00000000
00000110
00000000
00000000
00000000
00000001
00000000
00000000
00000100
00000000
00000100
00000000
00000000
,
00000000
00000000
00010000
00000000
00011000
00000000
00000000
00000000
00100000
00000000
00000000
01000000
00000000
01000000
00000000
00000000
,
10010000
00000000
00000000
00000000
;

//---------------dance-double - ----------------
#NOTES:
     dance-double:
     :
     Challenge:
     14:
     0.699,0.635,0.462,0.084,0.995:
10000000
00000000
00100000
10000000
00100000
00000000
10000000
00001000
00000000
00001000
00000000
00010000
00001000
00000000
00010000
00000000
,
00000010
00000000
00000010
00000000
00000010
00000000
00000100
00000001
00000000
00000001
00000000
00000100
00000001
00000000
00000010
00000000
,
00000100
00000000
00010000
00001000
00010000
00000000
00001000
00100000
00000000
00100000
00000000
00001000
00100000
00000000
01000000
00000000
,
10000000
00000000
10000000
00000000
10000000
00000000
00100000
01000000
00000000
01000000
00000000
00100000
01000000
00000000
00100000
00000000
,
00000000
00000000
10100000
00000000
10001000
00000000
00000000
00000000
00101000
00000000
00000000
00010000
00000000
00011000
00000000
00000000
,
00010010
00000220
00000000
00000000
00000000
00000000
00000330
00000000
,
00001002
00000000
00000000
00000000
00002003
00000000
00000000
00000000
00003001
00000000
00001000
00000010
00000000
00000100
00000000
00000001
,
00000000
00000010
00000000
00000100
00000000
00000000
00010000
00001000
00010000
00000000
00001000
00100000
00000000
01000000
00000000
00100000
,
00000000
00001000
00000000
10000000
00000000
00000000
00100000
01000000
00100000
00000000
10000000
00010000
00000000
01000000
00000000
00100000
,
00000000
01000000
00000000
00010000
00000000
00000000
00001000
00010000
00001000
00000000
00000000
00000100
00000010
00000000
00000000
00000010
,
00000001
00000000
00000000
00000001
00001000
00000000
00000010
00001000
00000010
00000000
00010000
00001000
00000000
01000000
00000000
00100000
,
00000000
01000000
00000000
00010000
00000000
00000000
10000000
01000000
10000000
00000000
00001000
00100000
00000000
01000000
00000000
00100000
,
00000000
00002000
00000000
00000000
00013000
00000000
00000010
00000000
00000100
00000000
00000000
00000001
00000100
00000000
00000000
00000100
,
00000010
00000000
00000000
00000010
00010000
00000000
00001000
00000000
00000000
00000000
00011000
00000000
00000000
01001000
00000000
00000000
,
01100000
00000000
00000000
11000000
00000000
00000000
10010000
00000000
10000000
00000000
00010000
01000000
00000000
00100000
00000000
01000000
,
00000000
00010000
00000000
00001000
00000000
00000000
00000100
00000000
00001000
00000000
00000010
00000100
00000000
00000001
00000000
00000010
,
00000000
00000100
00000000
00010000
00000000
00000000
00001000
00000000
00100000
00000000
00010000
01000000
00000000
00100000
00000000
10000000
,
00000000
00100000
00000000
01000000
00000000
00000000
00001000
00000000
00010000
00000000
00000000
00000100
00000010
00000000
00000000
00000010
,
00000001
00000000
00000000
00000001
00001000
00000000
00000000
00001000
00000010
00000000
00000100
00000010
00000000
00001000
00000000
00010000
,
00000000
00001000
00000000
00100000
00000000
00000000
01000000
00000000
10000000
00000000
00100000
01000000
00000000
00001000
00000000
00010000
,
00000000
00000100
00000000
00000010
00000000
00000000
00000001
00000000
00001000
00000000
00000000
00000010
00010000
00000000
00000000
00010000
,
00001000
00000000
00000000
00001000
00100000
00000000
01000000
00000000
00000000
00000000
10100000
00000000
01100000
00000000
00000000
00000000
,
01001000
00000000
00000000
00010000
00000000
00011000
00000000
00000000
00010100
00000000
00000000
00000100
00000010
00000000
00000000
00000010
,
00000001
00000000
00000000
00000001
00001000
00000000
00000000
00001000
00000010
00000000
00000000
00000010
00010000
00000000
00000000
00010000
,
00001000
00000000
00000000
00001000
00100000
00000000
00000000
00100000
01000000
00000000
00000000
01000000
10000000
00000000
00000000
10000000
,
00001000
00000000
00000000
00001000
00100000
00000000
00000000
00100000
00010000
00000000
00000000
00010000
00001000
00000000
00000000
00001000
,
00000010
00000000
00000000
00000010
00000100
00000000
00000000
00000100
00000001
00000000
00000000
00000001
00000010
00000000
00000000
00000010
,
00000100
00000000
00000000
00000100
00010000
00000000
00000000
00010000
00001000
00000000
00000000
00001000
00100000
00000000
00000000
00100000
,
10000000
00000000
00000000
10000000
00100000
00000000
00000000
00100000
00001000
00000000
00000000
00001000
00010000
00000000
00000000
00010000
,
00000100
00000000
00000000
00000100
00000001
00000000
00000000
00000001
00000100
00000000
00000000
00000100
00010000
00000000
00000000
00010000
,
00001000
00000000
00000000
00001000
01000000
00000000
00000000
00000000
01100000
00000000
00100000
00000000
00100000
00000000
10000000
00000000
,
10001000
00001000
00001000
00010000
00010010
00000000
00000100
00000001
,
00000011
00000000
00000000
00000000
00000000
00000000
00000100
00000000
00000000
00010000
00000000
00000000
00001000
00000000
00100000
00000000
00001000
00000000
00100000
00000000
01000000
00000000
10000000
00000000
,
01000000
00000000
10000000
00000000
00100000
00000000
01000000
00000000
00100000
00000000
01000000
00000000
00000000
00000000
00000000
11000000
00000000
00000000
01100000
00000000
00000000
00000000
00000000
00000000
,
00101000
00000000
00000000
00010000
00000000
00011000
00000000
00000000
00000000
00000000
00010100
00000000
00000110
00000000
00000000
00000000
,
00001001
00000000
00000000
00000001
00000000
00000101
00000000
00000000
00000220
00000000
00000000
00000000
00000000
00000000
00000000
00000000
,
00000000
00000330
00002001
00003002
,
00001003
00000000
00000001
00000100
00000000
00000010
00000000
00000100
00000000
00000001
00000000
00000010
00000000
00000000
00000100
00010000
,
00001000
00000000
01000000
00100000
00000000
00010000
00000000
00100000
00000000
01000000
00000000
00010000
00000000
00000000
01000000
00100000
,
10000000
00000000
00100000
01000000
00000000
00001000
00000000
00100000
00000000
00001000
00000000
00010000
00000000
00000000
00000100
00000010
,
00000001
00000000
00000000
00000001
00000100
00000000
00000000
00000100
00000010
00000000
00010000
00001000
00010000
00000000
00001000
00100000
,
01000000
00000000
10000000
00010000
00000000
00100000
00000000
10000000
00000000
00100000
00000000
00010000
00000000
00000000
01000000
00001000
,
00010000
00000000
00000010
00000100
00000000
00000001
00000000
00000010
00000000
00000200
00000000
00000000
00001300
00000000
00000001
00000100
,
00000001
00000000
00000000
00000100
00000010
00000000
00000000
00000010
00010000
00000000
00000000
00010000
00001000
00000000
00100000
00000000
,
00000000
00000000
00101000
00000000
00000000
10001000
00000000
00000000
11000000
00000000
00000000
10010000
00000000
00000000
01100000
00000000
,
00100000
00000000
10000000
01000000
00100000
00000000
00001000
01000000
00001000
00000000
00010000
00001000
00010000
00000000
00000010
00000100
,
00000001
00000000
00001000
00000100
00000010
00000000
00000001
00001000
00000001
00000000
00010000
00000100
00010000
00000000
00001000
00100000
,
01000000
00000000
00100000
00010000
01000000
00000000
00100000
01000000
00100000
00000000
10000000
00100000
10000000
00000000
00001000
00000000
,
00000000
00000000
10001000
00000000
00000000
00101000
00000000
00000000
00011000
00000000
00000000
00010010
00000000
00000000
00000010
00000100
,
00000001
00000000
00000100
00000001
00000010
00000000
00000100
00000000
00000100
00000000
00010000
00001000
00010000
00000000
00001000
00100000
,
01000000
00000000
10000000
00100000
01000000
00000000
00010000
01000000
00010000
00000000
10000000
00010000
10000000
00000000
01000000
00100000
,
00001000
00000000
00010000
00000010
00000100
00000000
00000001
00000100
00000001
00000000
00010000
00001000
00010000
00000000
00001000
00000000
,
00000000
00000000
00011000
00000000
01001000
00000000
00000000
00000000
01100000
00000000
00000000
10000000
00000000
11000000
00000000
00000000
,
10010000
00000000
00000000
00010000
01000000
00000000
00000000
01000000
00100000
00000000
00000000
00100000
10000000
00000000
00000000
10000000
,
00001000
00000000
00010000
00000000
00001000
00010000
00001000
00010000
00001000
00010000
00000010
00000100
00000010
00000100
00000010
00000000
,
00000110
00000000
00000000
00000100
00000001
00000000
00000000
00000001
00001000
00000000
00000000
00001000
00000100
00000000
00000000
00000100
,
00010000
00000000
00001000
00000000
00010000
00001000
00010000
00001000
01000000
00100000
01000000
00100000
10000000
01000000
00100000
00000000
,
00001000
00000000
00010000
00000100
00000010
00000001
00000000
00000100
00000000
00000100
00000000
00000001
00000100
00000000
00000010
00000000
,
00010000
00000000
00001000
01000000
00100000
10000000
00000000
01000000
00000000
01000000
00000000
10000000
01000000
00000000
00100000
00000000
,
01000000
00000000
10000000
00100000
01000000
00001000
00000000
00010000
00000000
00010000
00000000
00001000
00010000
00000000
00000100
00000000
,
00000010
00000001
00000010
00000001
00000010
00000001
00000000
00000100
00000000
00000100
00000000
00000010
00001000
00000000
00000100
00000000
,
00000000
00000000
00010100
00000000
00011000
00000000
00000000
00000000
00101000
00000000
00000000
01000000
00000000
01100000
00000000
00000000
,
00000000
00000000
11000000
00000000
10010000
00000000
00000000
00000000
01001000
00000000
00000000
00010000
00000000
00011000
00000000
00000000
,
00000110
00000000
00000000
00000000
;
