#TITLE:Ribbon;
#SUBTITLE:;
#ARTIST:Ryu☆;
#TITLETRANSLIT:;
#SUBTITLETRANSLIT:;
#ARTISTTRANSLIT:Ryu*;
#CREDIT:DigiMindAxel;
#BANNER:Ribbon.png;
#BACKGROUND:Ribbon-bg.png;
#LYRICSPATH:;
#CDTITLE:Konami original.png;
#MUSIC:Ribbon.ogg;
#METERTYPE:DDR X;
#OFFSET:-5.378;
#SAMPLESTART:55.752;
#SAMPLELENGTH:12.000;
#SELECTABLE:YES;
#BPMS:0.000=181.000;
#STOPS:;
#BGCHANGES:;

//---------------dance-single - ----------------
#NOTES:
     dance-single:
     :
     Easy:
     5:
     0.256,0.272,0.209,0.084,0.000:
1001
0000
0000
0000
,
1001
0000
0000
0000
,
0110
0000
0110
0000
,
0010
0000
0000
0000
,
2000
0000
3100
0000
,
1000
0001
1000
0000
,
0020
0000
0130
0000
,
0001
1000
0001
0000
,
0200
0000
0301
0000
,
2000
0000
3100
0000
,
2000
0000
3002
0000
,
1003
0000
0000
0000
,
0001
0010
0001
0000
,
0100
0100
0100
0000
,
0010
0100
0010
0000
,
1000
1000
1000
0000
,
0010
1000
0010
0000
,
0100
0001
0100
0000
,
0001
1000
0001
1000
,
1001
0000
0000
0000
,
1001
0000
0000
0000
,
0110
0000
0000
0000
,
0110
0000
0100
0000
,
0010
0000
0100
0000
,
0001
0000
1000
0000
,
0001
0000
1000
0000
,
0100
0000
0010
0000
,
0100
0000
0010
0000
,
0001
0000
1000
1000
,
0000
0000
0000
0000
,
1001
0000
0000
0000
,
0110
0000
0000
0000
,
1001
0000
0000
0000
,
0110
0000
0000
0000
,
0110
0000
0100
0000
,
0010
0000
0100
0000
,
0001
0000
0001
0000
,
1001
0000
0000
0000
,
1000
0100
1000
0000
,
0001
1000
0001
0000
,
0100
0001
0100
0000
,
0001
1000
0001
0000
,
0010
0100
0010
0000
,
0001
0010
0100
0000
,
1000
0100
1000
0000
,
0110
0000
0000
0000
,
0001
1000
0001
0000
,
0010
0100
1000
0000
,
0010
0100
0010
0000
,
1000
0010
0100
0000
,
0001
1000
0001
0000
,
1000
0001
1000
0000
,
0010
0100
0010
0100
,
0110
0000
0000
0000
,
0110
0000
0010
0100
,
0010
0000
1000
0001
,
1000
0000
0001
1000
,
0001
0000
0010
0001
,
0010
0000
0100
0010
,
0100
0000
1000
0100
,
1000
0000
0001
0100
,
0001
0000
0000
0000
,
1001
0000
0000
0000
,
0110
0000
0000
0000
,
0220
0000
0000
0000
,
0330
0000
0000
0000
;

//---------------dance-single - ----------------
#NOTES:
     dance-single:
     :
     Medium:
     8:
     0.454,0.442,0.209,0.220,0.000:
1001
0000
1000
0000
,
1001
0000
1000
0000
,
0110
0000
0110
0010
,
0000
1000
0000
1000
0000
0000
0000
0000
,
0200
0000
0000
1000
0000
1300
0000
0000
,
0001
0001
1000
1000
,
0200
0000
0000
0010
0000
0310
0000
0000
,
1001
0000
1001
0000
0100
0010
0100
0000
,
0002
0000
0000
1000
0000
1003
0000
0000
,
0200
0000
0000
1000
0000
1300
0000
0000
,
0002
0000
0000
0100
0000
0100
0000
0103
,
0000
0001
0000
1000
0001
0000
0001
0000
,
0010
0100
0010
0001
,
1000
0010
1000
0010
1000
0000
0110
0000
,
0010
1000
0100
1000
,
0010
0100
0010
0100
0010
0000
1001
0000
,
1000
0010
0100
1001
,
0001
0010
0100
1001
,
0010
0000
1000
0000
0100
0010
0100
0010
,
0000
0001
0000
0001
1000
0000
1000
0000
,
0000
0001
0000
0001
1000
0000
1000
0000
,
0000
0001
0000
0001
1000
0000
1000
0000
,
1001
0000
0000
0001
0000
0001
0000
0000
,
0100
0000
0000
0010
0000
0010
0000
0000
,
1000
0000
0000
0100
0000
0100
0000
0000
,
0010
0000
0000
0001
0000
0001
0000
0000
,
1002
0000
0000
0010
0000
0013
0000
0000
,
2001
0000
0000
0001
0000
3001
0000
0000
,
0120
0000
0000
1000
0000
1000
0000
1030
,
0000
0001
0000
0001
1000
0000
1000
0000
,
2002
0000
0000
3003
,
0001
1000
0100
1000
0001
0100
0000
0000
,
0220
0000
0000
0330
,
0100
0010
0001
0010
0100
1000
0000
0000
,
1001
1000
0001
1000
,
0110
0010
0100
0010
,
1001
0001
1000
0001
,
0000
1000
0000
1000
0001
0000
0001
0000
,
1000
0010
0100
0001
,
1000
0100
1000
0010
0100
0000
0100
0000
,
0001
0010
0100
1000
,
0001
0010
0001
0010
0100
0000
0100
0000
,
1000
0100
0010
0001
,
1000
0100
1000
0100
0010
0000
0010
0000
,
0001
0100
0010
1000
,
0000
0001
0000
0001
1000
0000
1000
0000
,
0010
0100
0001
1000
,
0010
0100
0010
0100
0001
0000
0001
0000
,
0010
0100
1000
0001
,
0010
0100
0010
0100
1000
0000
1000
0000
,
0010
0100
0010
0100
0001
0000
0001
0000
,
0010
0100
0010
0100
1000
0000
1000
0000
,
0100
1000
0100
1000
0001
1000
0001
1000
,
0000
0001
0000
0001
1000
0000
1000
0000
,
0002
0000
0000
0100
0000
0103
0000
0001
,
2000
0000
0000
0100
0000
3100
0000
1000
,
0002
0000
0000
0010
0000
0013
0000
0001
,
2000
0000
0000
0010
0000
3010
0000
1000
,
0002
0000
0000
0010
0000
0013
0000
0100
,
2000
0000
0000
0010
0000
3010
0000
0100
,
0002
0000
0000
1000
0000
1000
0000
1003
,
0000
0001
0000
0001
1000
0000
1000
0000
,
0000
0001
0000
0001
1000
0000
1000
0000
,
0000
0001
0000
0001
1000
0000
1000
0000
,
2002
0000
0000
0000
,
3003
0000
0000
0000
;

//---------------dance-single - ----------------
#NOTES:
     dance-single:
     :
     Hard:
     12:
     0.623,0.578,0.377,0.356,0.016:
1000
0100
0000
1000
0100
1000
0000
0000
,
0010
0100
0000
0010
0100
0010
0000
0000
,
1000
0001
0000
1000
0001
1000
0100
0010
,
0000
0101
0000
0100
0010
0000
0110
0000
,
0100
1000
0100
0020
0000
0001
0000
0130
,
1000
1000
1000
0100
0010
0000
0110
0000
,
0010
0001
0010
0200
0000
0010
0000
1300
,
0010
0000
0000
0010
0000
0000
0010
0000
1000
0000
0001
0000
1000
0000
0000
0000
,
0010
1000
0010
0200
0000
0010
0000
0301
,
1000
0100
1000
0020
0000
0100
0000
0031
,
0100
0010
0100
0002
0000
1000
0000
1003
,
0000
1100
0000
1000
0100
0000
0110
0000
,
0010
0001
0010
0200
0000
1000
0000
0310
,
0001
0001
0001
1000
0010
0000
0110
0000
,
0100
0001
0100
0020
0000
0100
0000
1030
,
0001
0001
0001
0010
0100
0000
0110
0000
,
0100
1000
0100
0020
0000
0001
0000
0130
,
1000
0010
1000
0020
0000
0100
0000
0031
,
1000
0100
1000
0100
0010
0100
0010
0001
,
0000
0011
0000
0010
0100
0000
0110
0000
,
0000
0011
0000
0010
0100
0000
0110
0000
,
0000
0011
0000
0010
0100
0000
0110
0000
,
2010
0000
0000
0100
0000
3100
0000
1000
,
0002
0000
0000
1000
0000
1003
0000
0010
,
0200
0000
0000
0001
0000
0301
0000
1000
,
0200
0000
0000
0010
0000
0310
0000
0001
,
0200
0000
0000
0010
0000
0310
0000
1000
,
0200
0000
0000
0010
0000
0310
0000
0001
,
0200
0000
0000
0010
0000
0010
0000
0310
,
0000
1010
0000
1000
0010
0000
0110
0000
,
2002
0000
0000
3003
,
0001
0000
0000
0001
0000
0000
0001
0000
0100
0000
0010
0000
0100
0000
0000
0000
,
2002
0000
0000
3003
,
1000
0000
0000
1000
0000
0000
1000
0000
0100
0000
0010
0000
0100
0000
0000
0000
,
1000
0010
1000
0010
1000
0010
1000
0010
,
1000
0001
1000
0001
1000
0001
1000
0001
,
0010
0001
0010
0001
0010
0001
0010
0100
,
0000
1010
0000
0010
0100
0000
0110
0000
,
0010
1000
0001
0000
0001
1000
0010
0000
,
0010
1000
0100
0010
0001
0000
0101
0000
,
0100
0001
1000
0000
1000
0001
0100
0000
,
0100
0001
0010
0100
0010
0000
0110
0000
,
0100
0001
1000
0000
1000
0001
0010
0000
,
0010
0100
1000
0001
0100
0000
0110
0000
,
0010
0001
0100
0000
0100
0010
1000
0100
,
0000
1100
0000
1000
0100
0000
0110
0000
,
0100
1000
0001
0000
0001
0010
0100
0000
,
1000
0010
0001
0010
1000
0000
0110
0000
,
1000
0100
0010
0000
0010
0001
0100
0000
,
0001
0100
1000
0100
0001
0000
0110
0000
,
0010
0001
0100
0000
0100
0010
1000
0000
,
1000
0100
0010
0000
0010
0001
0100
0000
,
0001
1000
0001
1000
0010
0100
0010
0100
,
0000
0101
0000
0001
0100
0000
0110
0000
,
0010
0001
0010
0200
0000
2300
0000
3001
,
1000
0100
1000
0200
0000
0320
0000
0031
,
1000
0010
1000
0020
0000
0230
0000
0301
,
0010
0100
0010
0002
0000
2003
0000
3010
,
0100
0001
0100
0020
0000
2030
0000
3001
,
0100
0001
1000
0200
0000
2300
0000
3001
,
0010
0100
0010
0100
0000
0100
0000
0100
,
0000
1010
0000
0010
0100
0000
0110
0000
,
0000
1010
0000
0010
0100
0000
0110
0000
,
0000
1010
0000
0010
0100
0000
0110
0000
,
2002
0000
0000
0000
,
3003
0000
0000
0000
;

//---------------dance-single - ----------------
#NOTES:
     dance-single:
     :
     Challenge:
     14:
     0.749,0.850,0.502,0.199,0.246:
1000
1000
0000
1000
0010
0100
0001
1000
,
0001
0001
0000
0001
0010
0100
1000
0001
,
0100
0100
0000
0100
0001
1000
0010
0100
,
0000
0000
0110
0000
0000
0000
0010
0000
1010
0000
0000
0000
1000
0001
1000
0001
,
1000
0100
0010
0100
1000
0001
0000
0001
,
1000
0000
0100
0010
0000
0100
0010
0000
0002
0000
0000
0000
0103
0000
0000
0000
,
0001
0010
0100
0010
0001
1000
0000
1000
,
1010
0000
0000
1010
0000
0000
1010
0000
0010
0000
0100
0000
0001
1000
0001
1000
,
0001
0010
1000
0010
0001
1000
0000
1000
,
0010
0001
0010
1000
0100
0010
0000
0010
,
0001
0100
1000
0100
0001
1000
0001
1000
,
0000
1010
0000
0010
0110
0000
0110
0000
,
0100
0001
0010
0100
0010
0001
0000
0001
,
1000
0000
0010
0100
0000
0010
0100
0000
0002
0000
0000
0000
0013
0000
0000
0000
,
0100
1000
0010
0100
0001
0010
0000
0010
,
0100
0000
1000
0010
0000
1000
0010
0000
2000
0000
0000
0000
3001
1000
0001
1000
,
0001
1000
0100
0001
0100
1000
0000
1000
,
0001
1000
0010
0001
0010
1000
0000
1000
,
0100
0001
0100
1000
0001
1000
0001
1000
,
0000
1001
0000
0001
0011
0000
0110
0000
,
0000
1001
0000
0001
0011
0000
0110
0000
,
0000
0000
1001
0000
0000
0000
0001
0000
0011
0000
0000
0000
0100
0010
0100
0010
,
0200
0000
0000
0001
0000
0301
0000
1000
,
0200
0000
0000
1000
0000
1300
0001
0010
,
0200
0000
0000
1000
0000
1300
0000
0010
,
0200
0000
0000
0000
0000
0000
0001
0000
0000
0000
0301
0000
1000
0001
1000
0001
,
2000
0000
0000
0100
0000
3100
0000
1000
,
0020
0000
0000
0100
0000
0130
0001
0010
,
0200
0000
0000
1300
0000
1100
0000
1100
,
0000
0000
1001
0000
0000
0000
0010
0000
0110
0000
0000
0000
0100
0001
0100
0001
,
0200
0000
0000
0300
,
0110
0000
0000
0110
0000
0000
0110
0000
0100
0000
0010
0000
0001
0100
0001
0100
,
0002
0000
0000
0003
,
1001
0000
0000
1001
0000
0000
1001
0000
1000
0000
0010
0000
0100
0001
0100
0001
,
0100
0001
0010
0100
0010
0001
0100
1000
,
0100
0001
1000
0010
0100
0010
1000
0100
,
0010
0001
0010
0001
0010
0001
0010
0001
1000
0001
1000
0001
1000
0001
1000
0000
,
0000
1010
0010
0100
0101
0000
0101
0000
,
0001
1000
0100
0001
0100
1000
0010
0100
,
0001
1000
0100
0010
0001
0000
1001
0000
,
1000
0001
0100
1000
0100
0001
0010
0100
,
0010
0001
1000
0001
0100
0000
0110
0000
,
0010
0100
1000
0010
0001
0010
0100
0001
,
1000
0100
0010
0001
0100
0000
0101
0000
,
0001
1000
0010
0001
0010
0100
0001
1000
,
0000
1100
0100
0010
0011
0000
0011
0000
,
0001
1000
0010
0001
0010
0100
0001
1000
,
0010
0000
0100
0001
0000
0100
0001
0000
0010
0000
0100
0000
1000
0000
0000
0000
,
0001
1000
0100
0001
0100
0010
0001
1000
,
0001
0000
0010
0001
0000
0010
0001
0000
0100
0000
0010
0000
1000
0000
0000
0000
,
0001
1000
0010
0001
0010
0100
0001
1000
,
0001
1000
0100
0001
0100
0010
0001
1000
,
0010
0100
0010
0100
0010
0100
0010
0100
0001
1000
0001
1000
0001
1000
0001
0000
,
0000
0011
0010
0100
1100
0000
1100
0000
,
1002
0000
0000
0103
0001
0010
0100
1000
,
0020
0000
0000
0130
0001
1000
0010
0100
,
0002
0000
0000
1003
0001
1000
0100
0010
,
0200
0000
0000
1300
0001
0010
0100
0010
,
0012
0000
0000
0103
0001
0010
1000
0010
,
0012
0000
0000
0013
0001
0100
1000
0100
,
0001
0010
0100
0010
0001
0010
0100
0010
,
0000
0101
0000
0100
0110
0000
1100
0000
,
0000
0101
0000
0100
0110
0000
1100
0000
,
0000
0000
0101
0000
0000
0000
0100
0000
0010
1000
0010
1000
0001
0010
0001
0010
,
0002
0000
0000
0000
,
0003
0000
0000
0000
;

//---------------dance-double - ----------------
#NOTES:
     dance-double:
     :
     Easy:
     5:
     0.266,0.272,0.220,0.073,0.000:
10010000
00000000
00000000
00000000
,
10010000
00000000
00000000
00000000
,
01100000
00000000
01100000
00000000
,
00100000
00000000
00000000
00000000
,
20000000
00000000
31000000
00000000
,
10000000
01000000
00100000
00000000
,
00002000
00000000
00103000
00000000
,
00001000
00010000
00000010
00000010
,
00000200
00000000
00000310
00000000
,
00002000
00000000
00003001
00000000
,
00010000
00001000
00010000
00001000
,
02000000
00000000
00000000
03000000
,
00100000
01000000
00100000
00000000
,
10000000
10000000
10000000
00000000
,
01000000
00100000
01000000
00000000
,
10000000
10000000
10000000
00000000
,
00001000
01000000
00001000
00000000
,
00010000
00001000
00010000
00000000
,
00000010
00000100
00000010
00000100
,
00000110
00000000
00000000
00000000
,
00001001
00000000
00000000
00000000
,
00011000
00000000
00000000
00000000
,
01100000
00000000
01000000
00000000
,
00100000
00000000
01000000
00000000
,
00100000
00000000
10000000
00000000
,
00010000
00000000
10000000
00000000
,
00011000
00000000
00010000
00000000
,
00011000
00000000
00010000
00000000
,
00011000
00000000
00010000
00001000
,
00000000
00000000
00000000
00000000
,
00000110
00000000
00000000
00000000
,
00000100
00000100
00000100
00000000
,
00001001
00000000
00000000
00000000
,
00000010
00000010
00000010
00000000
,
00000110
00000000
00000010
00000000
,
00000100
00000000
00000010
00000000
,
00010000
00000000
00001000
00000000
,
00011000
00000000
00000000
00000000
,
00001000
00010000
00001000
00000000
,
00100000
01000000
10000000
00000000
,
00001000
00010000
00001000
00000000
,
00010000
00000010
00000100
00000000
,
00000001
00001000
00000001
00000000
,
00000010
00000100
00001000
00000000
,
00010000
00001000
00010000
00000000
,
00011000
00000000
00000000
00000000
,
01000000
00100000
01000000
00000000
,
00100000
10000000
00010000
00000000
,
01000000
00100000
01000000
00000000
,
00010000
01000000
00100000
00000000
,
10000000
00010000
10000000
00000000
,
00001000
00100000
00001000
00000000
,
00010000
00001000
00010000
00001000
,
00011000
00000000
00000000
00000000
,
00000110
00000000
00000100
00000010
,
00000100
00000000
00000001
00010000
,
00001000
00000000
00010000
00001000
,
00010000
00000000
00001000
00100000
,
01000000
00000000
10000000
00010000
,
10000000
00000000
00100000
01000000
,
00001000
00000000
00010000
00001000
,
00010000
00000000
00000000
00000000
,
00011000
00000000
00000000
00000000
,
00000110
00000000
00000000
00000000
,
00002002
00000000
00000000
00000000
,
00003003
00000000
00000000
00000000
;

//---------------dance-double - ----------------
#NOTES:
     dance-double:
     :
     Medium:
     8:
     0.471,0.510,0.251,0.220,0.000:
10010000
00000000
01000000
00000000
,
00101000
00000000
00001000
00000000
,
00011000
00000000
00011000
00010000
,
00000000
00000010
00000000
00000010
00000000
00000000
00000000
00000000
,
00002000
00000000
00000000
00000001
00000000
00003001
00000000
00000000
,
00001000
00000100
00000010
00000001
,
00020000
00000000
00000000
00000100
00000000
00030100
00000000
00000000
,
00011000
00000000
00011000
00000000
00001000
00010000
00001000
00010000
,
00002000
00000000
00000000
01000000
00000000
01003000
00000000
00000000
,
00020000
00000000
00000000
10000000
00000000
10030000
00000000
00000000
,
00200000
00000000
00000000
01000000
00000000
01000000
00000000
01300000
,
00000000
00010000
00000000
10000000
00001000
00000000
00011000
00000000
,
00010000
00000100
00000010
00000001
,
00000100
00000001
00000100
00000001
00000100
00000000
00000101
00000000
,
00000001
00000010
00000100
00010000
,
00001000
01000000
00001000
01000000
00001000
00000000
00011000
00000000
,
00010000
00100000
01000000
11000000
,
10010000
00010000
00100000
00101000
,
00001000
00000000
00010000
00000000
00000010
00000100
00000010
00000100
,
00000000
00000001
00000000
00000001
00000100
00000000
00000100
00000000
,
00000000
00000010
00000000
00000010
00010000
00000000
00010000
00000000
,
00000000
00001000
00000000
00001000
00100000
00000000
00100000
00000000
,
01100000
00000000
00000000
01000000
00000000
01000000
00000000
00000000
,
10000000
00000000
00000000
00010000
00000000
00010000
00000000
00000000
,
01000000
00000000
00000000
00001000
00000000
00001000
00000000
00000000
,
00010000
00000000
00000000
00000100
00000000
00000100
00000000
00000000
,
00001002
00000000
00000000
00000100
00000000
00000103
00000000
00000000
,
00002001
00000000
00000000
00000001
00000000
00003001
00000000
00000000
,
00021000
00000000
00000000
00001000
00000000
00001000
00000000
00031000
,
00000000
01001000
00000000
01000000
00100000
00000000
00100000
00000000
,
20020000
00000000
00000000
30030000
,
10000000
01000000
00100000
00001000
00010000
00000010
00000000
00000000
,
00000220
00000000
00000000
00000330
,
00000010
00000001
00000100
00000010
00010000
00001000
00000000
00000000
,
00011000
00100000
01000000
10000000
,
10010000
00010000
01000000
00001000
,
00010000
00001000
00010000
00001000
00010000
00000010
00000100
00000000
,
00000000
00000001
00000000
00000001
00001000
00000000
00001000
00000000
,
00000010
00010000
00001000
00100000
,
01000000
10000000
00100000
01000000
00100000
00000000
00100000
00000000
,
10000000
01000000
00100000
00001000
,
00010000
00000010
00010000
00000010
00000100
00000000
00000100
00000000
,
00000001
00000010
00000100
00010000
,
00001000
00100000
00001000
00100000
01000000
00000000
01000000
00000000
,
10010000
00010000
01000000
00001000
,
00000000
00010000
00000000
00010000
00000010
00000000
00000010
00000000
,
00001000
00000100
00000010
00000100
,
00010000
00001000
00010000
00100000
01000000
00000000
01000000
00000000
,
10010000
00010000
01000000
00001000
,
00010000
00000100
00010000
00000100
00000010
00000000
00000010
00000000
,
00000001
00001000
00000001
00001000
00000001
00000010
00000001
00000000
,
00010000
00000100
00010000
00000100
00010000
00001000
00010000
00000000
,
00001000
00100000
00001000
00100000
00010000
01000000
00010000
01000000
,
00000000
00010000
10000000
00010000
10000000
00000000
10000000
00000000
,
02000000
00000000
00000000
10000000
00000000
13000000
00000000
00100000
,
02000000
00000000
00000000
00100000
00000000
03100000
00000000
10000000
,
00002000
00000000
00000000
00010000
00000000
00013000
00000000
00000100
,
00000020
00000000
00000000
00000100
00000000
00000130
00000000
00001000
,
00000002
00000000
00000000
00000100
00000000
00000103
00000000
00000001
,
00020000
00000000
00000000
00001000
00000000
00031000
00000000
01000000
,
00200000
00000000
00000000
01000000
00000000
01000000
00000000
01300000
,
00000000
00001000
00000000
00001000
00010000
00000000
00010000
00000000
,
00000000
00001000
00000000
00001000
00010000
00000000
00010000
00000000
,
00000000
00001000
00000000
00001000
00010000
00000000
00010000
00000000
,
00020020
00000000
00000000
00000000
,
00030030
00000000
00000000
00000000
;

//---------------dance-double - ----------------
#NOTES:
     dance-double:
     :
     Hard:
     12:
     0.625,0.578,0.387,0.356,0.016:
00010000
10000000
00000000
00010000
10000000
00010000
00000000
00000000
,
01000000
00001000
00000000
01000000
00001000
01000000
00000000
00000000
,
00010000
00001000
00000000
00010000
00001000
00010000
00000100
00000010
,
00000000
00001001
00000000
00001000
00000001
00000000
00001001
00000000
,
00000001
00000010
00000001
00002000
00000000
00000100
00000000
00003100
,
00010000
00001000
00010000
00001000
01000000
00000000
01100000
00000000
,
01000000
10000000
01000000
00200000
00000000
00001000
00000000
00301000
,
00010000
00000000
00000000
00010000
00000000
00000000
00010000
00000000
00000010
00000000
00000100
00000000
00000010
00000000
00000000
00000000
,
00001000
00000100
00001000
00000002
00000000
00001000
00000000
00001003
,
00000001
00000100
00000001
00002000
00000000
00000001
00000000
00003001
,
00010000
00001000
00010000
00200000
00000000
01000000
00000000
01300000
,
00000000
11000000
00000000
10000000
00010000
00000000
10010000
00000000
,
10000000
00100000
10000000
00002000
00000000
00100000
00000000
00103000
,
00001000
00010000
00001000
00010000
00000100
00000000
00000110
00000000
,
00000010
00000001
00000010
00000200
00000000
00010000
00000000
00010300
,
00001000
01000000
00001000
10000000
01000000
00000000
11000000
00000000
,
00100000
01000000
00100000
20000000
00000000
00010000
00000000
30010000
,
10000000
01000000
00100000
02000000
00000000
10000000
00000000
13000000
,
00001000
01000000
00001000
01000000
00001000
00010000
00001000
00010000
,
00000000
00011000
00000000
00010000
00000100
00000000
00000110
00000000
,
00000000
00011000
00000000
00010000
00000100
00000000
00000110
00000000
,
00000000
00011000
00000000
00010000
00000100
00000000
00000110
00000000
,
00000021
00000000
00000000
00000001
00000000
00000031
00000000
00000100
,
00000020
00000000
00000000
00000100
00000000
00000130
00000000
00010000
,
00002000
00000000
00000000
00010000
00000000
00013000
00000000
00100000
,
02000000
00000000
00000000
00100000
00000000
03100000
00000000
00010000
,
20000000
00000000
00000000
00010000
00000000
30010000
00000000
10000010
,
00200000
00000000
00000000
01000000
00000000
01300000
00000000
00001000
,
00020000
00000000
00000000
00000100
00000000
00000100
00000000
00030100
,
00000000
00010100
00000000
00010000
00000001
00000000
00001001
00000000
,
00000220
00000000
00000000
00000330
,
00000100
00000000
00000000
00000100
00000000
00000000
00000100
00000000
00001000
00000000
00000001
00000000
00010000
00000000
00001000
00000000
,
00022000
00000000
00000000
00033000
,
01000000
00000000
00000000
01000000
00000000
00000000
01000000
00000000
00010000
00000000
10000000
00000000
00010000
00000000
10000000
00000000
,
00100000
10000000
00100000
10000000
00100000
10000000
00100000
10000000
,
00001000
00010000
00001000
00010000
00001000
00010000
00001000
00010000
,
00000001
00000100
00000001
00000100
00000001
00000100
00000001
00001000
,
00000000
00001001
00000000
00000001
00001000
00000000
00001001
00000000
,
00000001
00000010
00000100
00000000
00000100
00001000
00010000
00000000
,
00010000
00100000
01000000
10000000
00100000
00000000
01100000
00000000
,
01000000
10000000
00100000
00000000
00100000
01000000
00001000
00000000
,
00001000
00010000
00000010
00000100
00000001
00000000
00001001
00000000
,
00001000
00000100
00000010
00000000
00000010
00000001
00010000
00000000
,
00010000
00001000
01000000
00100000
10000000
00000000
10010000
00000000
,
00100000
10000000
01000000
00000000
01000000
00100000
00001000
00010000
,
00000000
00011000
00000000
00010000
00000100
00000000
00000110
00000000
,
00000010
00000001
00000100
00000000
00000100
00000010
00010000
00000000
,
00010000
00001000
00100000
01000000
10000000
00000000
11000000
00000000
,
10000000
01000000
00100000
00000000
00100000
00010000
00001000
00000000
,
00001000
00000010
00000100
00000001
00000100
00000000
00000101
00000000
,
00000001
00000100
00000001
00000100
00000001
00010000
00000001
00010000
,
00001000
00010000
00001000
00010000
00100000
01000000
00100000
01000000
,
10000000
00100000
10000000
00100000
01000000
00001000
01000000
00001000
,
00000000
00011000
00000000
00010000
00000010
00000000
00000110
00000000
,
00000100
00000000
00000001
00002000
00000000
00003020
00000000
00000130
,
00000010
00000000
00010000
00002000
00000000
02003000
00000000
03010000
,
10000000
00000000
01000000
00200000
00000000
00302000
00000000
00013000
,
00000001
00000000
00000010
00000200
00000000
00000320
00000000
00000031
,
00001000
00000000
00000100
00020000
00000000
00032000
00000000
00103000
,
01000000
00000000
10000000
00200000
00000000
02300000
00000000
03001000
,
00010000
00000100
00000010
00000001
00000000
00000001
00000000
00000001
,
00000000
00000110
00000000
00000010
00010000
00000000
00011000
00000000
,
00000000
00000110
00000000
00000010
00010000
00000000
00011000
00000000
,
00000000
00000110
00000000
00000010
00010000
00000000
00011000
00000000
,
02002000
00000000
00000000
00000000
,
03003000
00000000
00000000
00000000
;

//---------------dance-double - ----------------
#NOTES:
     dance-double:
     :
     Challenge:
     14:
     0.749,0.850,0.502,0.199,0.246:
10000000
10000000
00000000
00010000
00100000
01000000
10000000
00010000
,
10000000
10000000
00000000
00010000
00100000
01000000
10000000
00010000
,
10000000
10000000
00000000
00100000
01000000
00001000
00010000
00000100
,
00000000
00000000
00000110
00000000
00000000
00000000
00000010
00000000
00000011
00000000
00000000
00000000
00000001
00001000
00000001
00001000
,
00000001
00000010
00000100
00000010
00000001
00001000
00000000
00001000
,
00000010
00000000
00010000
00001000
00000000
00010000
00001000
00000000
02000000
00000000
00000000
00000000
03100000
00000000
00000000
00000000
,
10000000
01000000
00100000
01000000
10000000
00010000
00000000
00001000
,
00011000
00000000
00000000
00011000
00000000
00000000
00011000
00000000
00010000
00000000
00000100
00000000
00000010
00000001
00000010
00000001
,
00000010
00000001
00000010
00001000
00000010
00000001
00000000
00010000
,
00000100
00000001
00000100
00010000
00001000
00100000
00000000
00100000
,
01000000
10000000
00100000
00010000
00100000
10000000
00010000
10000000
,
00000000
10100000
00000000
00100000
01100000
00000000
01100000
00000000
,
01000000
00001000
00100000
01000000
00100000
00001000
00000000
00001000
,
00010000
00000000
00000100
00000010
00000000
00000100
00000010
00000000
00000002
00000000
00000000
00000000
00001003
00000000
00000000
00000000
,
00000001
00000010
00000001
00000100
00000010
00001000
00000000
00000100
,
00000010
00000000
00000001
00010000
00000000
00000001
00010000
00000000
00002000
00000000
00000000
00000000
00013000
00001000
00010000
00001000
,
00010000
00001000
00100000
10000000
00100000
00001000
00000000
10000000
,
00010000
10000000
01000000
00010000
01000000
10000000
00000000
00010000
,
00100000
10000000
00100000
00001000
00010000
00001000
00010000
00000100
,
00000000
00001100
00000000
00001000
00001001
00000000
00000011
00000000
,
00000000
00001100
00000000
00001000
00001001
00000000
00000011
00000000
,
00000000
00000000
00001100
00000000
00000000
00000000
00001000
00000000
00001001
00000000
00000000
00000000
00000001
00000010
00000001
00000010
,
00000002
00000000
00000000
00001000
00000000
00001003
00000000
00000010
,
00020000
00000000
00000000
00001000
00000000
00031000
01000000
00100000
,
02000000
00000000
00000000
00010000
00000000
03010000
00000000
10000000
,
02000000
00000000
00000000
00000000
00000000
00000000
10000000
00000000
00000000
00000000
13000000
00000000
00100000
01000000
00100000
01000000
,
00200000
00000000
00000000
10000000
00000000
10300000
00000000
00001000
,
00020000
00000000
00000000
00001000
00000000
00031000
00010000
00000010
,
00000200
00000000
00000000
00000310
00000000
00000110
00000000
00000110
,
00000000
00000000
00000101
00000000
00000000
00000000
00000001
00000000
00010001
00000000
00000000
00000000
00010000
00001000
00010000
00001000
,
00020000
00000000
00000000
00030000
,
00011000
00000000
00000000
00011000
00000000
00000000
00011000
00000000
00001000
00000000
00100000
00000000
01000000
10000000
01000000
10000000
,
02000000
00000000
00000000
03000000
,
10010000
00000000
00000000
10010000
00000000
00000000
10010000
00000000
10000000
00000000
00100000
00000000
01000000
00010000
01000000
00010000
,
01000000
00001000
00100000
01000000
00100000
00001000
00010000
00000010
,
00000100
00000010
00010000
00000100
00000001
00000100
00010000
00001000
,
00100000
00010000
00100000
00010000
00100000
00010000
00100000
00010000
10000000
00010000
10000000
00010000
10000000
00010000
10000000
00000000
,
00000000
10100000
00100000
01000000
01010000
00000000
01010000
00000000
,
00010000
10000000
01000000
00010000
01000000
10000000
00001000
00100000
,
00010000
00001000
00000100
00000010
00000001
00000000
00001001
00000000
,
00000001
00001000
00000010
00000001
00000010
00001000
00000100
00001000
,
00010000
00100000
01000000
10000000
00010000
00000000
10010000
00000000
,
00100000
01000000
10000000
00100000
00010000
00100000
01000000
00001000
,
00010000
00000010
00000100
00000001
00001000
00000000
00001001
00000000
,
00001000
00000001
00000100
00001000
00000100
00000010
00010000
00001000
,
00000000
00011000
00001000
01000000
01100000
00000000
10100000
00000000
,
00010000
10000000
00100000
00010000
00100000
01000000
00010000
10000000
,
00001000
00000000
00010000
00000010
00000000
00010000
00000010
00000000
00001000
00000000
00000100
00000000
00000010
00000000
00000000
00000000
,
00000001
00001000
00000010
00000001
00000010
00000100
00000001
00001000
,
00010000
00000000
01000000
00100000
00000000
01000000
00100000
00000000
10000000
00000000
01000000
00000000
00100000
00000000
00000000
00000000
,
00010000
00001000
00000010
00000100
00000001
00000100
00000010
00001000
,
00010000
00100000
10000000
00100000
00010000
00001000
00000010
00000100
,
00000001
00000010
00000001
00000010
00000001
00000010
00000001
00000010
00000001
00010000
00000001
00010000
00000001
00010000
00000001
00000000
,
00000000
00000110
00000010
00010000
00011000
00000000
00011000
00000000
,
01020000
00000000
00000000
01030000
00010000
10000000
01000000
00100000
,
00020000
00000000
00000000
00031000
00000010
00000100
00000001
00000010
,
00000002
00000000
00000000
00001003
00000001
00000010
00000100
00001000
,
00020000
00000000
00000000
01030000
00100000
10000000
00010000
00100000
,
00102000
00000000
00000000
00013000
00000010
00000100
00000001
00000010
,
00000012
00000000
00000000
00000013
00000100
00010000
00001000
01000000
,
00100000
10000000
00100000
10000000
00001000
00010000
00001000
00010000
,
00000000
00010100
00000000
00000010
00000110
00000000
00000011
00000000
,
00000000
00010100
00000000
00000010
00000110
00000000
00000011
00000000
,
00000000
00000000
00010100
00000000
00000000
00000000
00000010
00000000
00000100
00000001
00000100
00000001
00010000
00001000
00010000
00001000
,
00020000
00000000
00000000
00000000
,
00030000
00000000
00000000
00000000
;

//---------------dance-single - ----------------
#NOTES:
     dance-single:
     :
     Beginner:
     3:
     0.136,0.201,0.094,0.000,0.000: // measure 1
1000
0000
0000
0000
,  // measure 2
1000
0000
0000
0000
,  // measure 3
1000
0000
1000
0000
,  // measure 4
1000
0000
0000
0000
,  // measure 5
0001
0000
0100
0000
,  // measure 6
0001
0000
0000
0000
,  // measure 7
1000
0000
0010
0000
,  // measure 8
1000
0000
0000
0000
,  // measure 9
0001
0000
1000
0000
,  // measure 10
0001
0000
1000
0000
,  // measure 11
0001
0000
1000
0000
,  // measure 12
0000
0000
0000
0000
,  // measure 13
0100
0000
0010
0000
,  // measure 14
0100
0000
0000
0000
,  // measure 15
1000
0000
0100
0000
,  // measure 16
1000
0000
0000
0000
,  // measure 17
0001
0000
0010
0000
,  // measure 18
0001
0000
0010
0000
,  // measure 19
0001
0000
0010
0000
,  // measure 20
0001
0000
0000
0000
,  // measure 21
1000
0000
0000
0000
,  // measure 22
0001
0000
0000
0000
,  // measure 23
1001
0000
0000
0000
,  // measure 24
0100
0000
0000
0000
,  // measure 25
0010
0000
0000
0000
,  // measure 26
0100
0000
0000
0000
,  // measure 27
0010
0000
0000
0000
,  // measure 28
0010
0000
0000
0000
,  // measure 29
0010
0000
0000
0000
,  // measure 30
0000
0000
0000
0000
,  // measure 31
1001
0000
0000
0000
,  // measure 32
0000
0000
0000
0000
,  // measure 33
1001
0000
0000
0000
,  // measure 34
0000
0000
0000
0000
,  // measure 35
1001
0000
0000
0000
,  // measure 36
1000
0000
0000
0000
,  // measure 37
0001
0000
1000
0000
,  // measure 38
0001
0000
0000
0000
,  // measure 39
0010
0000
0100
0000
,  // measure 40
0010
0000
0000
0000
,  // measure 41
0100
0000
1000
0000
,  // measure 42
0100
0000
0000
0000
,  // measure 43
1000
0000
0001
0000
,  // measure 44
1000
0000
0000
0000
,  // measure 45
0001
0000
0100
0000
,  // measure 46
0001
0000
0000
0000
,  // measure 47
1000
0000
0001
0000
,  // measure 48
1000
0000
0000
0000
,  // measure 49
0100
0000
1000
0000
,  // measure 50
0100
0000
0000
0000
,  // measure 51
0010
0000
0001
0000
,  // measure 52
0010
0000
0001
0000
,  // measure 53
0010
0000
0001
0000
,  // measure 54
0100
0000
0000
0000
,  // measure 55
0010
0000
0000
0000
,  // measure 56
0100
0000
0000
0000
,  // measure 57
0001
0000
0000
0000
,  // measure 58
1000
0000
0000
0000
,  // measure 59
0110
0000
0000
0000
,  // measure 60
0010
0000
0000
0000
,  // measure 61
0010
0000
0000
0000
,  // measure 62
1001
0000
0000
0000
,  // measure 63
1001
0000
0000
0000
,  // measure 64
1001
0000
0000
0000
,  // measure 65
0110
0000
0000
0000
;
