#TITLE:Retention;
#SUBTITLE:;
#ARTIST:XeoN;
#TITLETRANSLIT:;
#SUBTITLETRANSLIT:;
#ARTISTTRANSLIT:;
#CREDIT:DigiMindAxel;
#BANNER:Retention.png;
#BACKGROUND:Retention-bg.png;
#LYRICSPATH:;
#CDTITLE:DJMAX.png;
#MUSIC:Retention.ogg;
#METERTYPE:DDR X;
#OFFSET:-1.853;
#SAMPLESTART:59.073;
#SAMPLELENGTH:12.000;
#SELECTABLE:YES;
#BPMS:0.000=130.000;
#STOPS:;
#BGCHANGES:-4.000=Retention.avi=1.000=1=1=0,
99999=-nosongbg-=1.000=0=0=0 // don't automatically add -songbackground-
;

//---------------dance-single - ----------------
#NOTES:
     dance-single:
     :
     Easy:
     5:
     0.215,0.258,0.112,0.149,0.000:
0000
0000
0000
0000
,
0000
0000
0000
0000
,
0000
0000
0000
0000
,
0000
0000
0000
0000
,
0000
0000
0000
0000
,
0000
0000
0000
0000
,
0000
0000
0000
0000
,
1000
0000
0100
0000
,
1000
0000
0100
0000
,
0010
0000
0100
0000
,
0010
0000
0001
0000
,
0100
0000
0001
0000
,
0100
0000
0010
0000
,
0100
0000
0010
0000
,
1000
0000
1000
0000
,
1001
0001
0001
0000
,
1000
1000
1000
0000
,
0001
0001
0001
0000
,
0010
0010
0010
0000
,
0100
0100
0100
0000
,
0010
0010
0010
0000
,
0100
0100
0100
0000
,
1000
1000
1000
0000
,
1001
0000
0001
0000
,
0110
0000
0100
0000
,
1001
0000
1000
0000
,
0110
0000
0010
0000
,
1001
0000
0001
0000
,
0110
0000
0100
0000
,
1001
0000
0001
0000
,
0110
0000
0100
0000
,
0001
1000
0001
1000
,
0200
0000
0000
0300
,
2000
0000
3100
0010
,
0002
0000
2003
0000
,
3001
0010
0001
0010
,
0002
0000
0000
0003
,
0200
0000
0301
1000
,
0200
0000
0320
0000
,
0032
0000
1003
1000
,
0200
0000
1300
1000
,
0020
0000
0130
0100
,
0002
0000
1003
1000
,
0020
0000
0130
0100
,
0002
0000
0013
0010
,
0200
0000
1300
1000
,
0020
0000
0130
0100
,
0110
0010
1000
1000
,
0001
0001
1000
1000
,
0100
0100
0010
0010
,
0001
0001
0100
0100
,
0001
0001
1000
1000
,
0100
0100
1000
1000
,
0010
0010
0100
0100
,
0001
0001
1000
1000
,
1001
0000
0000
1001
0000
0000
0000
0000
;

//---------------dance-single - ----------------
#NOTES:
     dance-single:
     :
     Medium:
     7:
     0.310,0.335,0.167,0.065,0.000:
0000
0000
0000
0000
,
0000
0000
0000
0000
,
0000
0000
0000
0000
,
0000
0000
0000
0000
,
0000
0000
0000
0000
,
0000
0000
0000
0000
,
0000
0000
0000
0000
,
1000
0100
0010
0001
,
1000
0000
1000
0001
,
0010
0100
0010
0000
,
0001
0000
1000
0001
,
1000
0100
0010
0001
,
0100
0000
0100
0010
,
1000
0000
1000
0000
,
0001
0010
0100
1000
,
0010
0100
0010
0000
1000
0000
1000
0000
,
0100
0010
0001
0000
0100
0000
0100
0000
,
0010
1000
0100
0000
0010
0000
0010
0000
,
0001
0010
0100
0000
1000
0000
1000
0000
,
0001
0100
0010
0000
0100
0000
0100
0000
,
0001
1000
0100
0000
1000
0000
1000
0000
,
0100
0010
0001
0000
0100
0000
0100
0000
,
0010
1000
0100
1000
0010
0000
0010
0000
,
1001
0000
0000
1000
0000
0000
0000
0000
,
1001
0000
0000
0001
0000
0000
0000
0000
,
0110
0000
0000
0100
0000
0000
0000
0000
,
0110
0000
0000
0010
0000
0000
0000
0000
,
1100
0000
0000
1000
0000
0000
0000
0000
,
0101
0000
0000
0100
0000
0000
0000
0000
,
0011
0000
0000
0001
0000
0000
0000
0000
,
1010
0000
0000
1000
0000
0000
0000
0000
,
0010
0100
0010
0100
0010
0100
0010
0100
,
0002
0000
0000
0000
0000
0000
1003
0100
,
2000
0000
0000
0000
3001
0000
0100
0010
,
0200
0000
0302
0000
,
1003
0001
1000
0001
1000
0001
1000
0001
,
0020
0000
0000
0000
0000
0000
0031
1000
,
0002
0000
0000
0000
0013
0000
0100
1000
,
0200
0000
1300
0001
,
0100
0010
0100
0000
0100
0000
1001
0000
,
0010
0100
0010
0000
0010
0000
1001
0000
,
0100
0010
0100
0000
0100
0000
1001
0000
,
0010
0100
0010
0000
0010
0000
1001
0000
,
0010
0001
0010
0000
0010
0000
0110
0000
,
0100
1000
0100
0000
0100
0000
1100
0000
,
0010
0100
0010
0000
0010
0000
0110
0000
,
0100
0010
0100
0000
0100
0000
0110
0000
,
0001
1000
0100
0000
1000
0100
0010
0000
,
0001
1000
0100
0000
1000
0100
0010
0000
,
0001
1000
0010
0000
1000
0010
0100
0000
,
0001
1000
0010
0000
1000
0010
0100
0000
,
0001
0010
0100
0000
0010
0001
0100
0000
,
0001
0010
0100
0000
0010
0001
0100
0000
,
0001
0010
0100
0000
1000
0001
0100
0000
,
0001
1000
0010
0000
1000
0100
0010
0000
,
1001
0000
0000
1001
0000
0000
0000
0000
;

//---------------dance-single - ----------------
#NOTES:
     dance-single:
     :
     Hard:
     12:
     0.569,0.592,0.167,0.028,0.544: // measure 1
0000
0000
0000
0000
,  // measure 2
0000
0000
0000
0000
,  // measure 3
0000
0000
0000
0000
,  // measure 4
0000
0000
0000
0000
,  // measure 5
0000
0000
0000
0000
,  // measure 6
0000
0000
0000
0000
,  // measure 7
0000
0000
0000
0000
,  // measure 8
1000
0000
0100
0000
0010
0000
0001
0000
1000
0000
0001
0100
0001
0000
1000
0010
,  // measure 9
2000
0000
0000
0000
0000
0000
3001
1000
0001
0000
1000
0000
0100
0000
0010
0000
,  // measure 10
0002
0000
0100
0103
0001
0000
1000
0100
,  // measure 11
0010
0000
0000
0010
0000
0000
0010
0001
0010
0000
0100
1000
0100
0000
1000
0000
,  // measure 12
0001
0000
0100
0000
0010
0000
1000
0000
0001
0000
1000
0100
1000
0000
0001
0010
,  // measure 13
0002
0000
0000
0000
0000
0000
0103
0010
0100
0000
0001
0000
0100
0000
0010
0000
,  // measure 14
1000
0000
0000
1000
0000
0000
1000
0000
0001
0000
0000
0000
0100
0000
0000
0000
,  // measure 15
0010
0100
0010
0100
0001
1000
0001
1000
,  // measure 16
0100
0000
0100
0000
0100
0000
1000
0001
0000
0001
0000
0000
1001
0000
0000
0000
,  // measure 17
0010
0001
0000
0000
0001
0000
0100
0010
0000
0010
0000
0000
0110
0000
0000
0000
,  // measure 18
1000
0000
0100
1000
0100
0000
0010
0100
0000
0100
0000
0000
0110
0000
0000
0000
,  // measure 19
0001
0000
0001
0000
0001
0000
0100
0001
0000
0001
0000
0000
1001
0000
0000
0000
,  // measure 20
1000
0000
1000
0000
1000
0000
0100
0010
0000
0010
0000
0000
0110
0000
0000
0000
,  // measure 21
0100
1000
0000
0000
1000
0000
0010
0100
0000
0100
0000
0000
0110
0000
0000
0000
,  // measure 22
0001
0000
0010
0001
0010
0000
0100
0010
0000
0010
0000
0000
0110
0000
0000
0000
,  // measure 23
1000
0000
0001
0100
0001
0100
0001
0100
0000
0100
0000
0010
0100
0000
0100
0000
,  // measure 24
0101
0000
0000
1001
0000
0000
0000
0000
,  // measure 25
1000
0001
1000
0001
1000
0001
1000
0000
0000
0010
0100
0000
0100
0000
0000
0000
,  // measure 26
0101
0000
0000
1001
0000
0000
0000
0000
,  // measure 27
0100
1000
0100
1000
0100
0000
1000
0001
0000
0001
1000
0000
0010
0000
0100
0000
,  // measure 28
0110
0000
0000
0011
0000
0000
0000
0000
,  // measure 29
0010
0100
0010
0100
0010
0100
0010
0000
0000
1000
0001
0000
0001
0000
0000
0000
,  // measure 30
1001
0000
0000
1100
0000
0000
0000
0000
,  // measure 31
0100
0010
0100
0010
0100
0000
0001
0100
0000
0100
0001
0000
1000
0001
1000
0001
,  // measure 32
1000
0010
0010
0100
0100
0010
0010
1000
,  // measure 33
0100
0000
0010
0001
0000
0010
0001
0000
0000
0000
1000
0000
0001
0000
0010
0000
,  // measure 34
0100
0000
1000
0001
0000
1000
0001
0000
0000
0000
0100
0000
0010
0000
1000
0000
,  // measure 35
0100
0000
0010
0001
0000
0010
0001
0000
1000
0000
0000
0010
0000
0000
0100
0000
,  // measure 36
0001
1000
1000
0100
0100
1000
1000
0010
,  // measure 37
0100
0000
0001
1000
0000
0001
1000
0000
0000
0000
0100
0000
0010
0000
0001
0000
,  // measure 38
0100
0000
0010
1000
0000
0010
1000
0000
0000
0000
0100
0000
0010
0000
0001
0000
,  // measure 39
0100
0000
0001
1000
0000
0001
1000
0000
0100
0000
0010
0000
0100
0000
0000
0000
,  // measure 40
1000
0000
0010
1000
0000
0010
1000
0000
0001
0010
0001
0000
1000
0000
0100
0000
,  // measure 41
0010
0000
0001
0100
0000
0001
1000
0000
0100
0010
0100
0000
1000
0000
0000
0000
,  // measure 42
0010
0000
0100
0001
0000
1000
0100
0000
1000
0001
1000
0000
0100
0000
0010
0000
,  // measure 43
0001
0000
0100
0010
0000
0100
0001
0000
1000
0100
1000
0000
0001
0000
0000
0000
,  // measure 44
0010
0000
0100
1000
0000
0010
0100
0000
0001
1000
0001
1000
0001
0000
0010
0000
,  // measure 45
0100
0000
0010
0001
0000
0100
0010
0000
1000
0001
1000
0001
1000
0000
0000
0000
,  // measure 46
0100
0000
1000
0100
0000
1000
0001
0000
0100
0010
0100
0010
0100
0000
0001
0000
,  // measure 47
1000
0000
0100
0000
1000
0000
0001
0000
0100
0000
0001
0000
1000
0001
1000
0001
,  // measure 48
1000
0000
0001
0100
0000
0100
0001
0000
1000
0100
1000
0100
1000
0000
0001
0000
,  // measure 49
0100
0000
0001
1000
0000
1000
0001
0000
0010
0100
0010
0100
0010
0000
0001
0000
,  // measure 50
1000
0000
0100
1000
0000
1000
0100
0000
0010
0100
0010
0100
0010
0000
0001
0000
,  // measure 51
1000
0000
0001
0000
0100
0000
0001
1000
0100
0000
0001
0000
0100
0000
1000
0000
,  // measure 52
0010
0000
0100
0010
0000
0010
0100
0000
0001
1000
0001
1000
0001
0000
0010
0000
,  // measure 53
0100
0000
1000
0010
0000
0010
1000
0000
0100
0010
0100
0010
0100
0000
1000
0000
,  // measure 54
0001
0000
0100
0010
0000
0010
0100
0000
0001
0010
0001
0010
0001
0000
1000
0000
,  // measure 55
0100
0000
1000
0000
0001
0000
1000
0001
0100
0000
1000
0000
0100
0000
0001
0000
,  // measure 56
1001
0000
0000
1001
0000
0000
1100
0000
0000
0000
0000
0000
0000
0000
0000
0000
;

//---------------dance-double - ----------------
#NOTES:
     dance-double:
     :
     Easy:
     4:
     0.205,0.232,0.149,0.121,0.000:
00000000
00000000
00000000
00000000
,
00000000
00000000
00000000
00000000
,
00000000
00000000
00000000
00000000
,
00000000
00000000
00000000
00000000
,
00000000
00000000
00000000
00000000
,
00000000
00000000
00000000
00000000
,
00000000
00000000
00000000
00000000
,
10000000
00000000
00010000
00000000
,
10010000
00000000
00100000
00000000
,
01100000
00000000
00001000
00000000
,
00011000
00000000
00010000
00000000
,
00000100
00000000
00000010
00000000
,
00000110
00000000
00000001
00000000
,
00001000
00000000
00000010
00000000
,
00010000
00000000
00100000
00000000
,
01100000
00100000
00100000
00000000
,
10000000
10000000
10000000
00000000
,
00001000
00001000
00001000
00000000
,
00100000
00100000
00100000
00000000
,
00010000
00010000
00010000
00000000
,
00001000
00001000
00001000
00000000
,
00000010
00000010
00000010
00000000
,
00000100
00000100
00000100
00000000
,
00001001
00000000
00000000
00000000
,
00000110
00000000
00000000
00000000
,
00011000
00000000
00000000
00000000
,
10001000
00000000
10000000
00000000
,
01100000
00000000
00000000
00000000
,
10001000
00000000
00000000
00000000
,
00011000
00000000
00010000
00000000
,
00010001
00000000
00000001
00000000
,
00000010
00000100
00000010
00000100
,
00020000
00000000
00000000
00030000
,
00002000
00000000
00103000
01000000
,
20000000
00000000
30020000
00000000
,
01030000
00100000
01000000
00100000
,
20000000
00000000
00000000
30000000
,
00002000
00000000
00013000
00001000
,
00020000
00000000
00030100
00000010
,
00000001
00000100
00000001
00000100
,
00000020
00000000
00020030
00000000
,
00031000
00100000
00001000
00100000
,
00020000
00000000
02030000
00000000
,
03010000
10000000
00010000
10000000
,
00020000
00000000
10030000
00000000
,
00001000
00010000
00001000
00010000
,
00002000
00000000
00013000
00010000
,
00010001
00000001
00000001
00000000
,
00000010
00000010
00000010
00000000
,
00000100
00000100
00000100
00000000
,
00010000
00010000
00010000
00001000
,
00100000
00100000
00100000
00000000
,
01000000
01000000
01000000
00000000
,
10000000
10000000
10000000
00000000
,
00100000
00100000
01000000
00001000
,
00011000
00000000
00000000
00011000
00000000
00000000
00000000
00000000
;

//---------------dance-double - ----------------
#NOTES:
     dance-double:
     :
     Medium:
     8:
     0.348,0.386,0.112,0.074,0.042:
00000000
00000000
00000000
00000000
,
00000000
00000000
00000000
00000000
,
00000000
00000000
00000000
00000000
,
00000000
00000000
00000000
00000000
,
00000000
00000000
00000000
00000000
,
00000000
00000000
00000000
00000000
,
00000000
00000000
00000000
00000000
,
10000000
01000000
10000000
00000000
00100000
01000000
00100000
00000000
,
01100000
00000000
00000000
00000000
00001000
01000000
00001000
00000000
,
00010000
00000000
00001000
00010000
00000000
00000000
00000000
00000000
,
00000200
00000000
00000000
00000000
00000310
00000001
00000010
00000000
,
00000001
00001000
00000001
00000000
00010000
00000100
00010000
00000000
,
00011000
00000000
00001000
10000000
,
01000000
00010000
01000000
10000000
,
00100000
01000000
00100000
00000000
10000000
00010000
10000000
00000000
,
00001000
00010000
00001000
00010000
00001000
00000000
00001000
00000000
,
00010000
00000010
00010000
00000010
00010000
00000000
00010000
00000000
,
00000100
00000010
00000100
00000010
00000100
00000000
00000100
00000000
,
00001000
00000010
00001000
00000010
00001000
00000000
00001000
00000000
,
00000001
00000010
00000001
00000010
00000001
00000000
00000001
00000000
,
00010000
00001000
00010000
00001000
00010000
00000000
00010000
00000000
,
00001000
01000000
00001000
01000000
00001000
00000000
00001000
00000000
,
00100000
01000000
10000000
01000000
00100000
01000000
10000000
00000000
,
11000000
00000000
00000000
01000000
00000000
00000000
00000000
00000000
,
01100000
00000000
00000000
00100000
00000000
00000000
00000000
00000000
,
10001000
00000000
00000000
00001000
00000000
00000000
00000000
00000000
,
00011000
00000000
00000000
00010000
00000000
00000000
00000000
00000000
,
00000110
00000000
00000000
00000010
00000000
00000000
00000000
00000000
,
00000101
00000000
00000000
00000001
00000000
00000000
00000000
00000000
,
00011000
00000000
00000000
00010000
00000000
00000000
00000000
00000000
,
01100000
00000000
00000000
01000000
00000000
00000000
00000000
00000000
,
10000000
00010000
10000000
00010000
10000000
00010000
10000000
00010000
,
00200000
00000000
00000000
00000000
00300000
00000000
00001000
00010000
,
00002000
00000000
00000000
00000000
00013000
00000000
00000010
00000100
,
00000020
00000000
00000230
00000000
,
00000301
00001000
00000001
00001000
00000001
00001000
00000001
00001000
,
00000200
00000000
00000000
00000000
00000300
00000000
00010000
00001000
,
00020000
00000000
00000000
00000000
00031000
00000000
00100000
01000000
,
00200000
00000000
00310000
10000000
,
00010000
10000000
00010000
10000000
01000000
10000000
01000000
00000000
,
00100000
00010000
00100000
00010000
01000000
00001000
01000000
00000000
,
00001000
00010000
00001000
00010000
00000100
00000010
00000100
00000000
,
00001000
00000010
00001000
00000010
00000100
00000001
00000010
00000000
,
00000100
00010000
00000100
00010000
00001000
00100000
01000000
00000000
,
10000000
01000000
10000000
01000000
00100000
00010000
01000000
00000000
,
00100000
10000000
00100000
00000000
00010000
00100000
00001000
00000000
,
00100000
01000000
00100000
01000000
10000000
00010000
01000000
00000000
,
00010000
00000000
00000000
00010000
00000000
00000000
00010000
00000000
00100000
00000000
01000000
00000000
10000000
00000000
00000000
00000000
,
00001000
00000000
00000000
00001000
00000000
00000000
00001000
00000000
10000000
00000000
00100000
00000000
01000000
00000000
00000000
00000000
,
00010000
00000000
00000000
00010000
00000000
00000000
00010000
00000000
00001000
00000000
00000010
00000000
00000100
00000000
00000000
00000000
,
00000001
00000000
00000000
00000001
00000000
00000000
00000001
00000000
00001000
00000000
00000100
00000000
00000010
00000000
00000000
00000000
,
00000100
00000000
00000000
00000100
00000000
00000000
00000100
00000000
00010000
00000000
00001000
00000000
00100000
00000000
00000000
00000000
,
01000000
00000000
00000000
01000000
00000000
00000000
01000000
00000000
10000000
00000000
00010000
00000000
00100000
00000000
00000000
00000000
,
01000000
00000000
00000000
01000000
00000000
00000000
01000000
00000000
10000000
00000000
01000000
00000000
00100000
00000000
00000000
00000000
,
00001000
00000000
00000000
00001000
00000000
00000000
00001000
00000000
00010000
00000000
00000100
00000000
00000010
00000000
00000000
00000000
,
00001001
00000000
00000000
00000001
00000000
00000000
00001001
00000000
00000000
00000000
00000000
00000000
00000000
00000000
00000000
00000000
;

//---------------dance-double - ----------------
#NOTES:
     dance-double:
     :
     Hard:
     12:
     0.570,0.592,0.167,0.028,0.544:
00000000
00000000
00000000
00000000
,
00000000
00000000
00000000
00000000
,
00000000
00000000
00000000
00000000
,
00000000
00000000
00000000
00000000
,
00000000
00000000
00000000
00000000
,
00000000
00000000
00000000
00000000
,
00000000
00000000
00000000
00000000
,
10000000
00000000
00010000
00000000
00100000
00000000
01000000
00000000
10000000
00000000
00001000
01000000
00001000
00000000
00010000
00001000
,
00020000
00000000
00000000
00000000
00000000
00000000
00030010
00000100
00000010
00000000
00001000
00000000
00000001
00000000
00000010
00000000
,
00000200
00000000
00010000
00010300
00001000
00000000
00100000
01000000
,
10000000
00000000
00000000
10000000
00000000
00000000
10000000
00100000
10000000
00000000
00010000
01000000
00010000
00000000
00100000
00000000
,
01000000
00000000
00100000
00000000
00001000
00000000
00010000
00000000
00000100
00000000
00000010
00000001
00000010
00000000
00000001
00001000
,
00000002
00000000
00000000
00000000
00000000
00000000
00010003
00000100
00010000
00000000
00001000
00000000
00100000
00000000
01000000
00000000
,
10000000
00000000
00000000
10000000
00000000
00000000
10000000
00000000
00010000
00000000
00000000
00000000
00100000
00000000
00000000
00000000
,
01000000
10000000
00100000
01000000
00010000
10000000
00100000
01000000
,
00001000
00000000
00001000
00000000
00001000
00000000
00010000
00000010
00000000
00000010
00000000
00000000
00010010
00000000
00000000
00000000
,
00000100
00000010
00000000
00000000
00000010
00000000
00001000
00000001
00000000
00000001
00000000
00000000
00001001
00000000
00000000
00000000
,
00000100
00000000
00000100
00000010
00000100
00000000
00000001
00010000
00000000
00010000
00000000
00000000
00010001
00000000
00000000
00000000
,
00001000
00000000
00001000
00000000
00001000
00000000
01000000
00100000
00000000
00100000
00000000
00000000
01100000
00000000
00000000
00000000
,
10000000
00000000
10000000
00000000
10000000
00000000
00010000
01000000
00000000
01000000
00000000
00000000
01010000
00000000
00000000
00000000
,
00100000
01000000
00000000
00000000
01000000
00000000
00001000
00010000
00000000
00010000
00000000
00000000
00011000
00000000
00000000
00000000
,
00010000
00000000
00010000
00001000
00010000
00000000
00000100
00000010
00000000
00000010
00000000
00000000
00000110
00000000
00000000
00000000
,
00000001
00000000
00001000
00000010
00001000
00000010
00001000
00000010
00000000
00000010
00000000
00010000
00001000
00000000
01000000
00000000
,
01001000
00000000
00000000
01100000
00000000
00000000
00000000
00000000
,
01000000
00100000
01000000
00100000
01000000
00100000
01000000
00000000
00000000
00010000
10000000
00000000
10000000
00000000
00000000
00000000
,
10010000
00000000
00000000
00101000
00000000
00000000
00000000
00000000
,
00001000
00010000
00001000
00010000
00001000
00000000
00010000
00000010
00000000
00000010
00010000
00000000
00000100
00000000
00000010
00000000
,
00000011
00000000
00000000
00001001
00000000
00000000
00000000
00000000
,
00000100
00000001
00000100
00000001
00000100
00000001
00000100
00000000
00000000
00000001
00010000
00000000
00010000
00000000
00000000
00000000
,
00010100
00000000
00000000
00011000
00000000
00000000
00000000
00000000
,
00001000
10000000
00001000
10000000
00001000
00000000
00100000
00010000
00000000
00010000
00100000
00000000
01000000
00100000
01000000
00100000
,
01000000
10000000
10000000
00010000
00010000
10000000
10000000
01000000
,
00100000
00000000
00001000
00100000
00000000
00001000
00100000
00000000
00000000
00000000
00001000
00000000
00010000
00000000
00000100
00000000
,
00000010
00000000
00000001
00000100
00000000
00000001
00000100
00000000
00000000
00000000
00000001
00000000
00001000
00000000
00000100
00000000
,
00000010
00000000
00000100
00010000
00000000
00000100
00010000
00000000
00001000
00000000
00000000
01000000
00010000
00000000
00100000
00000000
,
01000000
10000000
10000000
00010000
00010000
01000000
01000000
00010000
,
00001000
00000000
00000010
00000100
00000000
00000010
00000100
00000000
00000000
00000000
00000001
00000000
00001000
00000000
00000100
00000000
,
00000010
00000000
00000100
00001000
00000000
00000100
00001000
00000000
00000000
00000000
00010000
00000000
01000000
00000000
00100000
00000000
,
10000000
00000000
01000000
10000000
00000000
01000000
10000000
00000000
00001000
00000000
00100000
00000000
00001000
00000000
00000000
00000000
,
00100000
00000000
01000000
10000000
00000000
01000000
10000000
00000000
00010000
10000000
00010000
00000000
00100000
00000000
00001000
00000000
,
00010000
00000000
00000100
00000010
00000000
00000100
00000010
00000000
00000001
00000100
00000001
00000000
00010000
00000000
00000000
00000000
,
00001000
00000000
00100000
01000000
00000000
00100000
01000000
00000000
10000000
00010000
10000000
00000000
00100000
00000000
01000000
00000000
,
00001000
00000000
00010000
00001000
00000000
00010000
00001000
00000000
00010000
00000010
00010000
00000000
00000001
00000000
00000000
00000000
,
00000010
00000000
00000100
00001000
00000000
00000010
00000100
00000000
00000001
00001000
00000001
00001000
00000001
00000000
00000100
00000000
,
00000010
00000000
00010000
00001000
00000000
00100000
01000000
00000000
10000000
00100000
10000000
00100000
10000000
00000000
00000000
00000000
,
00010000
00000000
01000000
00010000
00000000
01000000
00100000
00000000
10000000
00010000
10000000
00010000
10000000
00000000
01000000
00000000
,
00100000
00000000
00001000
00000000
00010000
00000000
00000100
00000000
00000010
00000000
00000100
00000000
00001000
00000001
00001000
00000001
,
00001000
00000000
00000001
00000100
00000000
00000100
00000001
00000000
00000010
00000100
00000010
00000100
00000010
00000000
00000001
00000000
,
00010000
00000000
00001000
01000000
00000000
01000000
00001000
00000000
10000000
00010000
10000000
00010000
10000000
00000000
01000000
00000000
,
00100000
00000000
00010000
01000000
00000000
01000000
00010000
00000000
10000000
00010000
10000000
00010000
10000000
00000000
00100000
00000000
,
01000000
00000000
00001000
00000000
00010000
00000000
00000100
00000010
00000001
00000000
00001000
00000000
00000001
00000000
00000010
00000000
,
00000100
00000000
00010000
00001000
00000000
00001000
00010000
00000000
00100000
01000000
00100000
01000000
00100000
00000000
01000000
00000000
,
10000000
00000000
00010000
01000000
00000000
01000000
00010000
00000000
10000000
00010000
10000000
00010000
10000000
00000000
01000000
00000000
,
00100000
00000000
00001000
00010000
00000000
00010000
00001000
00000000
00010000
00000010
00010000
00000010
00010000
00000000
00000100
00000000
,
00000010
00000000
00000001
00000000
00000010
00000000
00000100
00010000
00001000
00000000
01000000
00000000
00100000
00000000
10000000
00000000
,
10100000
00000000
00000000
10001000
00000000
00000000
00101000
00000000
00000000
00000000
00000000
00000000
00000000
00000000
00000000
00000000
;

//---------------dance-single - ----------------
#NOTES:
     dance-single:
     :
     Beginner:
     1:
     0.074,0.102,0.102,0.000,0.000:
0000
0000
0000
0000
,
0000
0000
0000
0000
,
0000
0000
0000
0000
,
0000
0000
0000
0000
,
0000
0000
0000
0000
,
0000
0000
0000
0000
,
0000
0000
0000
0000
,
1000
0000
0000
0000
,
0100
0000
0000
0000
,
1000
0000
0000
0000
,
0010
0000
0000
0000
,
0100
0000
0000
0000
,
0001
0000
0000
0000
,
1000
0000
0000
0000
,
0100
0000
0000
0000
,
1001
0000
0000
0000
,
0001
0000
0000
0000
,
1000
0000
0000
0000
,
1000
0000
0000
0000
,
0001
0000
0000
0000
,
0001
0000
0000
0000
,
1000
0000
0000
0000
,
1000
0000
0000
0000
,
0110
0000
0000
0000
,
0000
0000
0000
0000
,
0110
0000
0000
0000
,
0000
0000
0000
0000
,
1001
0000
0000
0000
,
0000
0000
0000
0000
,
1001
0000
0000
0000
,
0000
0000
0000
0000
,
0001
0000
0000
0000
,
0100
0000
0000
0000
,
0001
0000
0000
0000
,
1000
0000
0000
0000
,
0100
0000
0000
0000
,
0010
0000
0000
0000
,
0100
0000
0000
0000
,
0010
0000
0000
0000
,
1001
0000
0000
0000
,
0001
0000
0000
0000
,
0100
0000
0000
0000
,
0010
0000
0000
0000
,
1000
0000
0000
0000
,
0100
0000
0000
0000
,
1000
0000
0000
0000
,
0100
0000
0000
0000
,
1001
0000
0000
0000
,
0001
0000
0000
0000
,
1001
0000
0000
0000
,
1000
0000
0000
0000
,
0110
0000
0000
0000
,
0010
0000
0000
0000
,
0110
0000
0000
0000
,
0100
0000
0000
0000
,
1001
0000
0000
0000
;
