#TITLE:ランブルメドレー;
#SUBTITLE:;
#ARTIST:cutie smashers;
#TITLETRANSLIT:RUMBLE MEDLEY;
#SUBTITLETRANSLIT:;
#ARTISTTRANSLIT:;
#CREDIT:DigiMindAxel;
#BANNER:RUMBLE MEDLEY.png;
#BACKGROUND:RUMBLE MEDLEY-bg.png;
#LYRICSPATH:RUMBLE MEDLEY.lrc;
#CDTITLE:pop'n music.png;
#MUSIC:RUMBLE MEDLEY.ogg;
#METERTYPE:DDR X;
#OFFSET:-12.864;
#SAMPLESTART:14.486;
#SAMPLELENGTH:12.000;
#SELECTABLE:YES;
#BPMS:0.000=144.000,68.000=192.000,176.000=122.000;
#STOPS:;
#BGCHANGES:;

//---------------dance-single - ----------------
#NOTES:
     dance-single:
     :
     Easy:
     5:
     0.227,0.270,0.155,0.039,0.000:
2000
0000
3001
0000
,
1001
0000
1000
0000
,
0010
0100
0010
0000
,
1000
0000
0001
0000
,
0010
0001
0010
0000
,
0001
0000
1000
0000
,
0010
0100
0010
0000
,
0100
0001
0100
0000
,
0001
1000
0001
0000
,
0010
0001
0010
0000
,
0100
0010
0100
0000
,
1000
0010
1000
0000
,
0001
1000
0001
1000
,
0100
1000
0100
0000
,
0010
0100
0010
0000
,
0001
1000
0001
0000
,
0010
0001
0010
0001
,
0200
0000
0000
0000
,
0000
0000
0000
0000
,
0310
0000
0000
0110
0000
0000
0000
0000
,
0000
0000
0000
0000
,
1000
0000
0000
1001
0000
0000
0000
0000
,
0000
0000
0000
0000
,
0001
0000
0000
1001
0000
0000
0000
0000
,
0000
0000
0000
0000
,
0010
0000
0000
0110
0000
0000
0000
0000
,
0000
0000
0000
0000
,
1001
0000
1000
0000
,
1001
0000
0001
0000
,
1001
0000
1000
0000
,
1001
0000
0001
0000
,
0110
0000
1000
0000
,
0110
0000
0001
0000
,
0110
0000
1000
0000
,
0110
0000
0001
0000
,
1001
1000
0001
0000
,
0010
0001
0100
0000
,
0010
1000
0100
0000
,
1000
0001
0010
0000
,
1001
1000
0010
0000
,
0100
0001
0010
0000
,
0001
0010
0100
0000
,
0010
0100
1000
0001
,
2000
0000
0000
0000
,
3001
1000
0000
0001
,
1000
0100
0000
0010
,
0001
1000
0000
0010
,
0100
0001
0000
0000
,
1001
1000
0100
0000
,
0010
0001
0100
0000
,
0010
0100
0001
0000
,
0010
0100
1000
0000
,
0001
1000
0001
0000
,
0010
0001
0100
0000
,
0010
1000
0100
0000
,
1000
0100
0010
0001
,
1001
1000
0000
0001
,
0010
0001
0000
0100
,
0010
1000
0000
0010
,
0100
0001
0010
0100
,
1001
1000
1000
0001
,
1000
1000
0001
0000
,
0010
0010
0001
1000
,
0010
0010
1000
0000
,
1001
0001
0001
0010
,
0100
0100
0010
0001
,
1000
1000
0100
0010
,
0001
1000
0010
0100
,
2002
0000
0000
0000
,
0000
0000
3003
0000
;

//---------------dance-single - ----------------
#NOTES:
     dance-single:
     :
     Medium:
     8:
     0.399,0.459,0.380,0.171,0.000:
0100
0100
0110
0000
,
2001
0000
0000
0000
3100
0000
1000
0100
,
0020
0000
0130
0000
,
2000
0000
3001
0000
,
1000
0001
1000
0001
0000
0100
0000
0000
,
0020
0000
0000
0000
1030
0000
0001
1000
,
0002
0000
0013
0100
,
2000
0000
3001
0000
,
1000
0100
1000
0100
0000
0010
0000
0000
,
2000
0000
0000
0000
3001
0000
0010
0001
,
0200
0000
0310
1000
,
0020
0000
0130
0000
,
0001
1000
0001
1000
0000
0100
0000
0000
,
0020
0000
0031
1000
,
0200
0000
0310
0001
,
2000
0000
3001
0000
,
1000
0100
1000
0100
0010
0001
1000
0000
,
1001
0000
0000
0000
0000
0001
1000
0000
,
1000
1000
1000
1000
,
1001
0000
0000
2002
0000
0000
0000
0000
,
0000
0000
3003
0000
,
0101
0000
0000
0202
0000
0000
0000
0000
,
0000
0000
0303
0000
,
0110
0000
0000
0220
0000
0000
0000
0000
,
0000
0000
0330
0000
,
1100
0000
0000
2200
0000
0000
0000
0000
,
0000
0000
3300
0000
,
1001
0001
0011
0001
,
1001
0001
0011
0001
,
1001
1000
1010
1000
,
1001
1000
1010
1000
,
1001
0001
0011
0001
,
1001
0001
0011
0010
,
0110
0100
1100
0100
,
0110
0010
0011
0001
,
1001
0000
1000
0010
1000
0000
0001
0100
,
0001
0000
1000
0010
1000
0000
0001
0000
,
1001
0000
1000
0100
1000
0000
0001
0010
,
0001
0000
1000
0100
1000
0000
0001
0000
,
1001
0000
1000
0001
1000
0000
0010
0100
,
0010
0000
1000
0001
1000
0000
0100
0000
,
0110
0000
0001
1000
0001
0000
0010
0100
,
0010
0000
0001
1000
0001
0000
0010
0000
,
0100
0000
1000
0001
0000
0000
0000
0000
,
1000
0100
1000
0000
0000
0001
1001
0000
,
0100
0001
0100
0000
0000
0001
1001
0000
,
1000
0100
1000
0000
0000
0010
0110
0000
,
0001
0100
0001
0000
1000
0000
0100
0000
,
1001
0000
0001
0000
0000
0100
0110
0000
,
0100
1000
0100
0000
0000
1000
1001
0000
,
0001
0010
0001
0000
0000
0100
0110
0000
,
1000
0010
1000
0000
0001
0000
1000
0000
,
1001
0000
0001
0000
0000
0100
0110
0000
,
1000
0100
1000
0000
0000
0001
0101
0000
,
0010
0100
0010
0000
0000
1000
1001
0000
,
0010
0001
0010
0000
0001
0000
1000
0000
,
1100
0000
0100
0000
0000
1000
1001
0000
,
0010
0001
0100
0000
0000
0010
0110
0000
,
0010
0100
1000
0000
0000
0001
1001
0000
,
1000
0100
0010
0000
0100
0000
0001
0000
,
1001
0000
1000
0100
1000
0100
1000
0100
,
0010
0001
0010
0001
0010
0001
1000
0000
,
0010
1000
0010
1000
0010
1000
0010
0100
,
0001
0100
0001
0100
0001
1000
0100
0000
,
1001
0000
1000
0001
1000
0001
1000
0001
,
0100
0001
0100
0001
0100
0001
1000
0000
,
0100
1000
0100
1000
0100
1000
0100
1000
,
0010
0100
0010
0100
0010
0100
0001
0000
,
2002
0000
0000
0000
,
0000
0000
3003
0000
;

//---------------dance-single - ----------------
#NOTES:
     dance-single:
     :
     Hard:
     13:
     0.629,0.674,0.489,0.124,0.198: // measure 1
2000
0000
0000
0000
3002
0000
0000
0000
1003
0001
1000
0001
0100
0001
0100
0001
,  // measure 2
1000
0100
0010
0100
1000
0010
0100
0010
,  // measure 3
0200
0301
2000
3100
,  // measure 4
1000
0001
0010
0100
0010
0001
1000
0000
,  // measure 5
0001
0100
1000
0100
0001
1000
0100
0000
,  // measure 6
1000
0010
0100
0010
1000
0100
0010
0100
,  // measure 7
0020
0031
2000
3010
,  // measure 8
1000
0001
0010
0100
1000
0001
0010
0000
,  // measure 9
0001
0010
1000
0010
0001
1000
0100
0000
,  // measure 10
1002
0000
0013
0000
0200
0000
0310
0001
,  // measure 11
1000
0001
0100
1000
0100
0001
1000
0000
,  // measure 12
1200
0310
0002
1003
,  // measure 13
0001
0010
0100
0010
0001
1000
0010
0000
,  // measure 14
0100
0000
0010
0000
0100
0000
0010
0000
1000
0100
1000
0000
0001
0000
0000
0000
,  // measure 15
0100
0000
0001
0000
0100
0000
0001
0000
0010
0100
0010
0000
0001
0000
0000
0000
,  // measure 16
0100
0000
0001
0000
0100
0000
0001
0000
1000
0100
1000
0000
0001
0000
0000
0000
,  // measure 17
0010
0000
0010
0000
0100
0000
1000
0000
0001
0100
0001
0000
1000
0100
1000
0000
,  // measure 18
1001
0000
0000
0000
0000
0000
0000
0000
0000
0000
0001
1000
0001
0000
0010
0000
,  // measure 19
0100
0000
1000
0001
1000
0000
0100
0000
0010
0000
0001
1000
0001
0000
1000
0000
,  // measure 20
1001
0000
0010
2010
0000
0000
0001
0000
,  // measure 21
0001
0001
0001
3001
,  // measure 22
0110
0000
1000
1200
0000
0000
1000
0000
,  // measure 23
1000
1000
1000
1300
,  // measure 24
1001
0000
0100
0102
0000
0000
1000
0000
,  // measure 25
1000
1000
1000
1003
,  // measure 26
0001
1000
0001
1000
0100
1000
0100
1000
,  // measure 27
0001
0000
0100
0000
0010
0000
1000
0001
1000
0000
0010
0000
0100
0000
0001
0000
,  // measure 28
1001
0000
0001
1000
0100
0010
0100
1000
,  // measure 29
0001
0010
0100
0010
0001
1000
0100
0000
,  // measure 30
1000
0001
0100
0010
0100
0001
1000
0010
,  // measure 31
0100
0010
1000
0001
0100
0010
1000
0000
,  // measure 32
1001
0000
1000
0100
0001
0100
1000
0001
,  // measure 33
0010
0001
1000
0100
0001
0100
1000
0000
,  // measure 34
1001
0000
0001
0100
1000
0100
0001
0010
,  // measure 35
0100
0000
1000
0000
0010
0100
0010
0000
0100
0000
0010
0000
0100
0000
0010
0000
,  // measure 36
1010
0000
1000
0001
0010
1000
0001
0010
,  // measure 37
0100
0001
1000
0001
0010
0100
1000
0000
,  // measure 38
1001
0000
0001
1000
0010
0001
0010
0100
,  // measure 39
0001
0000
1000
0010
1000
0000
0100
0000
0010
0000
0001
0000
1000
0000
0000
0000
,  // measure 40
1001
0000
0001
1000
0010
0100
1000
0100
,  // measure 41
0001
1000
0010
0001
0010
1000
0001
0000
,  // measure 42
1001
0000
1000
0001
0100
0010
0001
0010
,  // measure 43
1000
0000
0001
0000
0100
0000
0010
1000
0010
0000
1000
0000
0100
0000
0010
0001
,  // measure 44
0010
0001
1000
0020
0000
0000
0000
0030
,  // measure 45
1001
1000
0100
0000
0000
1100
0101
0000
,  // measure 46
0010
1000
1001
0000
0001
0100
0110
0000
,  // measure 47
1000
0001
0011
0000
0000
1010
1001
0000
,  // measure 48
1000
0000
0010
0000
0110
0000
0000
0000
0010
0001
0010
0000
0100
0010
0100
0000
,  // measure 49
1100
1000
1001
0000
0100
0101
1001
0000
,  // measure 50
0010
0000
0001
0000
1001
0000
0000
0000
0100
1000
0010
0000
0110
0000
0000
0000
,  // measure 51
0010
1000
1001
0000
0010
0011
1001
0000
,  // measure 52
0100
0000
1000
0000
1010
0000
0000
0000
0100
0001
0100
0000
0010
0100
0010
0000
,  // measure 53
1010
0000
1000
0000
1001
0000
0000
0000
0010
0001
0010
0000
0101
0000
0000
0000
,  // measure 54
0100
0000
0001
0000
1001
0000
0000
0000
0100
1000
0100
1000
0100
0000
0000
0000
,  // measure 55
0010
0000
0100
0000
1001
0000
0000
0000
0001
0010
0001
0000
1001
0000
0000
0000
,  // measure 56
0100
0000
0010
0000
1001
0000
0000
0000
1000
0100
1000
0100
0010
0001
0010
0001
,  // measure 57
1000
0000
0010
0000
1010
0000
0000
0000
0100
0010
0100
0000
1001
0000
0000
0000
,  // measure 58
0001
0000
0010
0000
0011
0000
0000
0000
0100
0010
0100
0010
0100
0000
0000
0000
,  // measure 59
1000
0000
0001
0000
0011
0000
0000
0000
0100
1000
0100
0000
1001
0000
0000
0000
,  // measure 60
0010
0000
0001
0000
0101
0000
0000
0000
0010
1000
0010
1000
0001
0100
0001
0100
,  // measure 61
0001
0000
0010
0000
1100
0000
1000
0000
0010
0100
0010
0000
1010
0000
0000
0000
,  // measure 62
1000
0000
0001
0000
0101
0000
0100
0000
0010
1000
0010
0000
1001
0000
0000
0000
,  // measure 63
0100
0000
0010
0000
1001
0000
0001
0000
1000
0010
1000
0000
1001
0000
0000
0000
,  // measure 64
0001
0000
1000
0000
0100
0000
0100
0000
0010
0001
0010
0001
0100
0010
0000
0000
,  // measure 65
1001
0000
1000
0000
1100
0000
0100
0000
0010
0001
0010
0000
1001
0000
0000
0000
,  // measure 66
0001
0000
0100
0000
0110
0000
0010
0000
1000
0001
1000
0000
1010
0000
0000
0000
,  // measure 67
0010
0000
0100
0000
0101
0000
0001
0000
1000
0100
1000
0000
1001
0000
0000
0000
,  // measure 68
0001
0000
1000
0000
1100
0000
0100
0000
0010
0001
0010
0001
0100
0010
0100
0010
,  // measure 69
2020
0000
0000
0000
,  // measure 70
0000
0000
3030
0000
;

//---------------dance-double - ----------------
#NOTES:
     dance-double:
     :
     Easy:
     5:
     0.231,0.324,0.155,0.039,0.000:
10000000
10000000
20000000
00000000
,
30010000
00000000
10000000
00000000
,
00001000
00010000
00001000
00000000
,
00010000
00000000
00000001
00000000
,
00000100
00000010
00000100
00000000
,
00000001
00000000
00010000
00000000
,
00001000
00100000
00001000
00000000
,
00100000
01000000
00100000
00000000
,
00001000
00010000
00001000
00000000
,
00010000
00000100
00010000
00000000
,
00000100
00000010
00000100
00000000
,
00001000
00000001
00001000
00000000
,
00000010
00000100
00000010
00010000
,
00001000
00010000
00001000
00000000
,
01000000
00100000
01000000
00000000
,
00010000
10000000
00010000
00000000
,
10000000
00100000
01000000
00001000
,
00020000
00000000
00000000
00000000
,
00000000
00000000
00000000
00000000
,
00031000
00000000
00000000
00011000
00000000
00000000
00000000
00000000
,
00000000
00000000
00000000
00000000
,
00000010
00000000
00000000
00000110
00000000
00000000
00000000
00000000
,
00000000
00000000
00000000
00000000
,
00000001
00000000
00000000
00001001
00000000
00000000
00000000
00000000
,
00000000
00000000
00000000
00000000
,
00010000
00000000
00000000
00011000
00000000
00000000
00000000
00000000
,
00000000
00000000
00000000
00000000
,
01000000
00000000
01000000
00000000
,
10010000
00000000
00010000
00000000
,
10010000
00000000
10000000
00000000
,
10010000
00000000
00100000
00000000
,
01100000
00000000
01000000
00000000
,
01100000
00000000
00100000
00000000
,
01100000
00000000
10000000
00000000
,
10001000
00000000
00001000
00000000
,
00011000
00010000
00001000
00000000
,
00010000
00000100
00000010
00000000
,
00000001
00000100
00000001
00000000
,
00000010
00000100
00010000
00000000
,
00011000
00001000
01000000
00000000
,
00100000
10000000
00010000
00000000
,
00100000
00010000
00100000
00000000
,
00001000
00010000
00001000
00010000
,
00000020
00000000
00000000
00000000
,
00000130
00000001
00000000
00000010
,
00000100
00000010
00000000
00000001
,
00000010
00000100
00000000
00010000
,
00000010
00010000
00000000
00000000
,
00011000
00001000
01000000
00000000
,
00100000
10000000
01000000
00000000
,
10000000
01000000
00100000
00000000
,
00000100
00100000
00000100
00000000
,
00010000
00001000
00010000
00000000
,
00000100
00000010
00000001
00000000
,
00000100
00000001
00001000
00000000
,
00000001
00000010
00000100
00010000
,
00001000
00001000
00000000
00010000
,
00001000
01000000
00000000
00100000
,
10000000
01000000
00000000
00100000
,
00001000
00010000
00001000
00010000
,
00011000
00001000
00001000
10001000
,
10000000
10000000
10000000
10001000
,
00001000
00001000
00001000
00011000
,
00010000
00010000
00010000
00010001
,
00000001
00000010
00000100
00010000
,
00001000
00001000
00100000
00010000
,
10000000
10000000
01000000
00100000
,
00010000
10000000
00001000
00010000
,
00022000
00000000
00000000
00000000
,
00000000
00000000
00033000
00000000
;

//---------------dance-double - ----------------
#NOTES:
     dance-double:
     :
     Medium:
     9:
     0.404,0.459,0.380,0.155,0.000:
10010000
10010000
02200000
03300000
,
02010000
00000000
00000000
00000000
03010000
00000000
10000000
01000000
,
20000000
00000000
30010000
00000000
,
02000000
00000000
03100000
00000000
,
10000000
01000000
00100000
00001000
00000000
00011000
00000000
00000000
,
00020000
00000000
00000000
00000000
00030100
00000000
00001000
00000010
,
00002000
00000000
00003001
00000010
,
00000200
00000000
00001300
00000000
,
00000001
00000100
00000010
00010000
00000000
00011000
00000000
00000000
,
00002000
00000000
00000000
00000000
01003000
00000000
00100000
01000000
,
00200000
00000000
01300000
00000000
,
00020000
00000000
10030000
00000000
,
00010000
10000000
01000000
00100000
00000000
00101000
00000000
00000000
,
00002000
00000000
00000000
00000000
00013000
00000000
00000001
00000010
,
00000002
00000000
00000000
00000000
00001003
00000000
00000010
00010000
,
00000020
00000000
00000130
00000000
,
00000001
00000100
00000010
00010000
00001000
00010000
00000000
00000000
,
00011000
00000000
00000000
00000000
00000000
00001000
10000000
00000000
,
10000000
10000000
10000000
10000000
,
10010000
00000000
00010000
20000000
00000000
00000000
00000000
00000000
,
00000000
00000000
30000000
00000000
,
01100000
00000000
00100000
02000000
00000000
00000000
00000000
00000000
,
00000000
00000000
03000000
00000000
,
00011000
00000000
00001000
00020000
00000000
00000000
00000000
00000000
,
00000000
00000000
00030000
00000000
,
00000110
00000000
00000010
00000200
00000000
00000000
00000000
00000000
,
00000000
00000000
00000000
00000300
00000000
00000000
00000000
00000000
,
00000101
00000100
00000110
00000100
,
00000101
00000100
00000110
00001000
,
00011000
00001000
00101000
00001000
,
00011000
00001000
00101000
00100000
,
01100000
00100000
10100000
00100000
,
01100000
00100000
10100000
10000000
,
10001000
10000000
11000000
10000000
,
10001000
10000000
11000000
00000000
,
10010000
00000000
10000000
01000000
10000000
00000000
00100000
01000000
,
00001000
00000000
00010000
00001000
00010000
00000000
00000010
00000000
,
00000110
00000000
00000100
00000001
00001000
00000000
00000100
00010000
,
00000100
00000000
00010000
00001000
01000000
00000000
00100000
00000000
,
01100000
00000000
10000000
01000000
10000000
00000000
00100000
01000000
,
00001000
00000000
00010000
00001000
00010000
00000000
00000010
00000000
,
00010010
00000000
00000100
00000010
00000100
00000000
00000001
00001000
,
00000100
00000000
00010000
00001000
00010000
00000000
00001000
00100000
,
01000000
10000000
01000000
00100000
00000000
00000000
00000000
00000000
,
00010000
10000000
00010000
00000000
00000000
10000000
11000000
00000000
,
00001000
00010000
00001000
00000000
00000000
00010000
00010100
00000000
,
00000010
00000100
00000010
00000000
00000000
00001000
00001001
00000000
,
00000100
00010000
00000100
00000000
00010000
00000000
00001000
00000000
,
10001000
00000000
10000000
00000000
00000000
01000000
01100000
00000000
,
00001000
00100000
00001000
00000000
00000000
00010000
00011000
00000000
,
00000001
00000100
00000001
00000000
00000000
00000010
00000110
00000000
,
00010000
00000100
00010000
00000000
00001000
00000000
10000000
00000000
,
10001000
00000000
00001000
00000000
00000000
00000100
00000101
00000000
,
00010000
00000100
00010000
00000000
00000000
00001000
00011000
00000000
,
01000000
00100000
01000000
00000000
00000000
00100000
10100000
00000000
,
10000000
00010000
10000000
00000000
01000000
00000000
00100000
00000000
,
00011000
00000000
00000010
00000000
00000000
00000100
00000110
00000000
,
00000001
00000010
00000100
00000000
00000000
00010000
00010100
00000000
,
00010000
00001000
01000000
00000000
00000000
00100000
01100000
00000000
,
10000000
01000000
00100000
00000000
00001000
00000000
00010000
00000000
,
00011000
00000000
00010000
00000100
00010000
00000100
00010000
00000100
,
00001000
00000001
00001000
00000001
00001000
00000001
00010000
00000000
,
00001000
00100000
00001000
00100000
00001000
00100000
00001000
10000000
,
00001000
10000000
00001000
10000000
00001000
10000000
01000000
00000000
,
10000000
01000000
10000000
01000000
10000000
01000000
10000000
00010000
,
00100000
00010000
00100000
00010000
00100000
00010000
10000000
00000000
,
00100000
10000000
00100000
10000000
00100000
10000000
00100000
10000000
,
00001000
00010000
00001000
00010000
00001000
00010000
00000010
00000000
,
00000220
00000000
00000000
00000000
,
00000000
00000000
00000330
00000000
;

//---------------dance-double - ----------------
#NOTES:
     dance-double:
     :
     Hard:
     13:
     0.621,0.674,0.512,0.140,0.186:
00011000
00000000
00000000
00000000
00011000
00000000
00000000
00000000
00010000
00001000
00010000
00001000
00010000
00000100
00010000
00000100
,
00010000
00000100
00000010
00000001
00010000
00000100
00000010
00000001
,
00000200
00000301
00020000
00030100
,
00010000
00001000
00100000
01000000
00100000
00001000
00010000
00000000
,
00001000
00100000
01000000
10000000
00001000
00100000
01000000
00000000
,
10000000
00010000
00100000
00010000
10000000
00100000
00010000
00100000
,
20000000
30001000
00200000
00301000
,
00010000
00000010
00000100
00000001
00000100
00000010
00010000
00000000
,
00000001
00000010
00001000
00000010
00000001
00010000
00001000
00000000
,
00012000
00000000
01003000
00000000
00200000
00000000
10300000
00010000
,
00100000
01000000
10000000
00010000
01000000
00100000
10000000
00000000
,
20010000
31000000
00200000
00301000
,
00010000
00000010
00000100
00000010
00010000
00001000
00010000
00000000
,
00000010
00000100
00000001
00000010
00000100
00010000
00001000
00000000
,
00100000
01000000
10000000
00100000
01000000
00001000
00010000
00000000
,
00000010
00000100
00000001
00000100
00000010
00001000
00010000
00000000
,
01000000
00000000
00100000
00000000
10000000
00000000
01000000
00000000
10000000
01000000
10000000
00000000
00001000
01000000
00001000
00000000
,
00011000
00000000
00000000
00000000
00000000
00000000
00000000
00000000
00000000
00000000
00010000
00001000
00010000
00000000
00000010
00000000
,
00000100
00000000
00000001
00001000
00000001
00000000
00000100
00000000
00000010
00000000
00010000
00001000
00010000
00000000
01000000
00000000
,
01100000
00000000
10000000
21000000
00000000
00000000
00010000
00000000
,
00010000
00010000
00010000
30010000
,
01100000
00000000
00001000
01002000
00000000
00000000
00010000
00000000
,
00010000
00010000
00010000
00013000
,
00011000
00000000
00000010
00000120
00000000
00000000
00001000
00000000
,
00001000
00001000
00001000
00001030
,
00000001
00001000
00000001
00001000
00000100
00000010
00000100
00001000
,
00000001
00000000
00000100
00000000
00000010
00000000
00010000
00000010
00010000
00000000
00001000
00000000
01000000
00000000
00100000
00000000
,
01100000
00000000
01000000
00020000
00000000
00000000
10030000
01000000
,
10000000
00010000
01000000
00100000
01000000
00001000
00010000
00000000
,
00000010
00000000
00001000
00000002
00000000
00000000
00000013
00000100
,
00001000
00000100
00000010
00000001
00001000
00000100
00010000
00000000
,
00011000
00000000
00001000
00200000
00000000
00000000
00310000
10000000
,
00100000
10000000
00010000
00100000
01000000
00100000
00010000
00000000
,
00011000
00000000
00010000
00000200
00000000
00000000
00001300
00000010
,
00000100
00000000
00000010
00000000
00001000
00000001
00001000
00000000
00000001
00000000
00001000
00000000
00000001
00000000
00001000
00000000
,
00001001
00000000
00000010
00000100
00000010
00001000
00000100
00000001
,
00000100
00010000
00001000
00100000
01000000
10000000
00010000
00000000
,
10010000
00000000
01000000
00100000
01000000
00010000
00100000
10000000
,
00100000
00000000
00001000
10000000
00001000
00000000
00010000
00000000
00000100
00000000
00000010
00000000
00000001
00000000
00000000
00000000
,
00001001
00000000
00001000
00000001
00001000
00000010
00000001
00000010
,
00010000
00001000
01000000
00100000
10000000
01000000
00100000
00000000
,
01100000
00000000
00100000
01000000
00010000
00100000
10000000
00100000
,
00001000
00000000
00010000
00000000
00000100
00000000
00000010
00000001
00000010
00000000
00000100
00000000
00001000
00000000
00000001
00000100
,
00000001
00010000
00001000
02000000
00000000
00000000
00000000
03000000
,
01100000
00100000
10000000
00000000
00000000
01001000
00011000
00000000
,
00010000
00000010
00000110
00000000
00000001
00001000
00001100
00000000
,
00000010
00001000
00001001
00000000
00000000
00010010
00011000
00000000
,
00100000
00000000
01000000
00000000
11000000
00000000
00000000
00000000
10000000
01000000
10000000
00000000
00010000
00100000
00010000
00000000
,
10010000
10000000
11000000
00000000
00010000
01010000
01001000
00000000
,
00001000
00000000
00010000
00000000
00010010
00000000
00000000
00000000
00000100
00000010
00000100
00000000
00000101
00000000
00000000
00000000
,
00000001
00001000
00001001
00000000
00000100
00001100
00011000
00000000
,
01000000
00000000
00100000
00000000
10100000
00000000
00000000
00000000
00010000
00100000
00010000
00000000
01000000
00100000
01000000
00000000
,
10010000
00000000
00010000
00000000
00110000
00000000
00000000
00000000
00001000
00010000
00001000
00000000
00010010
00000000
00000000
00000000
,
00000100
00000000
00000001
00000000
00001001
00000000
00000000
00000000
00000010
00000100
00000010
00000100
00000010
00000000
00000000
00000000
,
00001000
00000000
00000010
00000000
00010010
00000000
00000000
00000000
00001000
00010000
00001000
00000000
10001000
00000000
00000000
00000000
,
01000000
00000000
00100000
00000000
10010000
00000000
00000000
00000000
00010000
01000000
00010000
01000000
00001000
00010000
00001000
00010000
,
00000010
00000000
00000100
00000000
00000110
00000000
00000000
00000000
00000001
00000100
00000001
00000000
00001001
00000000
00000000
00000000
,
00001000
00000000
00000100
00000000
00010100
00000000
00000000
00000000
00010000
00001000
00010000
00001000
00010000
00000000
00000000
00000000
,
00001000
00000000
00100000
00000000
01100000
00000000
00000000
00000000
10000000
01000000
10000000
00000000
10010000
00000000
00000000
00000000
,
00100000
00000000
01000000
00000000
01001000
00000000
00000000
00000000
00001000
00010000
00001000
00010000
00000010
00000100
00000010
00000100
,
00000001
00000000
00010000
00000000
00010100
00000000
00010000
00000000
00001000
00010000
00001000
00000000
01001000
00000000
00000000
00000000
,
00010000
00000000
10000000
00000000
10010000
00000000
00010000
00000000
01000000
00100000
01000000
00000000
01010000
00000000
00000000
00000000
,
00001000
00000000
00010000
00000000
00010010
00000000
00000010
00000000
00000100
00000001
00000100
00000000
00000110
00000000
00000000
00000000
,
00000001
00000000
00001000
00000000
00001100
00000000
00000100
00000000
00010000
00001000
01000000
00100000
10000000
01000000
00000000
00000000
,
10010000
00000000
00010000
00000000
00110000
00000000
00100000
00000000
00001000
00010000
00001000
00000000
00010010
00000000
00000000
00000000
,
00000100
00000000
00000001
00000000
00001001
00000000
00001000
00000000
00000100
00010000
00000100
00000000
00010100
00000000
00000000
00000000
,
00001000
00000000
01000000
00000000
01100000
00000000
00100000
00000000
10000000
00010000
10000000
00000000
11000000
00000000
00000000
00000000
,
00010000
00000000
00100000
00000000
00101000
00000000
00001000
00000000
00010000
00000010
00010000
00000010
00000100
00000001
00000100
00000001
,
00002002
00000000
00000000
00000000
,
00000000
00000000
00003003
00000000
;

//---------------dance-single - ----------------
#NOTES:
     dance-single:
     :
     Beginner:
     2:
     0.087,0.158,0.054,0.000,0.000:
0000
0000
0000
0000
,
1000
0000
0000
0000
,
1000
0000
0000
0000
,
0001
0000
0000
0000
,
0001
0000
0000
0000
,
0010
0000
0000
0000
,
0100
0000
0000
0000
,
0010
0000
0000
0000
,
0100
0000
0000
0000
,
1000
0000
0000
0000
,
1000
0000
0000
0000
,
0001
0000
0000
0000
,
0001
0000
0000
0000
,
0100
0000
0000
0000
,
0010
0000
0000
0000
,
0100
0000
0000
0000
,
0010
0000
0000
0000
,
1001
0000
0000
0000
,
0000
0000
0000
0000
,
1001
0000
0000
0000
,
0000
0000
0000
0000
,
1001
0000
0000
0000
,
0000
0000
0000
0000
,
1001
0000
0000
0000
,
0000
0000
0000
0000
,
1001
0000
0000
0000
,
0000
0000
0000
0000
,
1000
0000
0000
0000
,
0100
0000
0000
0000
,
1000
0000
0000
0000
,
0010
0000
0000
0000
,
0100
0000
0000
0000
,
0010
0000
0000
0000
,
1000
0000
0000
0000
,
0001
0000
0000
0000
,
1000
0000
0000
0000
,
0001
0000
0000
0000
,
0010
0000
0000
0000
,
0001
0000
0000
0000
,
0010
0000
0000
0000
,
0100
0000
0000
0000
,
0010
0000
0000
0000
,
0100
0000
0000
0000
,
1000
0000
0000
0000
,
1001
0000
0000
0000
,
0001
0000
0000
0000
,
0010
0000
0000
0000
,
0100
0000
0000
0000
,
1000
0000
0000
0000
,
0001
0000
0000
0000
,
0010
0000
0000
0000
,
0100
0000
0000
0000
,
1000
0000
0000
0000
,
0010
0000
0000
0000
,
0100
0000
0000
0000
,
0001
0000
0000
0000
,
1000
0000
0000
0000
,
0010
0000
0000
0000
,
0100
0000
0000
0000
,
0001
0000
0000
0000
,
1000
0000
0100
0000
,
1000
0000
0100
0000
,
0010
0000
0001
0000
,
0010
0000
0001
0000
,
1000
0000
0010
0000
,
1000
0000
0010
0000
,
0100
0000
0001
0000
,
0100
0000
0001
0000
,
1001
0000
0000
0000
;
