#TITLE:QuoN;
#SUBTITLE:;
#ARTIST:Power Of Nature;
#TITLETRANSLIT:;
#SUBTITLETRANSLIT:;
#ARTISTTRANSLIT:;
#CREDIT:DigiMindAxel;
#BANNER:QuoN.png;
#BACKGROUND:QuoN-bg.png;
#LYRICSPATH:;
#CDTITLE:pop'n music.png;
#MUSIC:QuoN.ogg;
#METERTYPE:DDR X;
#OFFSET:-13.962;
#SAMPLESTART:21.094;
#SAMPLELENGTH:12.000;
#SELECTABLE:YES;
#BPMS:0.000=168.000,104.000=84.000,112.000=168.000,212.000=84.000,220.000=168.000,268.000=84.000;
#STOPS:;
#BGCHANGES:;

//---------------dance-single - ----------------
#NOTES:
     dance-single:
     :
     Easy:
     7:
     0.260,0.266,0.091,0.241,0.000:
0001
0001
1000
0001
,
1000
1000
0001
0010
,
0001
0001
0100
0010
,
1000
1000
0100
0010
,
0100
0000
0000
0000
,
1001
0001
0010
0100
,
0010
0001
0010
0100
,
0020
0000
0032
0000
,
0023
0000
0032
0000
,
0103
0010
1000
0010
,
0100
0010
1000
0010
,
0200
0000
0320
0000
,
0230
0000
0320
0000
,
1030
0100
0010
0100
,
1000
0100
0010
0100
,
2000
0000
3002
0000
,
2003
0000
3002
0000
,
0103
0010
0100
0001
,
0100
0010
0100
0001
,
2000
0000
3200
0000
,
2300
0000
0000
0000
,
3001
0000
0010
0000
,
0100
0100
0010
0010
,
0001
0000
0100
0000
,
0010
0010
1000
1000
,
0100
0010
0001
1000
,
0200
0000
2300
0000
,
3002
0000
0000
0000
2003
0000
0000
3000
,
1001
0000
0000
0000
,
1001
0000
0000
0000
,
0110
0000
1001
0000
,
1001
0000
0000
0000
,
0002
0000
0000
0000
,
1003
0100
0010
0001
,
1000
0100
0010
0001
,
1000
0010
0100
0001
,
1000
1000
0001
0001
,
0010
0001
0010
0001
,
0100
0010
0100
0010
,
1000
0100
1000
0100
,
1000
0001
0010
0100
,
2000
0000
0000
0000
,
3002
0000
0000
0000
,
2003
0000
0000
0000
,
3001
0001
0001
0001
,
0200
0000
0000
0000
,
0320
0000
0000
0000
,
0230
0000
0000
0000
,
0310
0010
0010
0010
,
1001
0000
0000
0000
,
0000
0110
0000
0000
0000
0000
0000
0000
,
0000
0110
0000
0000
,
0000
0000
0000
0000
,
1002
0000
2003
0000
,
3002
0000
2003
0000
,
3001
0100
0001
0000
,
1000
0100
1000
0000
,
0001
0010
0001
0010
,
0001
0001
0001
0001
,
1001
0100
0010
0001
,
1000
1000
0010
0100
,
0001
0001
1000
1000
,
0001
0010
0100
1000
,
0010
0010
0100
0100
,
0001
1000
0100
1000
,
0001
0001
0010
0010
,
0001
0100
0010
1000
,
0002
0000
1000
0000
,
1000
0000
0000
0000
1000
0000
0000
0003
,
2001
0000
0001
0000
,
0001
0000
3001
0000
;

//---------------dance-single - ----------------
#NOTES:
     dance-single:
     :
     Medium:
     11:
     0.455,0.425,0.362,0.121,0.026:
1001
0001
1000
0100
,
0010
0000
0001
0000
1000
0001
1000
0000
,
0001
0000
0010
0000
0100
0010
0100
0000
,
0010
0000
0001
0000
1000
0010
1000
0000
,
0002
0000
0000
0000
,
1003
1100
1000
1100
,
0010
0110
0010
0110
,
0001
0000
1000
0010
0100
0000
0001
0100
,
0010
0000
1000
0010
0100
0000
0001
0100
,
0010
0110
0010
0110
,
1000
1001
1000
1001
,
0001
0000
0010
0100
1000
0000
0100
0010
,
0001
0000
0010
0100
1000
0000
0100
0010
,
0001
1000
0001
0000
1000
0100
1000
0000
,
0001
0100
0001
0000
0100
0010
0100
0010
,
1000
0000
0001
0010
0100
0000
0010
0001
,
1000
0000
0010
0100
0001
0000
1000
0001
,
0100
0010
0100
0000
0001
1000
0100
0000
,
1000
0100
0010
0000
0001
1000
0010
1000
,
0001
0000
0010
0100
1000
0000
0001
0010
,
0100
1000
0100
0010
0001
1000
0100
0010
,
0001
1000
1001
0001
,
1010
1010
0101
0101
,
0100
0010
1010
1000
,
1001
1001
0110
0110
,
0001
0010
0011
0001
,
0200
0000
0320
0000
,
0230
0000
0000
0000
0320
0000
0000
0030
,
1001
0000
0000
1000
0000
0000
0000
0000
0010
0000
0000
0000
0010
0000
0000
0000
,
1001
0000
0000
0001
0000
0000
0000
0000
0100
0000
0000
0000
0100
0000
0000
0000
,
0110
0000
0000
0010
0000
0000
0000
0000
1001
0000
0000
1000
0000
0000
0000
0000
,
0001
0010
0100
1000
0001
0010
0100
1000
,
0002
0000
0000
0000
,
1003
0100
0010
0100
1000
0000
1100
0000
,
1001
0000
0001
0100
0010
0000
0110
0000
,
0101
0000
0010
1000
0100
0000
1100
0000
,
1001
0000
0001
0010
0100
0000
0110
0000
,
1010
0000
1000
0010
0100
0000
0110
0000
,
1010
0000
0010
0100
0001
0000
0101
0000
,
1001
0000
1000
0001
0010
0000
0011
0000
,
1001
0100
0010
0001
,
1001
0000
0000
1000
0000
0000
0000
0000
0010
0000
0000
0000
0010
0000
0000
0000
,
0110
0000
0000
0100
0000
0000
0000
0000
0001
0000
0000
0000
0001
0000
0000
0000
,
1001
0000
0000
1000
0000
0000
0000
0000
0010
0000
0100
0000
0010
0000
0100
0000
,
0010
1000
0100
0010
0001
0010
0100
1000
,
0001
0010
0001
0000
0001
1000
0010
0000
,
0100
0001
1000
0000
1000
0100
1000
0000
,
0001
0100
0010
1000
0010
0100
0001
1000
,
0100
0010
0100
1000
0100
0010
0100
1000
,
2002
0000
0000
0000
0000
0000
0000
3003
,
0000
2200
0000
0000
0000
0000
0000
0000
,
3300
0220
0000
0000
,
0000
0000
0000
0330
,
2001
0000
0000
3100
0200
0000
0000
0310
,
0020
0000
0000
0031
0002
0000
0000
1003
,
0001
0000
0000
0100
0000
0110
0000
0000
,
1000
0000
0000
0010
0000
0110
0000
0000
,
0001
1000
0001
0000
1000
0100
1000
0000
,
0010
0100
0010
0100
0010
0100
0010
0100
,
0001
0010
0100
0000
0010
0001
0010
0000
,
0100
0010
0100
0010
0001
0100
0001
0100
,
0010
1000
0010
0000
1000
0100
0010
0000
,
0100
1000
0100
1000
0010
0100
0010
0100
,
0001
0010
0100
0000
0010
0001
0010
0000
,
0001
1000
0001
1000
0010
1000
0010
1000
,
0001
0100
0001
0000
0100
0010
1000
0000
,
0100
0010
0100
0010
0001
1000
0001
1000
,
0100
0010
0001
0001
0001
0000
1000
0000
,
0001
0010
0100
1000
1000
0000
0010
0000
,
1001
0001
0100
0010
0010
1000
0001
0000
,
0010
0100
1000
0100
0010
0000
0000
0000
;

//---------------dance-single - ----------------
#NOTES:
     dance-single:
     :
     Hard:
     14:
     0.666,0.669,0.151,0.196,0.396:
0001
0100
0001
0100
0001
0010
1000
0010
,
0001
1000
0001
1000
0100
0001
0100
1000
,
0010
1000
0010
1000
0100
0001
0100
1000
,
0001
0100
0001
1000
0010
0001
0010
1000
,
0001
1000
0001
1000
0001
0000
1000
0001
1000
0001
1000
0000
0001
1000
0001
1000
,
0001
0000
0100
0000
0010
0000
0000
0010
0000
0000
1000
0000
0001
0000
0000
0001
,
0000
0000
0010
0000
0100
0000
0000
0100
0000
0000
1000
0000
0010
0000
0000
0010
,
0000
1000
0001
0010
0100
0010
0001
1000
,
0001
0010
0100
0010
0001
1000
0001
0100
,
0010
0000
1000
0000
0100
0000
0000
0100
0000
0000
1000
0000
0001
0000
0000
0001
,
0000
0000
0100
0000
0010
0000
0000
0010
0000
0000
1000
0000
0001
0000
0000
0001
,
0000
1000
0001
0100
0010
0100
0001
1000
,
0001
0100
0010
0100
0001
1000
0001
0100
,
0010
0000
0100
0000
0001
0100
0000
0001
0000
0000
0010
0000
0100
1000
0000
0100
,
0000
0000
1000
0000
0001
1000
0000
0001
0000
0000
1000
0000
0100
1000
0000
0100
,
0000
1000
0001
0010
1000
0010
0001
1000
,
0001
0100
1000
0100
0001
1000
0001
0010
,
0100
0000
1000
0000
0001
0100
0000
0001
0000
0000
0100
0000
0001
1000
0000
0001
,
0000
0000
0010
0000
0100
1000
0000
0100
0000
0000
1000
0000
0001
1000
0000
0100
,
0000
0000
1000
0000
0001
0000
0100
0000
1000
0000
0100
0000
0001
0000
1000
0001
,
1000
0001
1000
0001
1000
0001
1000
0000
0100
0010
0100
0000
1000
0001
1000
0000
,
0002
0000
1003
0000
0001
0010
0100
1000
,
0100
0100
0010
0010
0100
0100
0010
0010
,
0001
1000
0001
0000
1000
0010
0100
0001
,
1000
1000
0001
0001
1000
1000
0001
0001
,
0010
0100
1000
0001
0010
1000
0010
0001
,
2001
0000
3020
0000
,
0230
0000
0000
0000
0320
0000
0000
0030
,
1001
0000
0000
1001
0000
0000
0000
0000
0001
0000
0010
0000
0100
0000
1000
0000
,
1100
0000
0000
1100
0000
0000
0000
0000
1000
0000
0010
0000
0100
0000
0001
0000
,
0101
0000
0000
0101
0000
0000
0000
0000
1001
0000
0000
1001
0000
0000
1000
0001
,
1000
0100
0010
0001
0010
0100
1000
0001
,
0200
0000
0000
0000
,
0301
1000
0001
0000
0010
0000
0100
0010
0100
0000
1000
0000
0002
0000
0000
0000
,
1003
1000
0010
0010
0100
0100
0002
0000
,
1003
0100
1000
0000
0010
0000
0100
0001
0100
0000
0001
0000
0020
0000
0000
0000
,
0031
0001
1000
1000
0100
0100
0010
0010
,
0001
1000
0001
0000
0010
0000
0100
1000
0100
0000
0010
0000
0002
0000
0000
0000
,
1003
0001
0100
0010
1000
0001
0020
0000
,
0031
1000
0001
0000
0100
0000
0010
1000
0010
0000
1000
0000
0002
0000
0000
0000
,
1003
0001
0010
1000
0010
0001
1000
0010
,
1010
0000
0000
1010
0000
0000
0000
0000
0010
0000
0100
0000
0001
0000
1000
0000
,
1001
0000
0000
1001
0000
0000
0000
0000
0100
0000
0010
0000
0001
0000
1000
0000
,
1001
0000
0000
1001
0000
0000
0000
0000
0110
0000
0010
0000
1000
0000
0010
0100
,
0010
0000
0100
0001
0100
0001
0100
0001
1000
0000
0100
0000
0010
0000
0001
0000
,
1000
0100
1000
0100
1000
0100
1000
0100
1000
0000
0010
0000
0100
0000
0001
0000
,
0100
0001
0100
0001
0100
0001
0100
0001
0100
0000
0010
0000
1000
0000
0100
0000
,
0010
0001
0010
0001
0100
0000
0001
0000
1000
0000
0100
0010
0100
0010
0100
0000
,
1000
0000
0001
0100
0001
0000
1000
0010
1000
0000
0001
1000
0001
1000
0001
1000
,
0001
0000
0100
0000
1000
0000
0001
0000
0010
0000
1000
0000
0001
1000
0001
0000
,
0000
0000
1000
0000
0100
0000
0001
0000
1000
0000
0010
0000
0001
0000
1000
0001
,
1000
0000
0001
0100
1000
0001
0010
1000
,
0001
1000
0100
0001
1000
0010
0001
1000
,
2002
0000
0003
3020
0230
0000
0000
0302
,
2003
0000
0000
3200
2300
0001
0001
3002
,
1003
0000
0001
0100
0000
0101
0000
0000
,
1000
0100
1000
0001
0000
1001
0000
0000
,
0100
0000
1000
0000
0010
0000
0100
0000
0001
0000
0010
0000
0001
0000
1000
0001
,
1000
0000
0001
0100
0001
0000
1000
0010
1000
0010
1000
0010
1000
0010
1000
0010
,
1000
0100
0010
0000
0001
0000
1000
0100
0010
0000
0001
0000
0200
0000
0000
0000
,
0301
0000
1000
0100
1000
0000
0100
0010
0100
0000
0010
0001
0010
0000
0001
0000
,
1000
0010
0100
0000
0001
0000
1000
0010
0100
0000
0001
0000
1000
0000
0100
0000
,
0010
0000
0001
0100
0001
0000
0100
0010
0100
0000
0010
1000
0010
0000
1000
0000
,
0001
0010
0100
0000
0010
0000
0001
0010
0100
0000
0010
0000
0002
0000
0000
0000
,
1003
0000
0010
1000
0010
0000
1000
0001
1000
0000
0001
0010
0001
0000
1000
0000
,
0001
0100
0010
0000
0100
0000
0010
0100
0001
0000
1000
0000
0100
0000
1000
0000
,
0010
0100
0010
0000
1000
0001
1000
0000
0001
0100
0001
0100
0001
0100
0001
0100
,
0002
1000
0100
0100
0103
0000
0001
1000
,
0001
1000
0010
0100
0100
0001
0001
1000
,
2001
0001
0100
0100
3100
1000
0001
1000
,
0001
0100
0010
0010
0200
0000
0000
0000
,
0300
0000
0000
0000
;

//---------------dance-single - ----------------
#NOTES:
     dance-single:
     :
     Challenge:
     17:
     0.862,0.830,0.189,0.068,1.000:
1000
0000
0010
0000
1000
0000
0001
0000
0010
0100
1000
0100
0010
0000
0001
0000
,
1000
0000
0100
0000
1000
0000
0001
0000
0100
0010
1000
0010
0100
0000
0001
0000
,
0010
0000
0100
0000
0010
0000
0001
0000
1000
0010
0100
0001
1000
0000
0010
0000
,
1000
0000
0001
0000
0010
0000
0100
0000
1000
0001
0100
0001
1000
0000
0001
0000
,
0010
0100
1000
0100
1000
0001
0100
0010
1000
0010
1000
0010
0100
0001
0100
0010
,
1000
0000
0001
0000
1000
0100
0000
0100
0010
0000
0100
0000
1000
0010
0100
0010
,
1000
0000
0001
0000
0100
0001
0000
0001
0100
0000
0001
0000
1000
0100
0010
0100
,
1000
0000
0001
0100
0001
0100
0000
0001
1000
0000
0100
0000
0010
0000
0000
0100
,
1000
0000
0010
0000
0100
0000
0000
0001
1000
0000
0100
0000
0010
0000
0001
0000
,
1000
0000
0100
0000
1000
0001
0000
0001
1000
0000
0100
0000
0010
0001
0100
0010
,
0100
0000
0001
0000
1000
0100
0000
0100
1000
0000
0001
0000
0100
0010
1000
0010
,
0100
0000
0001
1000
0001
1000
0000
0100
1000
0000
0010
0000
0100
0000
0000
0001
,
1000
0000
0100
0000
0010
0000
0000
0001
0100
0000
0000
0101
0000
0000
1001
0000
,
1000
0000
0010
0000
1000
0001
0000
0001
1000
0000
0001
0000
0100
0010
1000
0010
,
0100
0000
0001
0000
0010
0100
0000
0100
0010
0000
0001
0000
0010
0100
1000
0100
,
0010
0000
0001
0100
0001
0100
0000
0001
1000
0000
0100
0000
0010
0000
0000
0100
,
1000
0000
0010
0000
0100
0000
0000
0001
1000
0000
0100
0000
0010
0000
0001
0000
,
1000
0000
0100
0000
1000
0001
0000
0001
0100
0000
0001
0000
1000
0100
0010
0100
,
1000
0000
0001
0000
0100
0001
0000
0001
0100
0000
0001
0000
0010
0100
1000
0100
,
0010
0000
0001
1000
0001
1000
0000
0010
0100
0000
0001
0000
1000
0000
0100
0010
,
0001
1000
0100
0010
0001
0010
0100
1000
0001
0100
0001
0100
0010
1000
0010
1000
,
0001
0010
0002
0000
0013
0100
1000
0001
,
0100
0001
0100
0000
0001
0000
1000
0100
0000
0100
0000
0100
1000
0001
1000
0001
,
1000
0100
0001
0100
1000
0001
0010
0001
,
0100
0010
0100
0000
0001
0000
0100
0001
0000
0001
0000
0001
0100
0000
0010
0000
,
1000
0001
1000
0000
0100
0000
1000
0100
0000
0100
0000
0100
1000
0000
0010
0000
,
0220
0000
0000
0030
0002
0000
0000
0300
,
2000
0000
0000
0003
0020
0000
0000
3030
,
1001
0000
0000
1001
0000
0000
0000
0000
0100
1000
0100
1000
0100
1000
0100
1000
,
0100
0000
0000
1100
0000
0000
0000
0000
0001
0100
0001
0100
0001
0100
0001
0100
,
0001
0000
0000
0101
0000
0000
1000
0001
1000
0000
0000
1001
0000
0000
0010
0100
,
0010
0100
0010
0100
0010
1000
0001
1000
0001
1000
0001
1000
0001
1000
0001
1000
,
0002
0000
0000
0000
,
1003
0100
0010
0000
0001
0000
1000
0100
0010
0000
0001
0100
0010
0000
0100
0001
,
0010
0000
0100
1000
0100
0000
0010
0100
0010
0000
0001
0100
0010
0000
0100
0001
,
1000
0100
0010
0000
0001
0000
1000
0100
0010
0000
0001
0100
0001
0100
0010
1000
,
0010
0000
0100
0001
0100
0000
0010
0100
0010
0000
1000
0100
0010
0000
0001
0010
,
0100
1000
0010
0000
0100
0000
0010
0100
0001
0000
0010
0100
1000
0000
0001
0010
,
0100
0000
1000
0010
1000
0000
0010
0100
0010
0000
0100
0001
0010
0000
0100
1000
,
0001
0010
0100
0000
0010
0000
0001
0010
0100
0000
0010
0001
1000
0001
1000
0001
,
0010
0000
0001
1000
0001
0000
1000
0100
1000
0000
0001
0010
0100
1000
0001
0000
,
1001
0000
0000
1001
0000
0000
0000
0000
0101
0000
0001
0000
1001
0000
1000
0000
,
1100
0000
0000
1100
0000
0000
0000
0000
1100
0000
0100
0000
0110
0000
0010
0000
,
0011
0000
0000
0011
0000
0000
0001
1000
0001
0000
1000
0000
0100
0000
1000
0001
,
1000
0100
0010
0001
0010
0100
1000
0001
0010
0100
0010
0001
0100
0000
0010
0000
,
1000
0010
0100
0010
1000
0010
0100
0010
1000
0000
0100
0000
0010
0000
0001
0000
,
0100
0001
0010
0001
0100
0001
0010
0001
0100
0000
0010
0000
1000
0000
0001
0000
,
1000
0100
0010
0100
1000
0100
0010
0100
1000
0000
0001
1000
0010
0100
0001
0000
,
1000
0100
0010
0100
1000
0100
0010
0100
1000
0001
1000
0001
0100
0001
0100
0001
,
1000
0100
1000
0100
0010
0001
0010
0001
1000
0100
1000
0100
0010
0001
1000
0000
,
0000
0000
0010
1000
0010
1000
0001
0100
0001
0100
0010
1000
0010
1000
0100
0010
,
0001
0000
0000
0010
0001
0010
0001
1000
0100
1000
0100
1000
0001
1000
0001
0010
,
0100
1000
0001
1000
0001
1000
0010
1000
0010
1000
0001
0010
0001
0010
0100
1000
,
0100
0000
0000
1000
0000
0000
0001
0000
0000
1000
0010
0100
0001
0000
0000
1000
0000
0000
0100
0000
0000
0010
0100
1000
,
0001
0100
0001
1000
0100
0010
0001
1000
,
1001
1000
0010
0100
0000
0110
0000
0000
,
0101
0001
1000
0100
0000
1100
0000
0000
,
1001
0000
1000
0000
0010
0000
0100
0000
0001
0000
1000
0100
0010
0000
0001
0010
,
0100
1000
0100
1000
0100
1000
0001
0100
0001
0100
0001
0100
0001
1000
0001
1000
,
0001
0010
0100
0000
0010
0000
0001
0100
0010
0000
0100
0000
0001
1000
0100
0000
,
0010
0001
1000
0100
1000
0000
0001
1000
0001
0000
0100
0001
0100
0000
0010
0000
,
1000
0100
0010
0000
0100
0000
1000
0010
0100
0000
0010
1000
0010
1000
0001
0100
,
0001
0000
1000
0001
1000
0000
0100
0010
0100
0000
1000
0010
1000
0000
0100
0000
,
0010
0100
1000
0000
0001
0000
0100
0010
1000
0000
0001
0010
0100
0000
0010
0001
,
1000
0000
0100
1000
0100
0000
1000
0001
1000
0000
0001
0100
0001
0000
0100
0000
,
0010
1000
0001
0000
0010
0000
0100
0010
0001
0000
1000
0100
0010
0001
0100
0001
,
0100
0010
1000
0010
1000
0100
0010
0001
0010
0100
1000
0001
0010
0001
0010
0100
,
1000
0000
0000
0000
0000
0000
0010
0000
0000
0100
0000
0000
0001
0000
0000
0000
0000
0000
0001
0000
0100
0000
0010
0000
1000
0000
0000
0000
0000
0000
0100
0000
0000
0000
0000
0000
0010
0000
0000
0100
0000
0000
1000
0000
0000
0100
0000
0000
,
0010
0000
0001
1000
0010
1000
0001
1000
0010
0000
0100
0000
0001
0000
1000
0000
,
1001
0000
0000
0000
0000
0000
1000
0000
0000
0001
0000
0000
0010
0000
0000
0000
0000
0000
0010
0000
0001
0000
0100
0000
0010
0000
0000
0000
0000
0000
1000
0000
0000
0010
0000
0000
0100
0000
0000
0000
0000
0000
0100
0000
0001
0000
0010
0000
,
0100
0000
1000
0001
0010
0100
1000
0000
0220
0000
0000
0000
0000
0000
0000
0000
,
0330
0000
0000
0000
;

//---------------dance-double - ----------------
#NOTES:
     dance-double:
     :
     Easy:
     7:
     0.284,0.266,0.196,0.294,0.000:
10010000
10000000
01000000
10000000
,
00100000
01000000
00001000
00010000
,
00000010
00000100
00000010
00010000
,
00000001
00000010
00000100
00010000
,
00022000
00000000
00000000
00033000
,
00011000
00001000
00100000
01000000
,
00100000
00001000
00100000
01000000
,
00200000
00000000
00302000
00000000
,
00000000
00000000
00023000
00000000
,
00031000
00010000
00000010
00000100
,
00000010
00010000
00000010
00000100
,
00000020
00000000
00020030
00000000
,
00000000
00000000
00032000
00000000
,
00013000
00001000
01000000
00100000
,
01000000
00001000
01000000
00100000
,
02000000
00000000
03002000
00000000
,
00023000
00000000
00030002
00000000
,
00000103
00000001
00000010
00000100
,
00010000
00000100
00000010
00000001
,
00002000
00000000
00003200
00000000
,
00020300
00000000
00000000
00000000
,
00031000
00000000
00011000
00000000
,
00001000
00001000
00010000
00010000
,
00011000
00000000
00011000
00000000
,
00001000
00001000
00010000
00010000
,
00011000
00001000
01000000
00100000
,
20000000
00000000
30200000
00000000
,
02300000
00000000
00000000
00000000
03200000
00000000
00000000
00300000
,
01100000
00000000
01000000
01000000
,
01100000
00000000
01000000
01000000
,
01100000
00000000
10010000
00000000
,
20020000
00000000
00000000
30030000
,
02200000
00000000
00000000
03300000
,
10000000
01000000
00100000
00001000
,
00010000
00000100
00000010
00000001
,
00000010
00000100
00010000
00001000
,
01000000
01000000
00100000
00100000
,
10000000
00100000
01000000
00001000
,
00010000
00000010
00000100
00000001
,
00000010
00000100
00010000
00001000
,
00100000
01000000
10000000
00001000
,
00022000
00000000
00000000
00033000
,
00000220
00000000
00000000
00000330
,
00022000
00000000
00000000
00033000
,
00000010
00000010
00000010
00000010
,
00002002
00000000
00000000
00003003
,
00000220
00000000
00000000
00000330
,
00022000
00000000
00000000
00033000
,
01000000
01000000
01000000
01000000
,
10010000
00000000
00000000
00000000
,
00000000
01100000
00000000
00000000
00000000
00000000
00000000
00000000
,
00000000
01100000
00000000
00000000
,
00000000
00000000
00000000
00000000
,
20010000
00000000
30200000
00000000
,
02300000
00000000
03002000
00000000
,
00013000
00001000
00010000
00000000
,
00000010
00000100
00000010
00000000
,
00010000
00001000
00010000
00001000
,
00010000
00010000
00010000
00010000
,
00010001
00000010
00000100
00010000
,
00000100
00000010
00000001
00000100
,
00000010
00010000
00001000
01000000
,
00100000
10000000
00100000
01000000
,
00001000
00001000
00010000
00010000
,
00000010
00000100
00000001
00000100
,
00000010
00000010
00010000
00010000
,
00001000
00100000
01000000
10000000
,
10010000
00000000
00100000
00000000
,
01000000
00000000
00100000
00000000
,
00011000
00000000
00010000
00000000
,
00000010
00000000
00000100
00000000
;

//---------------dance-double - ----------------
#NOTES:
     dance-double:
     :
     Medium:
     11:
     0.474,0.452,0.370,0.136,0.026:
00001001
00000000
00001000
00000000
00000001
00000100
00000001
00000000
,
00010000
00000000
00001000
00000000
00010000
00001000
00010000
00000000
,
00001000
00000000
00100000
00000000
00010000
00100000
00010000
00000000
,
00100000
00000000
01000000
00000000
10000000
00010000
10000000
00000000
,
20020000
00000000
00000000
30030000
,
00100000
00110000
00100000
00110000
,
00001000
00011000
00001000
00011000
,
00001000
00000000
00010000
00000010
00000100
00000000
00000010
00000100
,
00000010
00000000
00000100
00000001
00001000
00000000
00000001
00001000
,
00000001
00000101
00000100
00000110
,
00000010
00010010
00010000
00011000
,
00001000
00000000
00100000
01000000
10000000
00000000
00010000
00100000
,
00010000
00000000
10000000
00100000
01000000
00000000
00100000
01000000
,
00010000
00100000
01000000
00000000
10000000
00001000
10000000
00000000
,
00100000
01000000
00001000
00000000
00010000
00001000
00010000
00001000
,
01000000
00000000
00100000
10000000
00010000
00000000
00100000
00010000
,
00100000
00000000
00010000
00100000
01000000
00000000
10000000
00001000
,
10000000
00001000
00010000
00000000
00001000
00010000
00000100
00000000
,
00010000
00000100
00010000
00000000
00000100
00000010
00000001
00000010
,
00000100
00000000
00010000
00000100
00010000
00000000
00000100
00001000
,
00000001
00000100
00000010
00010000
00001000
01000000
00100000
10000000
,
01000000
00000000
10000000
00000000
11000000
00000000
00100000
01000000
,
01100000
01100000
10010000
10010000
,
00100000
00000000
00001000
00000000
00101000
00000000
00001000
00010000
,
00011000
00011000
00000110
00000110
,
00000001
00000100
00000101
00000001
,
00000120
00000000
00020030
00000000
,
00032000
00000000
00000000
00000000
00023000
00000000
00000000
00030000
,
00011000
00000000
00000000
00001000
00000000
00000000
00000000
00000000
01000000
00000000
00100000
00000000
01000000
00000000
00000000
00000000
,
01100000
00000000
00000000
01000000
00000000
00000000
00000000
00000000
00001000
00000000
00010000
00000000
00001000
00000000
00000000
00000000
,
00011000
00000000
00000000
00010000
00000000
00000000
00000000
00000000
00000110
00000000
00000000
00000010
00000000
00000000
00000000
00000000
,
00001000
00000100
00000010
00000001
00001000
00000100
00000010
00000001
,
00020000
00000000
00000000
00000000
,
00030001
00000010
00000100
00000010
00000002
00000000
00000103
00000000
,
00000101
00000110
00010010
00011000
,
00001000
01000000
00100000
01000000
00002000
00000000
00013000
00000000
,
01001000
01100000
10100000
01100000
,
00100000
10000000
01000000
00100000
00002000
00000000
00013000
00000000
,
00011000
00010100
00000110
00000101
,
00000001
00000100
00000010
00010000
00002000
00000000
00013000
00000000
,
00011000
00110000
01100000
11000000
,
10010000
00000000
00000000
10000000
00000000
00000000
00000000
00000000
00001000
00000000
00010000
00000000
00001000
00000000
00000000
00000000
,
00011000
00000000
00000000
00010000
00000000
00000000
00000000
00000000
00000010
00000000
00000100
00000000
00000010
00000000
00000000
00000000
,
00000110
00000000
00000000
00000100
00000000
00000000
00000000
00000000
00000001
00000000
00000010
00000000
00000001
00000000
00000010
00000000
,
00000001
00000100
00000010
00010000
00001000
01000000
00100000
10000000
,
01000000
00100000
01000000
00000000
10000000
00010000
00100000
00000000
,
00010000
00100000
00010000
00000000
00100000
00010000
10000000
00000000
,
01000000
00100000
00001000
00010000
00000100
00000010
00000001
00001000
,
00000100
00000010
00000100
00001000
00000100
00000010
00000100
00001000
,
00020000
00000000
00000000
00001000
00000000
00000000
00001000
00030000
,
00000000
02000000
00000000
00000000
00100000
00000000
00000000
00100000
,
03000000
00000000
00020000
00000000
00000000
10000000
00000000
00000000
,
10000000
00000000
00000000
10000000
00000000
00000000
10030000
00000000
,
10020000
00000000
00000000
00130000
00200000
00000000
00000000
01300000
,
02000000
00000000
00000000
13000000
20000000
00000000
00000000
30010000
,
10000000
00000000
00000000
00100000
00000000
01100000
00000000
00000000
,
00001000
00000000
00000000
00010000
00000000
00011000
00000000
00000000
,
00000010
00000100
00000010
00000000
00001000
00000100
00001000
00000000
,
00000001
00000010
00000001
00000010
00000001
00000010
00000001
00000010
,
00000001
00000100
00000010
00000000
00001000
00000100
00001000
00000000
,
00000100
00010000
00000100
00010000
00001000
01000000
00001000
01000000
,
00100000
01000000
00010000
00000000
01000000
00100000
10000000
00000000
,
01000000
10000000
01000000
10000000
00001000
01000000
00001000
01000000
,
00001000
00010000
00000010
00000000
00000100
00000010
00001000
00000000
,
00000001
00000010
00000001
00000010
00000100
00000010
00000100
00010000
,
00001000
00010000
00001000
00000000
00100000
01000000
10000000
00000000
,
00100000
01000000
00100000
01000000
00010000
10000000
01000000
00100000
,
00001000
00010000
00000100
00010000
00001000
00000000
00010000
00000000
,
00000001
00000010
00000100
00001000
00000001
00000000
00000010
00000000
,
00011000
00010000
00001000
00100000
01000000
10000000
00010000
00000000
,
01000000
00001000
00100000
00001000
01000000
00000000
00000000
00000000
;

//---------------dance-double - ----------------
#NOTES:
     dance-double:
     :
     Hard:
     14:
     0.665,0.669,0.158,0.173,0.400:
00001000
00000010
00001000
00000010
00001000
00000100
00000001
00000100
,
00010000
00001000
00010000
00001000
00100000
10000000
00100000
00001000
,
10000000
00010000
10000000
00010000
01000000
10000000
01000000
00001000
,
00010000
00001000
00010000
00000001
00000100
00001000
00000100
00000001
,
00001000
00000100
00001000
00000100
00001000
00000000
00000001
00001000
00000001
00001000
00000001
00000000
00001000
00000100
00001000
00000100
,
00001000
00000000
00000001
00000000
00000010
00000000
00000000
00000010
00000000
00000000
00000001
00000000
00010000
00000000
00000000
00010000
,
00000000
00000000
00001000
00000000
01000000
00000000
00000000
01000000
00000000
00000000
00010000
00000000
10000000
00000000
00000000
10000000
,
00000000
00010000
10000000
01000000
10000000
00010000
10000000
01000000
,
10000000
00010000
01000000
00100000
01000000
00010000
01000000
00100000
,
10000000
00000000
00010000
00000000
00100000
00000000
00000000
00100000
00000000
00000000
00001000
00000000
00010000
00000000
00000000
00010000
,
00000000
00000000
00000010
00000000
00000100
00000000
00000000
00000100
00000000
00000000
00000001
00000000
00001000
00000000
00000000
00001000
,
00000000
00000001
00010000
00000100
00010000
00000001
00010000
00000100
,
00010000
00000000
00000001
00000000
00000100
00000000
00000010
00000000
00001000
00000000
00000000
00001000
00000000
00000000
00001000
00000000
,
00000001
00000000
00000100
00000000
00000010
00000100
00000000
00000010
00000000
00000000
00010000
00000000
00001000
00010000
00000000
00001000
,
00000000
00000000
00100000
00000000
01000000
00100000
00000000
01000000
00000000
00000000
10000000
00000000
00100000
10000000
00000000
00100000
,
00000000
10000000
00001000
00100000
00001000
10000000
00001000
00100000
,
00001000
10000000
01000000
00100000
01000000
10000000
01000000
00100000
,
00001000
00000000
00010000
00000000
00001000
00010000
00000000
00001000
00000000
00000000
00010000
00000000
00000100
00010000
00000000
00000100
,
00000000
00000000
00001000
00000000
00000001
00001000
00000000
00000001
00000000
00000000
00000010
00000000
00000001
00000010
00000000
00000001
,
00000000
00000000
00000100
00000000
00000010
00000000
00010000
00000000
00001000
00000000
00010000
00000000
00000010
00000000
00000100
00000010
,
00000100
00000000
00000001
00001000
00000001
00000000
00000010
00000001
00000010
00000000
00000100
00000010
00000100
00000010
00000100
00000000
,
00001000
00000010
00000100
00000000
00000001
00000010
00000100
00001000
,
00000001
00000010
00001000
00000010
00000001
00000010
00001000
00000010
,
00000001
00001000
00000100
00000000
00001000
00000100
00010000
00001000
,
10000000
01000000
00010000
01000000
10000000
01000000
00010000
01000000
,
10000000
00010000
00100000
01000000
10001000
00010000
00000010
00000100
,
00000102
00000000
00000203
00000000
,
00000320
00000000
00000000
00000000
00000230
00000000
00000000
00000300
,
00001001
00000000
00000000
00001001
00000000
00000000
00000000
00000000
00001000
00000000
00000100
00000000
00000010
00000000
00000001
00000000
,
00000011
00000000
00000000
00000011
00000000
00000000
00000000
00000000
00000001
00000000
00000100
00000000
00000010
00000000
00010000
00000000
,
00010010
00000000
00000000
00010010
00000000
00000000
00000000
00000000
00011000
00000000
00000000
00011000
00000000
00000000
00001000
00010000
,
00001000
00100000
01000000
10000000
01000000
00100000
00001000
10000000
,
00002000
00000000
00000000
00000000
,
00013000
00001000
00010000
00000000
00001000
00000000
01000000
00100000
01000000
00000000
00010000
00000000
20000000
00000000
00000000
00000000
,
30010000
00010000
10000000
10000000
00100000
00100000
02000000
00000000
,
03100000
01000000
00100000
00000000
01000000
00000000
00010000
01000000
00010000
00000000
10000000
00000000
02000000
00000000
00000000
00000000
,
13000000
10000000
00100000
00100000
01000000
01000000
00001000
00001000
,
00010000
00001000
00010000
00000000
00000100
00000000
00000010
00000001
00000010
00000000
00000100
00000000
00020000
00000000
00000000
00000000
,
00030001
00000001
00000100
00000100
00000010
00000010
00002000
00000000
,
00003100
00000010
00000100
00000000
00001000
00000000
00000001
00000100
00000001
00000000
00010000
00000000
00002000
00000000
00000000
00000000
,
01003000
00001000
00100000
10000000
00100000
00001000
10000000
00100000
,
10100000
00000000
00000000
10100000
00000000
00000000
00000000
00000000
00100000
00000000
01000000
00000000
00001000
00000000
00010000
00000000
,
00011000
00000000
00000000
00011000
00000000
00000000
00000000
00000000
00001000
00000000
00010000
00000000
00000100
00000000
00000010
00000000
,
00000110
00000000
00000000
00000110
00000000
00000000
00000000
00000000
00000101
00000000
00000001
00000000
00000010
00000000
00000100
00001000
,
00000100
00000000
00001000
00000001
00001000
00000000
00000001
00001000
00000001
00000000
00000010
00000000
00000100
00000000
00001000
00000000
,
00000010
00010000
00000010
00010000
00000010
00010000
00000010
00010000
00000010
00000000
00010000
00000000
00001000
00000000
01000000
00000000
,
00010000
01000000
00010000
01000000
00010000
01000000
00010000
01000000
00010000
00000000
10000000
00000000
01000000
00000000
00100000
00000000
,
00010000
10000000
00010000
10000000
00010000
10000000
00010000
10000000
00010000
00000000
00100000
00000000
01000000
00000000
00100000
00000000
,
00001000
00010000
00001000
00010000
00001000
00010000
00001000
00010000
00001000
00000000
00010000
00000100
00010000
00000100
00010000
00000100
,
00010000
00000000
00000001
00000000
00000010
00000000
00000100
00000000
00010000
00000000
00001000
00000000
01000000
00100000
01000000
00000000
,
00000000
00000000
00010000
00000000
10000000
00000000
01000000
00000000
00100000
00000000
00001000
00000000
00010000
00000000
00000010
00000100
,
00000010
00000000
00001000
00000001
00000100
00000010
00010000
00001000
,
01000000
00100000
10000000
01000000
00100000
00001000
00010000
00000010
,
00002020
00000000
00003000
00000230
00000320
00000000
00000000
00002030
,
00003002
00000000
00000000
00000023
00000032
00001000
00001000
00002003
,
00003001
00000000
00001000
00000010
00000000
00001010
00000000
00000000
,
00001000
00010000
00001000
01000000
00000000
01001000
00000000
00000000
,
01000000
00000000
10000000
00000000
00100000
00000000
01000000
00000000
00010000
00000000
00100000
00000000
00010000
00000000
10000000
00010000
,
10000000
00000000
00010000
01000000
00010000
00000000
10000000
00100000
10000000
00100000
10000000
00100000
10000000
00100000
10000000
00100000
,
10000000
01000000
00100000
00000000
00010000
00000000
10000000
01000000
00100000
00000000
00010000
00000000
02000000
00000000
00000000
00000000
,
03010000
00000000
10000000
01000000
10000000
00000000
00001000
01000000
00001000
00000000
00010000
00001000
00010000
00000000
00000100
00000000
,
00001000
00000010
00000100
00000000
00000001
00000000
00001000
00000010
00000100
00000000
00000001
00000000
00000010
00000000
00000100
00000000
,
00001000
00000000
00000001
00000100
00000001
00000000
00010000
00000100
00010000
00000000
00001000
00010000
00001000
00000000
01000000
00000000
,
00010000
00100000
01000000
00000000
00100000
00000000
00010000
00100000
01000000
00000000
00100000
00000000
00020000
00000000
00000000
00000000
,
10030000
00000000
00100000
10000000
00100000
00000000
01000000
00001000
01000000
00000000
00001000
00010000
00001000
00000000
00010000
00000000
,
00000010
00000100
00000001
00000000
00000100
00000000
00000010
00000100
00000001
00000000
00001000
00000000
00000100
00000000
00001000
00000000
,
00000010
00000100
00000010
00000000
00010000
00000010
00010000
00000000
00001000
00010000
00001000
00010000
00001000
00010000
00001000
00010000
,
00001000
10000000
01000000
10000000
10000000
00010000
10000000
01000000
,
00100000
00001000
00010000
00001000
00001000
00010000
00010000
00000010
,
00000110
00000100
00000001
00000010
00000100
00010000
00000100
00010000
,
00001000
01000000
00100000
00100000
02000000
00000000
00000000
00000000
,
03000000
00000000
00000000
00000000
;

//---------------dance-double - ----------------
#NOTES:
     dance-double:
     :
     Challenge:
     17:
     0.869,0.830,0.166,0.060,1.000:
00010000
00000000
00100000
00000000
00010000
00000000
10000000
00000000
00010000
00100000
01000000
00100000
00010000
00000000
10000000
00000000
,
01000000
00000000
00100000
00000000
01000000
00000000
10000000
00000000
00001000
01000000
00100000
01000000
00001000
00000000
00100000
00000000
,
00010000
00000000
00100000
00000000
00001000
00000000
00010000
00000000
00000100
00001000
00000100
00010000
00001000
00000000
00010000
00000000
,
00000010
00000000
00000100
00000000
00000010
00000000
00010000
00000000
00000010
00000100
00000001
00000100
00000010
00000000
00001000
00000000
,
00000001
00000010
00000001
00000010
00000001
00001000
00000001
00001000
00000100
00010000
00000100
00010000
00000001
00000010
00000100
00010000
,
00001000
00000000
01000000
00000000
00100000
01000000
00000000
01000000
00100000
00000000
10000000
00000000
01000000
00100000
00010000
00100000
,
01000000
00000000
10000000
00000000
00001000
01000000
00000000
01000000
00001000
00000000
10000000
00000000
01000000
00100000
00010000
00100000
,
01000000
00000000
10000000
00100000
10000000
00100000
00000000
10000000
00010000
00000000
00100000
00000000
00001000
00000000
00000000
00010000
,
00000010
00000000
00000100
00000000
00000001
00000000
00000000
00000010
00000100
00000000
00001000
00000000
00000001
00000000
00000010
00000000
,
00000001
00000000
00001000
00000000
00000010
00000100
00000000
00000100
00000010
00000000
00001000
00000000
00000001
00000010
00000100
00000010
,
00000001
00000000
00010000
00000000
00000100
00010000
00000000
00010000
00000100
00000000
00001000
00000000
00000001
00000010
00000100
00000010
,
00000001
00000000
00001000
00000001
00001000
00000001
00000000
00000100
00000001
00000000
00000010
00000000
00000100
00000000
00000000
00010000
,
00000010
00000000
00001000
00000000
00000100
00000000
00000000
00010000
00001000
00000000
00000000
00011000
00000000
00000000
01001000
00000000
,
01000000
00000000
00100000
00000000
10000000
00010000
00000000
00010000
00100000
00000000
00010000
00000000
10000000
00100000
01000000
00100000
,
10000000
00000000
00001000
00000000
01000000
00001000
00000000
00001000
00010000
00000000
00001000
00000000
00100000
01000000
10000000
01000000
,
00100000
00000000
00001000
01000000
00001000
01000000
00000000
00001000
10000000
00000000
00100000
00000000
01000000
00000000
00000000
00100000
,
10000000
00000000
01000000
00000000
00100000
00000000
00000000
01000000
10000000
00000000
00010000
00000000
00100000
00000000
00001000
00000000
,
00010000
00000000
00000010
00000000
00010000
00000100
00000000
00000100
00001000
00000000
00000100
00000000
00010000
00000100
00000010
00000100
,
00010000
00000000
00000001
00000000
00000010
00000001
00000000
00000001
00001000
00000000
00001000
00000000
00000100
00000010
00000001
00000010
,
00000100
00000000
00001000
00000001
00001000
00000001
00000000
00000100
00000010
00000000
00001000
00000000
00000001
00000000
00000010
00000001
,
00000010
00000001
00000100
00000010
00000100
00000010
00001000
00000100
00001000
00000100
00010000
00000100
00000010
00000001
00000010
00000100
,
00001000
00000010
00000200
00000000
00000301
00000100
00001000
00000100
,
00000001
00001000
00000001
00000000
00001000
00000000
00000100
00010000
00000000
00010000
00000000
00010000
00000100
00001000
00000100
00001000
,
00000100
00010000
00000001
00000010
00000100
00001000
00000010
00000100
,
00000001
00001000
00000001
00000000
00001000
00000000
00000010
00010000
00000000
00010000
00000000
00010000
00001000
00000000
01000000
00000000
,
00100000
01000000
00100000
00000000
10000000
00000000
00001000
01000000
00000000
01000000
00000000
01000000
00001000
00000000
00010000
00000000
,
00021000
00000000
00000000
00000000
00000020
00000000
00000000
00030000
,
00000200
00000000
00000000
00000030
00000302
00000000
00000000
00000003
,
00001001
00000000
00000000
00001001
00000000
00000000
00000000
00000000
00000100
00000001
00000100
00000001
00000100
00000001
00000100
00000001
,
00000100
00000000
00000000
00000101
00000000
00000000
00000000
00000000
00010000
00000010
00010000
00000010
00010000
00000010
00010000
00000010
,
00010000
00000000
00000000
00010010
00000000
00000000
00001000
00010000
00001000
00000000
00000000
00011000
00000000
00000000
01000000
00100000
,
01000000
00100000
01000000
00100000
10000000
00010000
10000000
00010000
10000000
00010000
10000000
00010000
10000000
00010000
10000000
00010000
,
20000000
00000000
00000000
00000000
,
30010000
00100000
01000000
00000000
10000000
00000000
00010000
00100000
01000000
00000000
00100000
00001000
00010000
00000000
00001000
00010000
,
00000100
00000000
00001000
00000100
00001000
00000000
00000100
00000010
00000100
00000000
00000010
00000001
00000100
00000000
00000010
00000100
,
00000001
00000010
00000100
00000000
00001000
00000000
00000001
00000010
00000100
00000000
00001000
00000010
00001000
00000010
00010000
00001000
,
00010000
00000000
00001000
01000000
00001000
00000000
10000000
01000000
10000000
00000000
00100000
01000000
00010000
00000000
01000000
00010000
,
10000000
01000000
00100000
00000000
01000000
00000000
10000000
01000000
00100000
00000000
00010000
01000000
00100000
00000000
10000000
00001000
,
00100000
00000000
00001000
00100000
00001000
00000000
00010000
00001000
00010000
00000000
00000010
00010000
00000001
00000000
00000010
00000001
,
00000100
00000010
00001000
00000000
00000010
00000000
00000100
00000010
00001000
00000000
00000001
00000010
00000001
00000010
00000100
00010000
,
00000100
00010000
00000001
00000100
00000010
00000000
00010000
00000010
00010000
00000000
00001000
00010000
00001000
01000000
00100000
10000000
,
00100000
00000000
00000000
10100000
00000000
00000000
00000000
00000000
10010000
00000000
10000000
00000000
01000000
00000000
01000000
00000000
,
11000000
00000000
00000000
11000000
00000000
00000000
00000000
00000000
11000000
00000000
10000000
00000000
10001000
00000000
00001000
00000000
,
00011000
00000000
00000000
00011000
00000000
00000000
00010000
00000010
00010000
00000000
00000010
00000000
00000100
00000000
00000001
00000010
,
00000100
00000010
00000001
00001000
00000100
00000010
00000100
00001000
00000001
00000010
00000100
00000010
00000001
00000100
00000010
00000000
,
00010000
00000010
00000100
00000010
00010000
00000010
00000100
00000010
00010000
00000000
00000001
00000000
00000010
00000000
00000100
00000000
,
00010000
00000100
00001000
00000100
00010000
00000100
00001000
00000100
00010000
00000000
00001000
00000000
00100000
00000000
01000000
00000000
,
10000000
00010000
00100000
00010000
10000000
00010000
00100000
00010000
10000000
00000000
00010000
00100000
01000000
10000000
00100000
00000000
,
01000000
00001000
00100000
00001000
01000000
00001000
00100000
00001000
01000000
00001000
00100000
01000000
10000000
01000000
00100000
00001000
,
10000000
01000000
00100000
00010000
10000000
01000000
00100000
00010000
10000000
01000000
00100000
00010000
10000000
00001000
00010000
00000000
,
00000000
00000000
00000010
00000100
00000001
00001000
00000010
00000100
00000001
00001000
00000010
00000100
00000001
00001000
00000010
00000100
,
00000001
00000000
00000000
00000010
00000100
00010000
00000001
00000010
00000100
00010000
00001000
01000000
00100000
01000000
00001000
01000000
,
00100000
01000000
00001000
10000000
01000000
00100000
00010000
10000000
01000000
00100000
00010000
01000000
00001000
01000000
00001000
00010000
,
00001000
00000000
00000000
01000000
00000000
00000000
00100000
00000000
00000000
10000000
01000000
00100000
00010000
00000000
00000000
01000000
00000000
00000000
00001000
00000000
00000000
00010000
00000100
00001000
,
00000010
00001000
00000001
00000100
00000010
00000010
00010000
00010000
,
00011000
00001000
01000000
00100000
00000000
01100000
00000000
00000000
,
11000000
10000000
00100000
01000000
00000000
01100000
00000000
00000000
,
00100000
00000000
00100000
00000000
10000000
00000000
10000000
00000000
00100000
00000000
10000000
01000000
00100000
00000000
01000000
10000000
,
01000000
10000000
00100000
01000000
00100000
01000000
00001000
00100000
00001000
00100000
00001000
00010000
00001000
00010000
00000010
00000100
,
00000010
00000100
00000001
00000000
00000100
00000000
00000010
00000100
00000001
00000000
00000010
00000100
00010000
00000100
00000010
00000000
,
00000001
00000000
00001000
00000100
00010000
00000000
00001000
00010000
00001000
00000000
00010000
00001000
01000000
00100000
01000000
00100000
,
10000000
01000000
00100000
00000000
01000000
00000000
10000000
01000000
00100000
00000000
00001000
10000000
00100000
10000000
00001000
00010000
,
00001000
00000000
00010000
00000100
00000010
00000000
00000100
00000010
00000100
00000000
00000010
00000100
00010000
00000100
00010000
00000001
,
00000010
00000001
00000100
00000000
00000010
00000000
00000100
00000001
00000010
00000000
00000001
00000010
00000100
00001000
00000010
00010000
,
00001000
00000000
00010000
00001000
00010000
00000000
00001000
01000000
00100000
00000000
10000000
00100000
10000000
00100000
01000000
00100000
,
10000000
01000000
00100000
00000000
00001000
00000000
10000000
01000000
00100000
00000000
00001000
10000000
00100000
01000000
00001000
00010000
,
00001000
00010000
00000010
00001000
00000010
00001000
00000001
00000010
00000100
00010000
00001000
01000000
00100000
10000000
00100000
01000000
,
00001000
00000000
00000000
00000000
00000000
00000000
00010000
00000000
00000000
00000100
00000000
00000000
00010000
00000000
00000000
00000000
00000000
00000000
00000001
00000000
00000100
00000000
00000010
00000000
00001000
00000000
00000000
00000000
00000000
00000000
00000001
00000000
00000000
00000000
00000000
00000000
00000010
00000000
00000000
00000100
00000000
00000000
00010000
00000000
00000000
00001000
00000000
00000000
,
01000000
00000000
00100000
10000000
01000000
00100000
01000000
10000000
00100000
00000000
01000000
00000000
00100000
00000000
01000000
00000000
,
01001000
00000000
00000000
00000000
00000000
00000000
00001000
00000000
00000000
01000000
00000000
00000000
00001000
00000000
00000000
00000000
00000000
00000000
10000000
00000000
01000000
00000000
00100000
00000000
00010000
00000000
00000000
00000000
00000000
00000000
10000000
00000000
00000000
00100000
00000000
00000000
01000000
00000000
00000000
00000000
00000000
00000000
00010000
00000000
01000000
00000000
00001000
00000000
,
00010000
00000000
00000010
00010000
00000001
00000010
00000100
00000000
00022000
00000000
00000000
00000000
00000000
00000000
00000000
00000000
,
00033000
00000000
00000000
00000000
;

//---------------dance-single - ----------------
#NOTES:
     dance-single:
     :
     Beginner:
     4:
     0.158,0.213,0.189,0.000,0.000: // measure 1
0001
0000
0001
0000
,  // measure 2
1000
0000
1000
0000
,  // measure 3
0001
0000
0001
0000
,  // measure 4
1000
0000
1000
0000
,  // measure 5
0010
0000
0000
0000
,  // measure 6
0110
0000
0100
0000
,  // measure 7
0010
0000
0100
0000
,  // measure 8
0010
0000
1000
0000
,  // measure 9
0001
0000
1000
0000
,  // measure 10
0001
0000
0010
0000
,  // measure 11
0001
0000
0010
0000
,  // measure 12
0001
0000
1000
0000
,  // measure 13
0001
0000
1000
0000
,  // measure 14
0010
0000
1000
0000
,  // measure 15
0010
0000
1000
0000
,  // measure 16
0001
0000
0001
0000
,  // measure 17
1000
0000
1000
0000
,  // measure 18
0100
0000
0010
0000
,  // measure 19
0100
0000
0010
0000
,  // measure 20
0001
0000
0001
0000
,  // measure 21
1000
0000
1000
0000
,  // measure 22
1001
0000
0000
0000
,  // measure 23
0001
0000
0001
0000
,  // measure 24
1001
0000
0000
0000
,  // measure 25
1000
0000
1000
0000
,  // measure 26
1001
0000
0001
0000
,  // measure 27
1001
0000
0000
0000
,  // measure 28
0000
0000
0000
0000
,  // measure 29
0110
0000
0000
0000
,  // measure 30
0110
0000
0000
0000
,  // measure 31
1001
0000
1001
0000
,  // measure 32
1001
0000
0000
0000
,  // measure 33
1001
0000
0000
0000
,  // measure 34
0001
0000
0100
0000
,  // measure 35
0001
0000
0100
0000
,  // measure 36
0010
0000
1000
0000
,  // measure 37
0010
0000
1000
0000
,  // measure 38
0001
0000
1000
0000
,  // measure 39
0001
0000
0010
0000
,  // measure 40
0001
0000
1000
0000
,  // measure 41
0001
0000
0010
0000
,  // measure 42
1001
0000
0000
0000
,  // measure 43
1001
0000
0000
0000
,  // measure 44
0110
0000
0000
0000
,  // measure 45
0110
0000
0000
0000
,  // measure 46
0010
0000
0010
0000
,  // measure 47
0110
0000
0010
0000
,  // measure 48
0110
0000
0010
0000
,  // measure 49
0110
0000
0100
0000
,  // measure 50
0001
0000
0000
0000
,  // measure 51
0010
0000
0000
0000
,  // measure 52
0000
0100
0000
0000
,  // measure 53
0000
0000
0000
0000
,  // measure 54
1001
0000
0000
0000
,  // measure 55
0000
0000
0010
0010
,  // measure 56
0110
0000
0000
0000
,  // measure 57
0100
0000
0000
0000
,  // measure 58
0010
0000
0100
0000
,  // measure 59
0010
0000
0000
0000
,  // measure 60
1001
0000
1000
0000
,  // measure 61
0001
1000
0001
0000
,  // measure 62
1001
0000
0001
0000
,  // measure 63
0010
0001
0010
0000
,  // measure 64
1001
0000
1000
0000
,  // measure 65
0010
1000
0010
0000
,  // measure 66
1001
0000
0001
0000
,  // measure 67
0010
0001
0010
0001
,  // measure 68
0010
0000
0000
0000
,  // measure 69
0010
0000
0000
0000
,  // measure 70
1001
0000
1000
0000
,  // measure 71
0100
0000
0010
0000
;
