#TITLE:Poochie;
#SUBTITLE:;
#ARTIST:kors k;
#TITLETRANSLIT:;
#SUBTITLETRANSLIT:;
#ARTISTTRANSLIT:;
#CREDIT:DigiMindAxel;
#BANNER:Poochie.png;
#BACKGROUND:Poochie-bg.png;
#LYRICSPATH:;
#CDTITLE:REFLEC BEAT.png;
#MUSIC:Poochie.ogg;
#METERTYPE:DDR X;
#OFFSET:-9.284;
#SAMPLESTART:26.745;
#SAMPLELENGTH:12.000;
#SELECTABLE:YES;
#BPMS:0.000=110.000,16.000=220.000,48.000=110.000,160.000=220.000;
#STOPS:;
#BGCHANGES:;

//---------------dance-single - ----------------
#NOTES:
     dance-single:
     :
     Easy:
     7:
     0.310,0.387,0.126,0.134,0.000:
0002
0000
0203
0000
,
0320
0000
2030
0000
,
3020
0000
0230
0000
,
0302
0000
1003
1000
,
1001
0001
0001
0000
,
1000
1000
1000
0000
,
0001
0001
0001
0000
,
1000
1000
1000
0000
,
0001
1000
0001
1000
,
0001
1000
0001
1000
,
0001
1000
0001
1000
,
0010
0000
0000
0000
,
0110
0000
0100
0000
0001
1000
0001
0000
,
0100
0000
0110
0000
1000
0001
1000
0000
,
0001
0010
0001
0000
1000
0100
1000
0000
,
0020
0230
0302
1003
,
0001
1000
0001
0000
1001
0000
0001
0000
,
1000
0100
1000
0000
0010
0000
0100
0000
,
0010
0110
0100
1001
,
0001
0000
0010
0000
0100
1000
0100
0000
,
1000
0000
1001
0000
0001
0100
0001
0000
,
1000
0000
1001
0000
0001
0010
0001
0000
,
0100
0110
0010
1001
,
1000
0000
0100
0000
0010
0001
0010
0000
,
0001
0000
1001
0000
1000
0100
1000
0000
,
0001
0000
1001
0000
1000
0010
1000
0000
,
0010
0110
0100
1001
,
0001
0000
0010
0000
0100
0010
0100
0000
,
2000
0000
0000
0000
,
3002
0000
0000
0000
,
2003
0000
0000
0000
,
3002
0000
0000
0000
,
1003
0010
0100
0001
,
1000
0010
0100
0001
,
1000
1000
0001
0001
,
1000
1000
1000
1000
0001
0000
0000
0000
,
1000
0100
0010
0001
,
0010
0000
0100
0000
0010
0001
0010
0000
,
0001
0100
0010
0100
,
0001
0000
1000
0000
0100
1000
0100
0000
,
1000
0001
1000
0000
,
0001
1000
0001
0000
,
1000
0001
1000
0000
,
0001
1000
0001
0000
,
1000
0001
1000
0001
,
1000
0001
1000
0001
,
1000
0001
1000
0001
,
0010
0000
0000
0000
,
0001
0010
0001
0000
,
0100
0010
0100
0000
,
0001
0010
0001
0000
,
1000
0001
1000
0000
,
0010
1000
0010
0000
,
0100
0010
0100
0000
,
0010
1000
0010
0000
,
1000
1000
1000
0000
,
0001
1000
0001
0000
,
0010
0001
0010
0000
,
0001
1000
0001
0000
,
1000
0010
1000
0000
,
0010
0100
0010
0100
,
0010
0100
0010
0100
,
0001
1000
0001
1000
,
0001
1000
0001
1000
,
2002
0000
0000
0000
,
0000
0000
0000
0000
,
3003
0000
0000
0000
;

//---------------dance-single - ----------------
#NOTES:
     dance-single:
     :
     Medium:
     9:
     0.366,0.470,0.285,0.084,0.000:
1000
0100
0110
0110
,
1000
0100
0010
0100
,
1000
0001
0100
0001
,
1001
0000
1001
0000
0001
0100
0001
0000
,
0100
0010
0100
0000
,
0010
1000
0010
0000
,
1000
0001
1000
0000
,
0001
0010
0001
0000
,
1000
0100
0010
0001
,
1000
0100
0010
0001
,
1000
1000
1000
1000
,
1001
0000
0000
0000
,
0110
0000
0100
0000
0001
0010
0100
1000
,
1001
0000
1100
0000
1000
0100
0010
0000
,
0010
0110
0010
0110
,
0101
0000
0010
0000
1000
0100
0010
0001
,
1000
0000
1100
0000
0010
0100
0010
1000
,
0001
0000
1001
0000
0010
0001
0100
0000
,
0010
0110
0010
0110
,
1000
0000
0100
0000
0010
0100
1000
0000
,
0010
0000
0101
0000
0010
0100
0001
0000
,
1000
0000
1100
0000
0010
0100
1000
0000
,
0010
0101
0010
0101
,
0010
0100
1000
0000
0100
0010
0001
0000
,
1000
0010
0100
0000
0010
0000
1010
0000
,
0010
0000
0110
0000
0100
0001
0010
0000
,
0001
1001
0001
1001
,
1000
0000
0010
0000
0100
0010
0100
0010
,
2000
0000
0000
3100
,
0020
0000
0000
0031
,
0200
0000
0000
0310
,
2000
0000
0000
3010
,
0200
0000
0000
0310
,
2000
0000
0000
3001
,
0020
0000
0000
0031
,
0200
0000
0000
0300
,
0010
0100
0010
0100
0010
0100
0010
0100
,
0001
1000
0001
1000
0001
1000
0001
1000
,
0001
0010
0001
0010
0001
0010
0001
0010
,
0001
1000
0001
1000
0001
1000
0001
1000
,
0001
0010
0100
1000
,
0001
0010
0100
1000
,
0001
1000
0001
1000
,
0001
0100
0001
0100
,
0010
1000
0001
0100
,
0010
1000
0001
0100
,
0010
1000
0001
1000
,
0001
0000
0000
0000
,
1001
1000
0100
0010
,
0001
0100
0010
0100
,
0110
0010
0010
0010
,
0110
0110
0110
0100
,
0001
0010
0100
1000
,
0100
0010
0001
1000
,
0001
0000
1000
0001
1000
0000
0000
0000
,
0010
0010
0010
0000
,
0110
0001
0010
0100
,
1000
0100
1000
0001
,
1000
0100
1000
0001
,
0010
0100
1000
0001
,
0110
0100
0110
0000
,
0110
0010
0110
0000
,
1000
0100
0010
0001
,
1000
0000
0001
1000
0001
0000
0001
0000
,
2002
0000
0000
0000
,
0000
0000
0000
0000
,
3003
0000
0000
0000
;

//---------------dance-single - ----------------
#NOTES:
     dance-single:
     :
     Hard:
     12:
     0.564,0.636,0.544,0.276,0.121:
0001
0000
0000
0001
1000
0000
0000
1000
0100
0000
0000
0100
0010
0000
0000
0000
,
0100
0000
0000
0100
1000
0000
0000
1000
0001
0000
0000
0001
0100
0000
0000
0000
,
0010
0000
0000
0010
0100
0000
0000
0100
0001
0000
0000
0001
1000
0000
0000
0000
,
0100
0000
0000
0100
1000
0000
0000
0000
1100
0000
1000
0000
1001
0000
0001
0000
,
1000
0100
0010
0100
1000
0000
1000
0000
,
0010
0100
0001
0100
0010
0000
0010
0000
,
1000
0001
0010
0001
1000
0000
1000
0000
,
0100
0010
0001
0010
0100
0000
0100
0000
,
1000
0001
1000
0001
1000
0100
1000
0100
,
0010
0001
0010
0001
1000
0010
1000
0010
,
0100
0100
0100
0100
,
0110
0000
0000
0000
,
0001
1000
0000
1000
0002
0000
0000
0000
0013
0000
0010
0000
0100
0000
0100
0000
,
0010
0001
0000
0001
2000
0000
0000
0000
3010
0000
0010
0000
0210
0000
0000
0000
,
0301
1000
1100
0000
0001
0100
0110
0000
,
0002
1000
2003
0001
3001
1000
0100
0010
,
0001
1000
0000
1000
0020
0000
0000
0000
0130
0000
0100
0000
0001
0000
0001
0000
,
1000
0100
0000
0100
0020
0000
0000
0000
0130
0000
0100
0000
1100
0000
0000
0000
,
0001
0000
0100
0000
0110
0000
0000
0000
0010
0000
0100
0001
1000
0000
0000
0000
,
0020
0000
0230
0000
0302
2003
3200
0000
,
1300
0001
0000
0001
0020
0000
0000
0000
0031
0000
0001
0000
0100
0000
0100
0000
,
0010
1000
0000
1000
0002
0000
0000
0000
0013
0000
0010
0000
0011
0000
0000
0000
,
1000
0010
0210
0000
0301
1000
1200
0000
,
1300
0001
0010
0100
2000
3002
0203
0302
,
0013
0100
0000
0100
2000
0000
0000
0000
3001
0000
0001
0000
0100
0000
0100
0000
,
0001
1000
0000
1000
0200
0000
0000
0000
1300
0000
1000
0000
1001
0000
0000
0000
,
1001
0001
0101
0000
0010
1000
1001
0000
,
0200
0000
0320
0000
2030
3020
0230
0000
,
0301
0000
1000
0100
0000
0100
1001
0000
,
0001
0000
1000
0100
0000
0100
1001
0000
,
1000
0000
0001
0010
0000
0010
1001
0000
,
1000
0000
0001
0010
0000
0010
1001
0000
,
1000
0100
0001
0100
1000
0010
0001
0010
,
1000
0100
0001
0100
1000
0010
0001
0010
,
1000
0001
1000
0001
1000
0001
1000
0001
,
1000
1000
1000
1000
2000
0000
3002
0000
,
1003
1001
0000
0101
0000
1010
0000
1001
,
0000
0110
0000
0011
0000
1100
0000
0011
,
0000
1001
0000
0110
0000
1001
0000
1100
,
0000
0011
0000
1100
0000
0110
0000
0011
,
0001
0100
0010
0100
0001
0100
0010
0000
,
1000
0001
0010
0001
1000
0001
0010
0000
,
0001
0010
0100
0010
0001
0010
0100
0000
,
1000
0010
0100
0010
1000
0010
0100
0000
,
0001
0100
0001
0100
0010
1000
0010
1000
,
0100
0010
0100
0010
0001
1000
0001
1000
,
0001
0001
0001
0001
,
0110
0000
0000
0000
,
1001
1000
1001
1000
,
1001
1000
0110
0001
,
0101
0001
0101
0001
,
0101
0000
0100
0000
0010
1000
0100
0000
,
1001
0001
1001
0001
,
0110
1000
1100
1000
,
1100
0000
0010
0100
0001
0000
0001
0000
,
1000
0000
0010
0100
0000
0010
0200
0000
0000
0310
0000
0000
,
1001
1001
1100
1100
,
1001
1001
0101
0101
,
0110
0110
0011
0011
,
1010
0000
1010
0000
1000
0100
0010
0001
,
0100
0000
0100
0000
1001
0000
0100
1000
,
0100
0000
0100
0000
1001
0000
0100
0001
,
0100
0100
0001
1000
,
0200
0010
0010
0310
,
2002
0000
0000
0000
,
0000
0000
0000
0000
,
3003
0000
0000
0000
;

//---------------dance-single - ----------------
#NOTES:
     dance-single:
     :
     Challenge:
     15:
     0.766,0.829,0.159,0.427,0.691:
1000
0000
0001
0100
0001
0000
0010
0000
0100
0001
0010
0001
0010
0001
1000
0100
,
1000
0000
0001
1000
0001
0000
0010
0000
0100
0010
0100
0010
0100
0010
0001
0010
,
0001
0000
1000
0010
1000
0000
0010
0000
0100
0000
0001
1000
0001
0000
0010
0000
,
0110
0000
1000
0010
0110
0000
0100
0010
1010
0000
1000
0000
1001
0000
1001
0000
,
0001
0010
1000
0010
0001
0010
0100
0000
,
0010
0001
1000
0010
0001
0010
1000
0000
,
0010
0100
0001
0010
1000
0010
0001
0000
,
1000
0010
0001
0010
1000
0100
0010
0000
,
0001
0100
1000
0100
0001
0010
1000
0010
,
0001
0100
1000
0100
0001
0010
1000
0010
,
0001
1000
0100
0010
0001
1000
0100
0010
,
0002
0000
0000
1003
,
0001
0000
0000
1000
0000
0000
0000
0000
0000
1000
0000
0000
0200
0000
0000
0000
0000
0000
0000
0000
0000
0000
0000
0000
1300
0000
0000
0000
0010
0000
0100
0000
0000
0000
0010
0000
0100
0000
0010
0000
0100
0000
0010
0000
0100
0000
0000
0000
,
0001
0000
0000
0010
0000
0000
0000
0000
0000
0010
0000
0000
0200
0000
0000
0000
0000
0000
0000
0000
0000
0000
0000
0000
0310
0000
0000
0000
0001
0000
0010
0000
0000
0000
0001
0000
0020
0000
0000
0000
0000
0000
0000
0000
0000
0000
0000
0000
,
0031
0000
1000
0100
0010
0001
1000
0000
0000
0000
0000
0000
0010
0000
1000
0100
0010
0001
1000
0000
0000
0000
0000
0000
,
0020
1000
2030
0001
3001
0101
0100
0110
,
1000
0000
0000
0001
0000
0000
0000
0000
0000
0001
0000
0000
0020
0000
0000
0000
0000
0000
0000
0000
0000
0000
0000
0000
0031
0000
0100
0000
0010
0000
0100
0000
0000
0000
0020
0000
0000
0000
0000
0000
0100
0000
0000
0000
0130
0000
0000
0000
,
0001
0000
0000
1000
0000
0000
0000
0000
0000
1000
0000
0000
0200
0000
0000
0000
0000
0000
0000
0000
0000
0000
0000
0000
1300
0000
0100
0000
0010
0000
0001
0000
0010
0000
0001
0000
0010
0000
0000
0000
0001
0000
0000
0000
0001
0000
0000
0000
,
1000
0000
0000
0000
0001
0000
0010
0000
0100
0000
1000
0000
0010
0000
0000
0000
0000
0000
0000
0000
0000
0000
0000
0000
1000
0000
0000
0100
0000
0000
0010
0000
0000
0001
0000
0000
2000
0000
0000
0000
0000
0000
0000
0000
0000
0000
0000
0000
,
3002
0100
0000
0000
2003
0000
0000
0000
3020
0000
0230
0000
0302
0000
0000
0000
,
1003
0000
0000
0100
0000
0000
0000
0000
0000
0100
0000
0000
0020
0000
0000
0000
0000
0000
0000
0000
0000
0000
0000
0000
0130
0000
0000
0000
1000
0000
0001
0000
0000
0000
1000
0000
0001
0000
1000
0000
0001
0000
1000
0000
0001
0000
0000
0000
,
0100
0000
0000
0001
0000
0000
0000
0000
0000
0001
0000
0000
0020
0000
0000
0000
0000
0000
0000
0000
0000
0000
0000
0000
0031
0000
0000
0000
0100
0000
0010
0000
0000
0000
0100
0000
0020
0000
0000
0000
0000
0000
0000
0000
0000
0000
0000
0000
,
1030
0000
0001
0010
0100
1000
0020
0000
0000
0000
0000
0000
1030
0000
0001
0010
0100
1000
0002
0000
0000
0000
0000
0000
,
2003
0000
0000
0100
0000
0000
3020
0000
0000
0100
0000
0000
1030
0000
0001
1000
0000
0001
0100
0000
0001
1000
0000
0000
,
0100
0000
0000
0010
0000
0000
0000
0000
0000
0010
0000
0000
0002
0000
0000
0000
0000
0000
0000
0000
0000
0000
0000
0000
1003
0000
0100
0000
1000
0000
0100
0000
1000
0000
0020
0000
0000
0000
0000
0000
0100
0000
0000
0000
0130
0000
0000
0000
,
0001
0000
0000
1000
0000
0000
0000
0000
0000
1000
0000
0000
0200
0000
0000
0000
0000
0000
0000
0000
0000
0000
0000
0000
1300
0000
0001
0000
1000
0000
0001
0000
1000
0000
0100
0000
2000
0000
0000
0000
0001
0000
0000
0000
3001
0000
0000
0000
,
0001
0000
1000
0010
0100
0001
2000
0000
0000
0000
0000
0000
3001
0000
1000
0010
0100
0001
0200
0000
0000
0000
0000
0000
,
0302
1000
0000
0000
0023
0000
0000
0000
0032
0000
2003
0000
3200
0000
0000
0000
,
1300
0000
0000
1000
0001
0000
0001
0000
0000
0000
0100
0000
0101
0000
0001
0000
,
1000
0000
0000
1000
0001
0000
0001
0000
0000
0000
0100
0000
0110
0000
0010
0000
,
1000
0000
0000
1000
0001
0000
0001
0000
0000
0000
0010
0000
0110
0000
0100
0000
,
1000
0000
0000
1000
0010
0000
0010
0000
0000
0000
1000
0000
1001
0000
0001
0000
,
0010
0001
0010
0001
1000
0100
0010
0000
0001
0100
0001
0100
0001
0010
0100
0000
,
0010
0001
0010
0001
1000
0010
0100
0000
0010
1000
0010
1000
0100
0010
0001
0000
,
1000
0100
0001
0100
1000
0010
0001
0010
1000
0100
0001
0100
1000
0010
0001
0010
,
1000
0100
0010
0001
1000
0100
0010
0001
2000
0000
0000
0000
3002
0000
0000
0000
,
1003
0010
0100
0010
0000
1000
0010
1000
0000
0001
0010
0100
2000
0000
3002
0000
,
1003
0001
0010
0001
0000
0100
0010
0100
0000
0001
0100
0010
2000
0000
3002
0000
,
1003
0100
0010
0100
0000
1000
0010
1000
0000
0001
0010
0100
2000
0000
3002
0000
,
0013
0001
1000
0001
0000
0100
0010
0100
0000
0001
1000
0100
0020
0000
0032
0000
,
1003
0000
0001
0000
0010
0000
0100
0000
0010
0001
0010
0000
0100
0000
0000
0000
,
1000
0000
0001
0000
0100
0000
0010
0000
0100
0001
0100
0000
0010
0000
0000
0000
,
1000
0000
0100
0000
0010
0000
0100
0000
1000
0100
1000
0000
0001
0000
0000
0000
,
0100
0000
0001
0000
0010
0000
0001
0000
0100
0010
0100
0000
0001
0000
0000
0000
,
1000
0000
0001
1000
0001
0000
0010
0000
0100
0000
1000
0001
1000
0000
0100
0000
,
0010
0000
0001
1000
0001
0000
0100
0000
0010
0000
1000
0001
1000
0000
0010
0000
,
0100
0001
1000
0010
0100
0001
1000
0010
,
0200
0000
0000
0310
,
1000
0100
1000
0100
1000
0001
1000
0001
,
1000
0010
1000
0010
0100
0010
0100
0000
,
0101
0101
1010
1010
,
1001
0000
0000
0000
1001
0000
0000
0000
0001
0100
0001
0000
0010
0000
0100
0000
,
1000
0001
1000
0001
0100
0001
0100
0001
,
1000
0100
1000
0100
1000
0001
1000
0001
,
0100
0000
0000
0000
0001
1000
0001
0000
0100
0000
0010
0000
1000
0000
0000
0000
,
0001
0000
1000
0010
0000
1000
0010
0100
0010
0100
0000
0000
,
1001
0000
0001
0100
0001
0100
0001
1000
,
0001
1000
0100
1000
0100
1000
0010
0100
,
0001
0000
1000
0000
0001
0000
1000
0000
0100
0000
1000
0100
1000
0000
0100
0000
,
1000
0000
0000
0001
0000
0000
1000
0000
0000
0001
0000
0000
0100
0000
0001
0000
0100
0000
0001
0000
0000
0000
1000
0000
,
0002
0100
2003
0010
,
3002
0100
2003
0100
,
3001
1000
0100
0010
,
0002
0100
0103
0010
,
2002
0000
0000
0000
,
0000
0000
0000
0000
,
3003
0000
0000
0000
;

//---------------dance-double - ----------------
#NOTES:
     dance-double:
     :
     Easy:
     7:
     0.311,0.387,0.159,0.050,0.000:
10000000
01000000
10000000
01000000
,
00100000
00010000
00100000
00010000
,
01000000
00001000
01000000
00001000
,
00010000
00010000
00010000
00010000
,
00011000
00001000
00001000
00000000
,
00010000
00010000
00010000
00000000
,
00000010
00000010
00000010
00000000
,
00000100
00000100
00000100
00000000
,
00000001
00001000
00000001
00001000
,
00000001
00001000
00000001
00001000
,
00000001
00010000
00000001
00010000
,
00000001
00000000
00000000
00000000
,
00011000
00000000
00001000
00000000
01000000
00100000
01000000
00000000
,
00011000
00000000
00010000
00000000
00000010
00000100
00000010
00000000
,
00001000
00000001
00000010
00000000
00000001
00001000
00000100
00000000
,
00020000
00032000
02003000
03100000
,
10000000
00010000
10000000
00000000
10010000
00000000
00100000
00000000
,
00001000
00010000
00001000
00000000
00010000
00000000
00000010
00000000
,
00000100
00000110
00000100
00001001
,
00000001
00000000
00000100
00000000
00000010
00010000
00000010
00000000
,
00010000
00000000
00011000
00000000
01000000
00100000
01000000
00000000
,
00001000
00000000
00011000
00000000
00000010
00000100
00000010
00000000
,
00000100
00000110
00000100
00001001
,
00000001
00000000
00000010
00000000
00000100
00010000
00000100
00000000
,
00010000
00000000
00001000
00000000
00100000
00010000
00100000
00000000
,
00010000
00000000
10000000
00000000
00100000
01000000
00100000
00000000
,
01000000
01100000
01000000
10010000
,
10000000
00000000
00001000
00000000
00010000
00001000
00010000
00000000
,
00000110
00000000
00000000
00000000
,
00001001
00000000
00000000
00000000
,
00011000
00000000
00000000
00000000
,
01100000
00000000
00000000
00000000
,
10000000
00100000
01000000
00001000
,
00010000
00000010
00000100
00000001
,
00000010
00000100
00010000
00100000
,
01000000
10000000
01000000
10000000
02000000
00000000
00000000
00000000
,
13000000
01000000
00100000
00001000
,
00000100
00000000
00000010
00000000
00000001
00001000
00000001
00000000
,
00000100
00000010
00010000
01000000
,
00100000
00000000
10000000
00000000
00100000
01000000
00100000
00000000
,
10000000
00010000
10000000
00000000
,
00001000
00100000
00001000
00000000
,
00010000
00001000
00010000
00000000
,
00000010
00000100
00000010
00000000
,
00001000
00000001
00001000
00000001
,
00001000
00000001
00001000
00000001
,
00010000
00000001
00010000
00000001
,
00010000
00000000
00000000
00000000
,
00000001
00000010
00000001
00000000
,
00000100
00000010
00000100
00000000
,
00000001
00000010
00000001
00000000
,
00010000
00001000
00011000
00000000
,
00001000
01000000
00001000
00000000
,
10000000
01000000
10000000
00000000
,
00100000
01000000
00100000
00000000
,
10000000
10000000
10010000
00000000
,
00001000
00010000
00001000
00000000
,
00010000
00000100
00010000
00000000
,
00000010
00000100
00000010
00000000
,
00001000
00000001
00001000
00000000
,
00000010
00000100
00000010
00000100
,
00000010
00000100
00000010
00000100
,
00000001
00010000
00000001
00010000
,
00000001
00010000
00000001
00010000
,
00022000
00000000
00000000
00000000
,
00000000
00000000
00000000
00000000
,
00033000
00000000
00000000
00000000
;

//---------------dance-double - ----------------
#NOTES:
     dance-double:
     :
     Medium:
     10:
     0.402,0.470,0.419,0.117,0.000:
10000000
01000000
00100000
00011000
,
00001000
00000100
00000010
00000001
,
00001001
00001000
00000010
00000100
,
00000110
00000000
00000010
00000000
00000010
00000100
00000010
00000000
,
00001000
00000001
00001000
00000001
,
00000010
00000001
00000010
00000001
,
00010000
00000100
00010000
00000100
,
00010000
00000010
00000100
00000001
,
00000100
00000010
00010000
00001000
,
01000000
00100000
10000000
00001000
,
10000000
00001000
10000000
00001000
,
20000000
00000000
00000000
30000000
,
10010000
00000000
11000000
00000000
01000000
10000000
00001000
00100000
,
00101000
00000000
00011000
00000000
00000010
00000100
00000001
00000000
,
00001001
00001100
00001001
00000011
,
00000210
00000000
00000301
00000000
00001000
00000100
00000010
00000001
,
00010000
00000000
00011000
00000000
00001000
10000000
01000000
10000000
,
00001000
00000000
10001000
00000000
10000000
00100000
01000000
00000000
,
10010000
01010000
10010000
10100000
,
20010000
00000000
31000000
00000000
10000000
00010000
00100000
00000000
,
00011000
00000000
00010100
00000000
00001000
00000001
00000010
00000001
,
00001000
00000000
00001001
00000000
00000001
00000010
00000100
00000000
,
00011000
01001000
00011000
00010100
,
00001000
10000000
01000000
10000000
00010000
00100000
01000000
00000000
,
10010000
00000000
00110000
00000000
01000000
10000000
00001000
00000000
,
00011000
00000000
00010010
00000000
00000100
00000001
00001000
00000000
,
00001001
00001100
00001001
00000011
,
00000100
00010000
00001000
00000000
00010000
00001000
00010000
00000000
,
00000020
00000000
00000000
00000130
,
00000002
00000000
00000000
00001003
,
00000200
00000000
00000000
00010300
,
00002000
00000000
00000000
10003000
,
02000000
00000000
00000000
13000000
,
00200000
00000000
00000000
01300000
,
00002000
00000000
00000000
00013000
,
00000020
00000000
00000100
00000130
,
00000001
00001000
00000001
00001000
00000001
00001000
00000001
00001000
,
00000010
00001000
00000010
00001000
00000010
00001000
00000010
00001000
,
00000100
00010000
00000100
00010000
00000100
00010000
00000100
00010000
,
00001000
01000000
00001000
01000000
00001000
01000000
00001000
01000000
,
00001000
10000000
01000000
00100000
,
00010000
10000000
01000000
00100000
,
00010000
10000000
00100000
01000000
,
00001000
10000000
00100000
01000000
,
00001000
00010000
00000010
00000100
,
00000001
00000100
00000010
00010000
,
00001000
00100000
01000000
10000000
,
00200000
00000000
00000000
01300000
,
10010000
00010000
00100000
00001000
,
00010000
00001000
00010000
00000010
,
00000110
00000100
00000100
00000100
,
00001001
00001001
00001001
00000001
,
00010000
00000100
00000010
00000001
,
00000010
00000100
00010000
00001000
,
10001000
00000000
10000000
01000000
10000000
00000000
10000000
00000000
,
01100000
01100000
01100000
00000000
,
10010000
10000000
01000000
00100000
,
00001000
00010000
00000100
00000010
,
00000001
00000100
00000010
00010000
,
00001000
01000000
00100000
10000000
,
10010000
00010000
10010000
00000000
,
00011000
00001000
00011000
00000000
,
00001001
00000001
00001000
00000001
,
00010000
00000000
00001000
00010000
00001000
00000000
00001000
00000000
,
00022000
00000000
00000000
00000000
,
00000000
00000000
00000000
00000000
,
00033000
00000000
00000000
00000000
;

//---------------dance-double - ----------------
#NOTES:
     dance-double:
     :
     Hard:
     12:
     0.568,0.636,0.318,0.327,0.126:
00010000
00000000
00000000
00010000
10000000
00000000
01000000
00000000
00100000
00000000
00000000
00000000
10010000
00000000
00000000
00000000
,
00100000
00000000
00000000
00100000
00001000
00000000
00010000
00000000
00000100
00000000
00000000
00000000
00000110
00000000
00000000
00000000
,
00000010
00000000
00000000
00000010
00000001
00000000
00000100
00000000
00000010
00000000
00000000
00000000
00000110
00000000
00000000
00000000
,
00001001
00000000
00001001
00000000
00000110
00000010
00000010
00000010
,
00001000
00000100
00000010
00000100
00001000
00000000
00001000
00000000
,
00000010
00010000
00000100
00010000
00000010
00000000
00000010
00000000
,
00010000
00001000
00100000
01000000
10000000
00000000
10000000
00000000
,
01000000
10000000
00100000
10000000
01000000
00000000
01000000
00000000
,
10000000
00010000
10000000
00010000
00100000
00001000
00100000
00001000
,
00010000
00000100
00010000
00000100
00001000
00000010
00001000
00000010
,
00010000
00010000
00010000
00010000
,
00011000
00000000
00000000
00000000
,
00010000
00000001
00000000
00000001
00020000
00000000
00000000
00000000
00030100
00000000
00000100
00000000
00001000
00000000
00001000
00000000
,
00000100
00000010
00000000
00000010
00000002
00000000
00000000
00000000
00000103
00000000
00000100
00000000
00000120
00000000
00000000
00000000
,
00001030
00000000
00000001
00000010
00000100
00000000
00000000
00000000
00001000
00000000
00000001
00000010
00000100
00000000
00000000
00000000
,
00020000
00001000
00032000
00100000
00103000
00010000
10000000
01000000
,
10000000
00001000
00000000
00001000
02000000
00000000
00000000
00000000
03001000
00000000
00001000
00000000
10000000
00000000
10000000
00000000
,
01000000
00100000
00000000
00100000
00020000
00000000
00000000
00000000
01030000
00000000
01000000
00000000
01100000
00000000
00000000
00000000
,
00001000
00000000
00010000
00000100
00020000
00000000
00000000
00000000
00030001
00000010
00000100
00001000
00000002
00000000
00000000
00000000
,
00000203
00000000
00000302
00000000
00020003
00032000
00023000
00000000
,
00031000
01000000
00000000
01000000
00002000
00000000
00000000
00000000
10003000
00000000
10000000
00000000
00100000
00000000
00100000
00000000
,
01000000
00010000
00000000
00010000
20000000
00000000
00000000
00000000
30010000
00000000
00010000
00000000
10010000
00000000
00000000
00000000
,
00001000
00000000
00100000
00001000
00200000
00000000
00000000
00000000
00301000
00000000
00010000
00000100
00020000
00000000
00000000
00000000
,
00030001
00000010
00000100
00000010
00000002
00020003
00030002
00020003
,
00031000
00010000
00000000
00010000
00000020
00000000
00000000
00000000
00000130
00000000
00000100
00000000
00010000
00000000
00010000
00000000
,
00000100
00100000
00000000
00100000
00020000
00000000
00000000
00000000
00130000
00000000
00100000
00000000
00001000
00000000
00010000
00000000
,
00000001
00000000
00000100
00000010
00020000
00000000
00000000
00000000
00030001
00000000
00000100
00000010
00010000
00000000
00000000
00000000
,
00021000
00000000
00032000
00000000
00203000
00302000
00023000
00000000
,
00031000
00000000
10000000
01000000
00000000
01000000
10000000
00100000
,
01000000
00000000
00010000
00100000
00000000
00100000
00001000
00010000
,
00001000
00000000
00010000
00000100
00000000
00000100
00010000
00000001
,
00010000
00000000
00000100
00000010
00000000
00000010
00000100
00001000
,
00000100
00000010
00000001
00000001
00000010
00000100
00010000
00010000
,
00001000
00100000
00010000
00010000
10000000
01000000
00100000
00100000
,
00010000
01000000
10000000
01000000
00001000
00010000
00000100
00010000
,
00000001
00000001
00000001
00000001
00000002
00000000
00002003
00000000
,
00003001
00000010
00000100
00000010
00000001
00001000
00000010
00001000
,
00000001
00010000
00000100
00010000
00000001
00010000
00001000
01000000
,
00100000
01000000
00001000
00010000
00001000
10000000
00100000
10000000
,
00010000
00100000
01000000
10000000
00001000
00010000
00000100
00000010
,
00000001
00010000
00000100
00010000
00000001
00010000
00000100
00000000
,
00010000
00000100
00001000
00000100
00010000
00000100
00001000
00000000
,
00000001
00000010
00000100
00000010
00000001
00000010
00000100
00000000
,
00010000
00001000
01000000
00001000
00010000
00001000
01000000
00000000
,
00010000
10000000
00010000
10000000
01000000
10000000
01000000
10000000
,
00001000
01000000
00001000
01000000
00001000
00010000
00000010
00000100
,
00000010
00000010
00000010
00000010
,
00000110
00000000
00000000
00000000
,
00001001
00001000
00001001
00000001
,
00010001
00010000
00011000
00001000
,
01001000
01000000
01100000
00100000
,
10100000
00000000
10000000
00000000
01000000
00100000
00010000
00100000
,
01000000
10000000
10010000
00010000
,
00110000
00100000
01100000
01000000
,
01001000
00000000
00001000
00010000
00000010
00000000
00000010
00000000
,
00001000
00000000
00000001
00001000
00000000
00000001
00002000
00000000
00000000
00003100
00000000
00000000
,
00011000
00010000
00010001
00000001
,
00000101
00000100
00000110
00000110
,
00011000
00011000
01100000
01100000
,
10010000
00000000
10010000
00000000
00010000
00100000
01000000
10000000
,
02000000
00000000
13000000
00000000
10010000
00000000
00100000
00010000
,
00200000
00000000
00301000
00000000
00011000
00000000
00000010
00000100
,
00000020
00000130
00001001
00000001
,
00020000
00001000
00001000
00031000
,
00022000
00000000
00000000
00000000
,
00000000
00000000
00000000
00000000
,
00033000
00000000
00000000
00000000
;

//---------------dance-double - ----------------
#NOTES:
     dance-double:
     :
     Challenge:
     15:
     0.765,0.829,0.167,0.427,0.683:
00000001
00000000
00001000
00000010
00001000
00000000
00000100
00000000
00000010
00000001
00001000
00000001
00001000
00000001
00010000
00000100
,
00010000
00000000
00000010
00000100
00000010
00000000
00010000
00000000
00001000
01000000
00001000
01000000
00001000
10000000
00001000
10000000
,
00001000
00000000
01000000
00100000
01000000
00000000
00100000
00000000
10000000
00000000
00010000
10000000
00010000
00000000
10000000
00000000
,
10010000
01000000
01100000
00100000
10100000
10100000
10010000
10010000
,
00010000
10000000
01000000
10000000
00001000
00100000
00001000
00000000
,
00100000
00001000
10000000
01000000
10000000
00001000
00100000
00000000
,
00001000
00010000
00001000
00100000
01000000
00100000
00001000
00000000
,
00100000
01000000
10000000
01000000
00100000
00001000
00100000
00000000
,
00001000
00010000
00000100
00001000
00000100
00010000
00001000
00010000
,
00000100
00001000
00000100
00010000
00001000
00010000
00000100
00001000
,
00000001
00000100
00000010
00010000
00000001
00000100
00000010
00010000
,
00002000
00000000
00000000
00013000
,
00000010
00000000
00000000
00010000
00000000
00000000
00000000
00000000
00000000
00010000
00000000
00000000
00002000
00000000
00000000
00000000
00000000
00000000
00000000
00000000
00000000
00000000
00000000
00000000
00013000
00000000
00000000
00000000
00000100
00000000
00001000
00000000
00000000
00000000
00000100
00000000
00001000
00000000
00000100
00000000
00001000
00000000
00000100
00000000
00001000
00000000
00000000
00000000
,
00000010
00000000
00000000
00000100
00000000
00000000
00000000
00000000
00000000
00000100
00000000
00000000
00000002
00000000
00000000
00000000
00000000
00000000
00000000
00000000
00000000
00000000
00000000
00000000
00000103
00000000
00000000
00000000
00000010
00000000
00000100
00000000
00000000
00000000
00000010
00000000
00000200
00000000
00000000
00000000
00000000
00000000
00000000
00000000
00000000
00000000
00000000
00000000
,
00000301
00000000
00010000
00000100
00000010
00000001
00010000
00000000
00000000
00000000
00000000
00000000
00000001
00000000
00010000
00000100
00000010
00000001
00010000
00000000
00000000
00000000
00000000
00000000
,
00000200
00010000
00020300
00001000
00031000
01001000
01000000
01100000
,
00100000
00000000
00000000
10000000
00000000
00000000
00000000
00000000
00000000
10000000
00000000
00000000
02000000
00000000
00000000
00000000
00000000
00000000
00000000
00000000
00000000
00000000
00000000
00000000
13000000
00000000
00100000
00000000
01000000
00000000
00100000
00000000
00000000
00000000
02000000
00000000
00000000
00000000
00000000
00000000
00100000
00000000
00000000
00000000
03100000
00000000
00000000
00000000
,
10000000
00000000
00000000
00010000
00000000
00000000
00000000
00000000
00000000
00010000
00000000
00000000
00200000
00000000
00000000
00000000
00000000
00000000
00000000
00000000
00000000
00000000
00000000
00000000
00310000
00000000
00100000
00000000
01000000
00000000
10000000
00000000
01000000
00000000
10000000
00000000
01000000
00000000
00000000
00000000
10000000
00000000
00000000
00000000
10000000
00000000
00000000
00000000
,
00001000
00000000
00000000
00000000
10000000
00000000
01000000
00000000
00100000
00000000
00001000
00000000
10000000
00000000
00000000
00000000
00000000
00000000
00000000
00000000
00000000
00000000
00000000
00000000
00001000
00000000
00000000
00100000
00000000
00000000
01000000
00000000
00000000
10000000
00000000
00000000
00002000
00000000
00000000
00000000
00000000
00000000
00000000
00000000
00000000
00000000
00000000
00000000
,
00203000
00001000
00000000
00000000
00302000
00000000
00000000
00000000
00023000
00000000
00030020
00000000
00000230
00000000
00000000
00000000
,
00000301
00000000
00000000
00010000
00000000
00000000
00000000
00000000
00000000
00010000
00000000
00000000
00000200
00000000
00000000
00000000
00000000
00000000
00000000
00000000
00000000
00000000
00000000
00000000
00001300
00000000
00000000
00000000
00000001
00000000
00001000
00000000
00000000
00000000
00000001
00000000
00001000
00000000
00000001
00000000
00001000
00000000
00000001
00000000
00001000
00000000
00000000
00000000
,
00000001
00000000
00000000
00000010
00000000
00000000
00000000
00000000
00000000
00000010
00000000
00000000
00000200
00000000
00000000
00000000
00000000
00000000
00000000
00000000
00000000
00000000
00000000
00000000
00001300
00000000
00000000
00000000
00000010
00000000
00000100
00000000
00000000
00000000
00000010
00000000
00000200
00000000
00000000
00000000
00000000
00000000
00000000
00000000
00000000
00000000
00000000
00000000
,
00000301
00000000
00010000
00000100
00000010
00000001
00020000
00000000
00000000
00000000
00000000
00000000
00030001
00000000
00010000
00000100
00000010
00000001
00020000
00000000
00000000
00000000
00000000
00000000
,
00032000
00000000
00000000
00010000
00000000
00000000
00203000
00000000
00000000
00010000
00000000
00000000
00301000
00000000
01000000
00001000
00000000
01000000
00010000
00000000
01000000
00001000
00000000
00000000
,
10000000
00000000
00000000
00010000
00000000
00000000
00000000
00000000
00000000
00010000
00000000
00000000
00200000
00000000
00000000
00000000
00000000
00000000
00000000
00000000
00000000
00000000
00000000
00000000
00310000
00000000
10000000
00000000
00010000
00000000
10000000
00000000
00010000
00000000
20000000
00000000
00000000
00000000
00000000
00000000
00010000
00000000
00000000
00000000
30010000
00000000
00000000
00000000
,
00100000
00000000
00000000
00001000
00000000
00000000
00000000
00000000
00000000
00001000
00000000
00000000
20000000
00000000
00000000
00000000
00000000
00000000
00000000
00000000
00000000
00000000
00000000
00000000
30100000
00000000
01000000
00000000
00100000
00000000
01000000
00000000
00100000
00000000
01000000
00000000
00200000
00000000
00000000
00000000
10000000
00000000
00000000
00000000
10300000
00000000
00000000
00000000
,
00001000
00000000
10000000
00100000
01000000
00001000
20000000
00000000
00000000
00000000
00000000
00000000
30001000
00000000
10000000
00100000
01000000
00001000
20000000
00000000
00000000
00000000
00000000
00000000
,
30002000
00100000
00000000
00000000
00023000
00000000
00000000
00000000
00030200
00000000
00000320
00000000
00000032
00000000
00000000
00000000
,
00001003
00000000
00000000
00000001
00000100
00000000
00000100
00000000
00000000
00000000
00000010
00000000
00010010
00000000
00010000
00000000
,
00001000
00000000
00000000
00001000
00100000
00000000
00100000
00000000
00000000
00000000
00010000
00000000
10010000
00000000
10000000
00000000
,
01000000
00000000
00000000
01000000
00100000
00000000
00100000
00000000
00000000
00000000
00001000
00000000
00011000
00000000
00010000
00000000
,
00000010
00000000
00000000
00000010
00000100
00000000
00000100
00000000
00000000
00000000
00000001
00000000
00001001
00000000
00001000
00000000
,
00000100
00001000
00000100
00001000
00000001
00000010
00000100
00000000
00010000
00000100
00010000
00000100
00010000
00001000
00100000
00000000
,
00001000
00100000
00001000
00100000
00010000
10000000
01000000
00000000
10000000
01000000
10000000
01000000
00100000
00010000
01000000
00000000
,
00010000
00100000
10000000
00100000
00010000
01000000
10000000
01000000
00001000
00100000
10000000
00100000
00001000
01000000
10000000
01000000
,
00001000
00100000
01000000
10000000
00010000
00100000
01000000
10000000
00002000
00000000
00000000
00000000
00023000
00000000
00000000
00000000
,
00030010
00010000
00000100
00010000
00000000
00000010
00000100
00000010
00000000
00001000
00000100
00000010
00000002
00000000
00002003
00000000
,
00003001
00010000
00001000
00010000
00000000
00000100
00001000
00000100
00000000
00010000
00000100
00001000
00000020
00000000
00000230
00000000
,
00000301
00000100
00000010
00000100
00000000
00000001
00001000
00000001
00000000
00001000
00000100
00000010
00000002
00000000
00002003
00000000
,
00003100
00010000
00000010
00010000
00000000
00000010
00000100
00000010
00000000
00001000
00000001
00000010
00000200
00000000
00002300
00000000
,
00003001
00000000
00000010
00000000
00000100
00000000
00010000
00000000
00000100
00000010
00000100
00000000
00010000
00000000
00000000
00000000
,
00001000
00000000
01000000
00000000
00100000
00000000
10000000
00000000
00001000
00100000
00001000
00000000
10000000
00000000
00000000
00000000
,
01000000
00000000
00100000
00000000
00001000
00000000
00100000
00000000
01000000
00100000
01000000
00000000
10000000
00000000
00000000
00000000
,
00001000
00000000
01000000
00000000
00100000
00000000
01000000
00000000
00001000
00010000
00001000
00000000
01000000
00000000
00000000
00000000
,
00010000
00000000
10000000
00010000
10000000
00000000
01000000
00000000
00100000
00000000
00001000
01000000
00001000
00000000
01000000
00000000
,
00100000
00000000
10000000
00100000
10000000
00000000
00001000
00000000
00100000
00000000
00001000
00010000
00001000
00000000
00010000
00000000
,
00000010
00000100
00000001
00010000
00000010
00000100
00000001
00010000
,
00002000
00000000
00000000
00013000
,
00001000
00100000
00001000
00100000
00001000
10000000
00001000
10000000
,
00001000
01000000
00001000
01000000
00100000
01000000
00100000
00000000
,
10100000
10100000
01010000
01010000
,
10010000
00000000
00000000
00000000
10010000
00000000
00000000
00000000
10000000
00100000
10000000
00000000
01000000
00000000
00100000
00000000
,
00001000
00010000
00001000
00010000
00000100
00001000
00000100
00001000
,
00000001
00000100
00000001
00000100
00000001
00001000
00000001
00001000
,
00000100
00000000
00000000
00000000
00001000
00000001
00001000
00000000
00000010
00000000
00000100
00000000
00000001
00000000
00000000
00000000
,
00010000
00000000
00000100
00010000
00000000
00000100
00010000
00001000
00010000
00001000
00000000
00000000
,
10001000
00000000
10000000
00100000
10000000
00100000
10000000
00010000
,
10000000
00010000
00100000
00010000
00100000
00001000
00010000
00001000
,
00010000
00000000
00000100
00000000
00010000
00000000
00000100
00000000
00001000
00000000
00000001
00001000
00000001
00000000
00001000
00000000
,
00000001
00000000
00000000
00000010
00000000
00000000
00000100
00000000
00000000
00010000
00000000
00000000
00001000
00000000
00010000
00000000
00001000
00000000
00010000
00000000
00000000
00000000
00001000
00000000
,
02000000
00100000
03020000
10000000
,
00230000
00010000
02300000
10000000
,
03100000
00001000
00100000
01000000
,
20000000
00001000
30001000
00010000
,
00022000
00000000
00000000
00000000
,
00000000
00000000
00000000
00000000
,
00033000
00000000
00000000
00000000
;

//---------------dance-single - ----------------
#NOTES:
     dance-single:
     :
     Beginner:
     3:
     0.122,0.188,0.126,0.000,0.000: // measure 1
0001
0000
0000
0000
,  // measure 2
0010
0000
0000
0000
,  // measure 3
0100
0000
0000
0000
,  // measure 4
1000
0000
0001
0000
,  // measure 5
1001
0000
0000
0000
,  // measure 6
1000
0000
0000
0000
,  // measure 7
1000
0000
0000
0000
,  // measure 8
1000
0000
0000
0000
,  // measure 9
0110
0000
0010
0000
,  // measure 10
0010
0000
0010
0000
,  // measure 11
0100
0000
0000
0000
,  // measure 12
0010
0000
0000
0000
,  // measure 13
1001
0000
1000
0000
,  // measure 14
0001
0000
1000
0000
,  // measure 15
0000
0110
0000
0110
,  // measure 16
0010
0000
0010
0000
,  // measure 17
1000
0000
0001
0000
,  // measure 18
0010
0000
0001
0000
,  // measure 19
0000
1001
0000
1001
,  // measure 20
0001
0000
1000
0000
,  // measure 21
0100
0000
0010
0000
,  // measure 22
0100
0000
0010
0000
,  // measure 23
0000
1001
0000
1001
,  // measure 24
1000
0000
0010
0000
,  // measure 25
0100
0000
0100
0000
,  // measure 26
0001
0000
0001
0000
,  // measure 27
0000
1001
0000
1001
,  // measure 28
0001
0000
0010
0000
,  // measure 29
0001
0000
0000
0000
,  // measure 30
0000
0000
0000
0000
,  // measure 31
0100
0000
0000
0000
,  // measure 32
0000
0000
0000
0000
,  // measure 33
0010
0000
0000
0000
,  // measure 34
0100
0000
0000
0000
,  // measure 35
0010
0000
0000
0000
,  // measure 36
0000
0000
0010
0000
,  // measure 37
0110
0000
0000
0000
,  // measure 38
0100
0000
0000
0000
,  // measure 39
0010
0000
0000
0000
,  // measure 40
0100
0000
0000
0000
,  // measure 41
1001
0000
0000
0000
,  // measure 42
0001
0000
0000
0000
,  // measure 43
0001
0000
0000
0000
,  // measure 44
0001
0000
0000
0000
,  // measure 45
1000
0000
0000
0000
,  // measure 46
0001
0000
0000
0000
,  // measure 47
1000
0000
0000
0000
,  // measure 48
0000
0000
0000
0000
,  // measure 49
0010
0000
0010
0000
,  // measure 50
0010
0000
0000
0000
,  // measure 51
0100
0000
0100
0000
,  // measure 52
0100
0000
0000
0000
,  // measure 53
0010
0000
0010
0000
,  // measure 54
0010
0000
0000
0000
,  // measure 55
0100
0000
0100
0000
,  // measure 56
0100
0000
0000
0000
,  // measure 57
1001
0000
0001
0000
,  // measure 58
0001
0000
0000
0000
,  // measure 59
1000
0000
1000
0000
,  // measure 60
1000
0000
0000
0000
,  // measure 61
0001
0000
0000
0000
,  // measure 62
0010
0000
0000
0000
,  // measure 63
0100
0000
0000
0000
,  // measure 64
1000
0000
0000
0000
,  // measure 65
1001
0000
0000
0000
;
