#TITLE:Plum;
#SUBTITLE:;
#ARTIST:肥塚良彦;
#TITLETRANSLIT:;
#SUBTITLETRANSLIT:;
#ARTISTTRANSLIT:YOSHIHIKO KOEZUKA;
#CREDIT:DigiMindAxel;
#BANNER:Plum.png;
#BACKGROUND:Plum-bg.png;
#LYRICSPATH:;
#CDTITLE:jubeat.png;
#MUSIC:Plum.ogg;
#METERTYPE:DDR X;
#OFFSET:-8.635;
#SAMPLESTART:51.057;
#SAMPLELENGTH:12.000;
#SELECTABLE:YES;
#DISPLAYBPM:256.000;
#BPMS:0.000=256.000,386.000=246.000,389.000=215.000,391.000=165.000,392.000=128.000;
#STOPS:299.000=0.469
;
#BGCHANGES:;

//---------------dance-single - ----------------
#NOTES:
     dance-single:
     :
     Easy:
     5:
     0.195,0.276,0.093,0.223,0.000:
0002
0000
0000
0000
,
0000
2003
0000
0000
,
0000
0000
3002
0000
,
0000
0000
0000
2003
,
0000
0000
0000
0000
,
3020
0000
0000
0000
,
0000
0230
0000
0000
,
0000
0000
0320
0000
,
0000
0000
0000
0230
,
0000
0000
0000
0300
,
0001
0000
0000
0001
,
0000
0000
1000
0000
,
0000
1000
0000
0000
,
0010
0000
0000
0010
,
0000
0000
0100
0000
,
0000
0100
0000
0000
,
0001
0000
0000
0010
,
0000
0000
0100
0000
,
0000
1000
0000
0000
,
0001
0000
0000
0001
,
0000
0000
0100
0000
,
0000
0100
0000
0000
,
0001
0000
0000
0010
,
0000
0000
0001
0000
,
0000
0100
0000
0000
,
0001
0000
0000
0010
,
0000
0000
0001
0000
,
0000
0100
0000
0000
,
0010
0000
0000
1000
,
0000
0000
0100
0000
,
0000
1000
0000
0000
,
0002
0000
0000
1003
,
0000
0000
2000
0000
,
0000
3001
0000
0000
,
0002
0000
0000
1003
,
0000
0000
2000
0000
,
0000
3001
0000
0000
,
1001
0000
0000
0000
,
0000
0000
0020
0000
,
0000
0030
0000
0000
,
0200
0000
0000
0000
,
0000
0320
0000
0000
,
0000
0000
0230
0000
,
0000
0000
0000
0000
,
0320
0000
0000
0030
,
0000
0000
2000
0000
,
0000
0000
0000
3002
,
0000
0000
0000
0000
,
0023
0000
0000
0000
,
0000
0000
0032
0000
,
0000
0000
0000
0000
,
0103
0000
0000
0010
,
0000
0000
1000
0000
,
0000
0100
0000
0000
,
0010
0000
0000
0001
,
0000
0000
0010
0000
,
0000
0001
0000
0000
,
0110
0000
0000
0100
,
0000
0000
0100
0000
,
0000
0000
0000
0000
,
0001
0000
0000
0010
,
0000
0000
0100
0000
,
0000
2000
0000
0000
,
3001
0000
0000
0000
,
0000
0000
0001
0000
,
0000
0000
0000
0000
,
0001
0000
0000
0000
,
0000
0000
1001
0000
,
0000
0000
0000
0000
,
0110
0000
0000
0100
,
0000
0000
0010
0000
,
0000
1000
0000
0000
,
0001
0000
0000
0001
,
0000
0000
1000
0000
,
0000
0010
0000
0000
,
0000
1001
0000
0000
,
0001
0000
1001
0000
,
0000
1000
0000
1001
,
0000
0000
0001
0000
,
0000
0010
0000
0000
,
0100
0000
0000
1001
,
0000
0000
1000
0000
,
0000
0010
0000
0000
,
0100
0000
0000
0001
,
0000
0000
0001
0000
,
0000
1000
0000
0000
,
1000
0000
0000
0001
,
0000
0000
0100
0000
,
0000
0010
0000
0000
,
1000
0000
0000
0001
,
0000
0000
0100
0000
,
0000
0010
0000
0000
,
1000
0000
0000
0001
,
0000
0000
1001
0000
,
0000
0001
0000
0000
,
1001
0000
0000
1000
,
0000
0000
0100
0000
,
0000
0020
0000
0000
,
0032
0000
0000
0000
,
0000
0003
0000
0000
0000
0000
0000
0000
;

//---------------dance-single - ----------------
#NOTES:
     dance-single:
     :
     Medium:
     8:
     0.351,0.461,0.177,0.232,0.000:
1000
0000
0000
1000
0000
0000
1000
0000
,
0000
0000
0100
0000
0000
0100
0000
0000
,
0100
0000
0000
0000
0010
0000
0000
0010
,
0000
0010
0000
0001
,
0000
0001
0000
0000
0001
0000
0000
0000
,
0100
0000
0000
0100
0000
0000
0100
0000
,
0000
0000
0010
0000
0000
0010
0000
0000
,
0010
0000
0000
0000
1000
0000
0000
1000
,
0000
1000
0000
2002
,
0000
0000
0000
3003
,
1000
0001
0100
0001
,
0100
0000
0001
1000
,
0100
2000
0000
3000
,
0010
1000
0001
1000
,
0001
0010
0100
1000
,
0100
0010
0000
0000
,
0001
1000
0100
1000
,
0001
1000
0001
0100
,
0001
0200
0000
0300
,
0110
0000
0000
0100
,
0001
1000
0001
0100
,
0001
1000
0001
0000
,
0100
0001
1000
0100
,
1000
0000
0010
1000
,
0100
2000
0000
3000
,
0010
0100
0001
0100
,
0001
1000
0100
0010
,
0001
1000
0000
0000
,
0010
0100
0010
1000
,
0100
1000
0001
1000
,
0001
1000
0000
0000
,
1001
0000
0000
0110
,
0000
0000
1001
0000
,
0000
0110
0000
0000
,
0011
0000
0000
1100
,
0000
0000
0011
0000
,
0000
1100
0000
0000
,
1001
0000
0000
0001
0000
0000
1000
0000
,
0000
1000
0000
0000
0000
0002
0000
0000
,
0000
1003
0000
0000
,
0020
0000
0000
0000
,
0000
0230
0000
0000
,
0000
0000
0310
0000
,
0000
0110
0000
0000
,
2002
0000
0000
3003
,
0000
0000
0001
0000
,
0000
0010
0000
0001
,
0000
0000
0100
0000
,
0010
0000
0000
1000
,
0000
0000
0100
0000
,
0000
0010
0000
0000
,
0002
0000
0000
1003
,
0001
1000
0200
0000
,
0000
1300
0001
0010
,
0002
0000
0000
0203
,
0000
0000
0320
0000
,
0000
2030
0000
0000
,
3001
0000
0000
0001
0000
0000
1000
0000
,
0000
1000
0000
0000
0020
0000
0000
0000
,
0000
0130
0000
0000
,
0001
0001
0000
1000
,
1000
0000
0001
0001
,
0000
2000
0000
0000
,
3020
0000
0000
0000
,
0030
0000
0200
0000
,
0000
0000
0300
0000
,
0020
0000
0000
0230
,
0000
0000
0310
0000
,
0000
0000
0000
0000
,
1001
0000
0000
1000
,
0000
0000
1001
0000
,
0000
0001
0000
0000
,
0110
0000
0000
0100
,
0000
0000
0110
0000
,
0000
0010
1000
0010
,
0000
1001
0000
0000
,
1000
0100
1000
0000
,
0000
0010
0100
0001
,
0000
0000
0010
0100
,
1000
0010
0100
0001
,
0020
0000
0000
0031
,
1000
0000
1000
0001
,
0000
0001
0100
0000
,
0100
0010
0000
1000
,
0100
0000
0100
1000
,
0000
1000
0001
0000
,
0001
0100
0000
0001
,
0000
1000
0000
0000
0001
0000
0000
1000
,
0000
0000
0100
0000
0000
0010
0000
0000
,
0001
0000
0000
0100
,
0000
0001
0000
0000
0100
0000
0000
0001
,
0000
0000
0010
0000
0000
0100
0000
0000
,
1000
0000
0000
0001
,
0001
1000
0100
1000
,
0100
1000
1000
0010
,
0100
0000
0000
0001
,
0001
1000
0010
1000
,
0010
1000
0100
0010
,
2002
0000
0000
0000
,
0000
3003
0000
0000
0000
0000
0000
0000
;

//---------------dance-single - ----------------
#NOTES:
     dance-single:
     :
     Hard:
     13:
     0.681,0.645,0.446,0.279,0.000:
0001
0100
0000
0001
0100
0000
0001
0000
,
0001
0000
0010
0100
0000
0010
0100
0000
,
1000
0000
1000
0000
0010
1000
0000
0010
,
1000
0000
0001
0000
0001
0000
0010
0100
,
0000
0010
0100
0000
1000
0001
1000
0000
,
0001
0100
0000
0001
0100
0000
0001
0000
,
0001
0000
1000
0100
0000
1000
0100
0000
,
1000
0000
1000
0000
0100
0010
0000
0100
,
0010
0000
0001
0000
0001
0000
0100
0010
,
0100
0010
0100
0010
0100
0010
0100
0000
,
0001
0000
1000
0100
1000
0100
0010
0000
,
0010
0000
0000
0000
0001
0000
0100
0001
,
0100
0001
2000
0000
0000
0000
3000
0000
,
0001
0000
1000
0100
1000
0100
0010
0000
,
0010
0001
1000
1000
,
0010
0000
0200
0000
0000
0000
0301
1000
,
0100
0100
0010
0001
,
0001
0100
0010
0000
,
1000
0000
1000
0000
0001
0010
0100
0000
,
1001
0000
0001
0100
0010
0000
1000
0000
,
1000
0000
0010
0000
0100
0000
0100
0001
,
0010
0000
0100
0000
0100
1000
0001
0000
,
1001
0000
1000
0100
1000
0100
0010
0000
,
0010
0000
0000
0000
0001
0000
0100
0001
,
0100
0001
2000
0000
0001
0000
3001
0000
,
1001
0000
0001
0100
0001
0100
0010
0000
,
0010
1000
0001
0001
,
0010
0200
1000
1300
,
1001
0001
1000
1100
,
0100
1000
1002
0023
,
0230
0000
2300
0000
0000
0000
3001
1000
,
0100
0000
0000
1000
0100
0010
0001
0000
,
0000
0100
0010
1000
0100
0000
0000
1000
,
0001
0010
0100
0000
0000
1000
0001
0100
,
0001
0000
0000
0100
0010
1000
0100
0000
,
0000
1000
0001
0010
0100
0000
0000
1000
,
0100
0010
0001
0000
0001
0000
1000
0000
,
0010
1000
0000
1000
0000
1000
0001
1000
,
0001
1000
0001
1000
0000
0001
0010
0100
,
1000
0100
0010
0000
0000
0000
0001
1000
,
0002
0000
0000
0100
0000
0000
0103
0000
,
0001
0000
2000
0000
0000
0100
0000
0000
,
3100
0010
2002
0000
,
3003
0220
0000
0330
,
1001
0000
1000
0100
1000
0000
1100
0000
,
0000
0000
1000
0001
0010
0000
0001
0010
,
0001
0010
0100
0000
0100
0000
1001
0000
,
1000
0010
1000
0010
0100
0000
0100
0000
,
1001
0000
0001
1000
0001
1000
0100
0000
,
0100
1000
0001
0010
,
0100
0000
1000
0001
0010
0100
1000
0000
,
0002
0000
0000
0100
0000
0000
1003
0000
,
0110
0000
0010
0000
2000
0000
0000
0010
,
0000
3001
0110
0100
,
0002
0000
0000
1000
0000
0000
2003
0000
,
0000
0100
0000
0000
3200
0000
0000
0010
,
0000
0000
0320
0000
0000
0001
0000
0000
,
0031
0000
0000
1001
0000
0000
0011
0000
,
0000
1001
0000
0000
0012
0000
0000
0000
,
0000
0000
1003
0001
0010
0100
1000
0100
,
0010
0011
0001
1001
,
1000
0010
0110
0100
,
0101
2002
0000
3003
,
0200
0000
0000
1000
,
1300
0000
0020
0000
,
0000
0100
0130
0000
,
0001
0000
1000
0010
1000
0000
0001
0000
,
0100
0010
0100
0000
0220
0000
0000
0000
,
0000
0000
0330
0000
0000
0000
0010
1000
,
0100
0000
0000
1000
0010
0100
0010
0000
,
0000
0100
0001
0010
0001
0000
0000
0010
,
0100
1000
0100
0000
0000
1000
0001
0100
,
0001
0000
0000
1000
0100
0010
0001
0000
,
0000
0010
0100
1000
0010
0000
0000
0100
,
0001
1000
0100
0000
0100
0000
1100
0000
,
0100
0001
1000
0000
1000
0100
0000
0100
,
0010
0000
0110
0000
0010
0000
0010
0001
,
0000
0001
0100
0000
0110
0000
0010
0000
,
1000
0001
0010
0100
1000
0000
1100
0000
,
0100
0110
0010
0011
,
0001
0010
0100
1000
0001
0000
0100
0000
,
0100
0010
1000
0000
0100
0000
0100
1000
,
0010
0000
0100
0000
0100
0001
1000
0000
,
0001
0000
0001
0010
0100
0000
0010
0000
,
0010
0001
1000
0000
0100
0000
0100
0010
,
0001
0000
0010
0000
0010
0100
1000
0000
,
0010
0000
0010
1000
0001
0000
0101
0000
,
0000
1001
0000
0000
0101
0000
0000
1001
,
0000
0000
2010
0000
0000
0001
0000
0000
,
3001
1000
0100
0010
0001
0000
1001
0000
,
0000
0011
0000
0000
1001
0000
0000
0011
,
0000
0000
1001
0000
0000
1100
0000
0000
,
1000
0001
0100
0010
1000
0010
0100
0000
,
0100
0001
1001
1000
,
0010
0110
0100
0001
,
1001
0000
0000
0011
,
0001
1000
1100
0100
,
1000
1010
0010
0100
,
0202
0000
0000
0000
,
0000
0303
0000
0000
0000
0000
0000
0000
;

//---------------dance-double - ----------------
#NOTES:
     dance-double:
     :
     Easy:
     6:
     0.226,0.276,0.260,0.251,0.000:
20000000
00000000
00000000
00000000
,
00000000
30200000
00000000
00000000
,
00000000
00000000
02300000
00000000
,
00000000
00000000
00000000
03002000
,
00000000
00000000
00000000
00000000
,
00023000
00000000
00000000
00000000
,
00000000
00032000
00000000
00000000
,
00000000
00000000
00023000
00000000
,
00000000
00000000
00000000
00030002
,
00000000
00000000
00000003
00000000
,
00001000
00000000
00000000
00001000
,
00000000
00000000
00000001
00000000
,
00000000
00000010
00000000
00000000
,
00000100
00000000
00000000
00000100
,
00000000
00000000
00010000
00000000
,
00000000
00000100
00000000
00000000
,
00010000
00000000
00000000
00001000
,
00000000
00000000
01000000
00000000
,
00000000
00100000
00000000
00000000
,
10010000
00000000
00000000
10000000
,
00000000
00000000
10010000
00000000
,
00000000
00010000
00000000
00000000
,
01000000
00000000
00000000
00100000
,
00000000
00000000
01000000
00000000
,
00000000
00001000
00000000
00000000
,
00010000
00000000
00000000
00001000
,
00000000
00000000
00010000
00000000
,
00000000
00000100
00000000
00000000
,
00010000
00000000
00000000
00000100
,
00000000
00000000
00001000
00000000
,
00000000
00000001
00000000
00000000
,
00002001
00000000
00000000
00003100
,
00000000
00000000
00001002
00000000
,
00000000
00000103
00000000
00000000
,
00002001
00000000
00000000
00003010
,
00000000
00000000
00001002
00000000
,
00000000
00000013
00000000
00000000
,
00001001
00000000
00000000
00001001
,
00000000
00000000
00000001
00001000
,
00000001
00010000
00000000
00000000
,
00000200
00000000
00000000
00000000
,
00000000
00020300
00000000
00000000
,
00000000
00000000
00032000
00000000
,
00000000
00000000
00000000
00000000
,
00000000
00000000
00000000
00003000
,
00000000
00000000
02200002
00000000
,
00000000
00000000
03300000
20020003
,
00000000
00000000
00000000
30030000
,
02200000
00000000
00000000
00000000
,
00000000
03300000
20020000
00000000
,
00000000
00000000
00000000
30030000
,
10000000
00000000
00000000
00010000
,
00000000
00000000
00100000
00000000
,
00000000
00010000
00000000
00000000
,
10000000
00000000
00000000
01000000
,
00000000
00000000
00100000
00000000
,
00000000
00010000
00000000
00000000
,
10010000
00000000
00000000
10010000
,
00000000
00000000
10010000
00000000
,
00000000
00000000
00000000
00000000
,
00100000
00000000
00000000
01000000
,
00000000
00000000
00001000
00000000
,
00000000
00020000
00000000
00000000
,
00031000
00000000
00000000
00000000
,
00000000
00000000
00001000
00000000
,
00000000
00000000
00000000
00000000
,
00001000
00000000
00000000
00000000
,
00000000
00000000
00011000
00000000
,
00000000
00000000
00000000
00000000
,
00000110
00000000
00000000
00000100
,
00000000
00000000
00000001
00000000
,
00000000
00000100
00000000
00000000
,
00000010
00000000
00000000
00010000
,
00000000
00000000
00001000
00000000
,
00000000
00010000
00000000
00000000
,
00000000
00011000
00000000
00000000
,
00001000
00000000
00011000
00000000
,
00000000
00010000
00000000
00011000
,
00000000
00000000
00100000
00000000
,
00000000
01000000
00000000
00000000
,
10000000
00000000
00000000
10010000
,
00000000
00000000
00010000
00000000
,
00000000
00100000
00000000
00000000
,
01000000
00000000
00000000
10000000
,
00000000
00000000
00010000
00000000
,
00000000
00100000
00000000
00000000
,
00001000
00000000
00000000
00011000
,
00000000
00000000
00010000
00000000
,
00000000
00011000
00000000
00000000
,
00000000
00000000
00000000
00000110
,
00000000
00000000
00000010
00000000
,
00000000
00000110
00000000
00000000
,
00000000
00000000
00000000
00001001
,
00000000
00000000
00000001
00000000
,
00000000
00001001
00000000
00000000
,
00001000
00000000
00000000
00011000
,
00000000
00000000
00010000
00000000
,
00000000
00002000
00000000
00000000
,
00023000
00000000
00000000
00000000
,
00000000
00030000
00000000
00000000
00000000
00000000
00000000
00000000
;

//---------------dance-double - ----------------
#NOTES:
     dance-double:
     :
     Medium:
     8:
     0.362,0.507,0.204,0.260,0.000:
00000001
00000000
00000000
00000001
00000000
00000000
00000001
00000000
,
00000000
00000000
00000010
00000000
00000000
00000010
00000000
00000000
,
00000010
00000000
00000000
00000000
00000100
00000000
00000000
00000100
,
00000000
00000100
00000000
00010000
,
00000000
00010000
00000000
00000000
00010000
00000000
00000000
00000000
,
00001000
00000000
00000000
00001000
00000000
00000000
00001000
00000000
,
00000000
00000000
00100000
00000000
00000000
00100000
00000000
00000000
,
00100000
00000000
00000000
00000000
01000000
00000000
00000000
01000000
,
00000000
01000000
00000000
20020000
,
00000000
00000000
00000000
30030000
,
10000000
01000000
00100000
01000000
,
00100000
00000000
00001000
00100000
,
00010000
00200000
00000000
00300000
,
00001000
00010000
00000100
00000010
,
00000001
00000100
00000001
00000100
,
00000001
00001000
00000000
00000000
,
00000010
00000100
00000001
00000100
,
00000010
00001000
00000001
00000000
,
00010000
00002000
00000000
00003000
,
00011000
00000000
00000000
00001000
,
00100000
01000000
10000000
01000000
,
10000000
00100000
01000000
00000000
,
00001000
00100000
01000000
00100000
,
01000000
00000000
10000000
00010000
,
00100000
00020000
00000000
00030000
,
00100000
00001000
00010000
00001000
,
00010000
00000100
00001000
00000010
,
00000100
00000001
00000000
00000000
,
00001000
00000100
00001000
00000010
,
00000100
00000010
00010000
00000010
,
00010000
00000010
00000000
00000000
,
00000110
00000000
00000000
00000110
,
00000000
00000000
00011000
00000000
,
00000000
00011000
00000000
00000000
,
01100000
00000000
00000000
01100000
,
00000000
00000000
10010000
00000000
,
00000000
10010000
00000000
00000000
,
00011000
00000000
00000000
00001000
00000000
00000000
00010000
00000000
,
00000000
00010000
00000000
00000000
00000000
00000020
00000000
00000000
,
00000000
00010030
00000000
00000000
,
00000002
00000000
00000000
00000000
,
00000000
00002003
00000000
00000000
,
00000000
00000000
00003001
00000000
,
00000000
00001001
00000000
00000000
,
00000220
00000000
00000000
00000330
,
00000000
00000000
00000001
00000000
,
00000000
00001000
00000001
00001000
,
00000000
00000000
00000100
00010000
,
00000100
00000000
00000000
00010000
,
00001000
00010000
00002000
00000000
,
00000000
01003000
00000000
00000000
,
02200000
00000000
03300000
00100000
,
01000000
00001000
00022000
00000000
,
00033000
00010000
00000010
00000100
,
00000120
00000000
00000000
00000230
,
00000000
00000000
00000320
00000000
,
00000000
00002030
00000000
00000000
,
00003001
00000000
00000000
00000001
00000000
00000000
00000100
00000000
,
00000000
00000100
00000000
00000000
00000020
00000000
00000000
00000000
,
00000000
00000130
00000000
00000000
,
00000001
00000010
00000000
00000100
,
00000010
00000000
00000001
00000010
,
00000000
00000200
00000000
00000000
,
00020300
00000000
00000000
00000000
,
00030000
00000000
00000200
00000000
,
00000000
00000000
00000300
00000000
,
00002000
00000000
00000000
00003200
,
00000000
00000000
00001300
00000000
,
00000000
00000000
00000000
00000000
,
00001001
00000000
00000000
00000001
,
00000000
00000000
00001001
00000000
,
00000000
00001000
00000000
00000000
,
00011000
00000000
00000000
00010000
,
00000000
00000000
00011000
00000000
,
00000000
00001000
00010000
00001000
,
00000000
00011000
00000000
00000000
,
00001000
01000000
00001000
00000000
,
00000000
00010000
00001000
00100000
,
00000000
00000000
00010000
10000000
,
01000000
00100000
00001000
00100000
,
02000000
00000000
00000000
13000000
,
00010000
00000000
01000000
00001000
,
00000000
00010000
00001000
00000000
,
00010000
00000010
00000000
00001000
,
00000001
00000000
00000010
00000100
,
00000000
00010000
00000100
00000000
,
00001000
00000001
00000000
00010000
,
00000000
00001000
00000000
00000000
00100000
00000000
00000000
00010000
,
00000000
00000000
00010000
00000000
00000000
00100000
00000000
00000000
,
01000000
00000000
00000000
10000000
,
00000000
01000000
00000000
00000000
10000000
00000000
00000000
01000000
,
00000000
00000000
00100000
00000000
00000000
00001000
00000000
00000000
,
00010000
00000000
00000000
00001000
,
00001000
00010000
00000100
00000010
,
00000001
00001000
00001000
00000010
,
00000100
00000000
00000000
00000001
,
00000001
00000010
00000100
00010000
,
00001000
00100000
00010000
00010000
,
02020000
00000000
00000000
00000000
,
00000000
03030000
00000000
00000000
00000000
00000000
00000000
00000000
;

//---------------dance-double - ----------------
#NOTES:
     dance-double:
     :
     Hard:
     13:
     0.682,0.645,0.455,0.279,0.000:
10000000
00100000
00000000
10000000
00100000
00000000
10000000
00000000
,
10000000
00000000
01000000
00100000
00000000
01000000
00100000
00000000
,
00001000
00000000
00001000
00000000
00010000
00001000
00000000
00010000
,
00001000
00000000
00010000
00000000
00010000
00000000
00000010
00000100
,
00000000
00000010
00000100
00000000
00000001
00001000
00000001
00000000
,
00000100
00000001
00000000
00000100
00000001
00000000
00001000
00000000
,
00001000
00000000
00000100
00010000
00000000
00000100
00010000
00000000
,
00001000
00000000
00001000
00000000
00100000
01000000
00000000
00100000
,
01000000
00000000
10000000
00000000
10000000
00000000
00100000
01000000
,
00100000
01000000
00100000
01000000
00100000
01000000
00100000
00000000
,
10000000
00000000
01000000
10000000
01000000
10000000
00001000
00000000
,
00001000
00000000
00000000
00000000
00010000
00000000
00000100
00000010
,
00000001
00000010
00000200
00000000
00000000
00000000
00000300
00000000
,
00001000
00000000
00000001
00000100
00000001
00000100
00000010
00000000
,
00000010
00010000
00001000
00001000
,
01000000
00000000
00020000
00000000
00000000
00000000
01030000
00001000
,
01000000
00100000
00001000
00010000
,
00010000
00000010
00000100
00000000
,
00000001
00000000
00000001
00000000
00001000
00000100
00000010
00000000
,
00001001
00000000
00001000
00000010
00000100
00000000
00000001
00000000
,
00000100
00000000
00000010
00000000
00010000
00000000
00010000
00001000
,
01000000
00000000
00100000
00000000
00100000
10000000
00010000
00000000
,
10010000
00000000
10000000
00100000
10000000
00100000
01000000
00000000
,
01000000
00000000
00000000
00000000
00001000
00000000
00010000
00000100
,
00010000
00000100
00002000
00000000
00000001
00000000
00003001
00000000
,
00001000
00000000
00000010
00000100
00000010
00000100
00000001
00000000
,
00000001
00000010
00000100
00000100
,
00001000
00000020
00000100
00000130
,
00001001
00000001
00000100
00000110
,
00000010
00010000
00012000
20003000
,
32000000
00000000
03200000
00000000
00000000
00000000
00310000
00100000
,
01000000
00000000
00000000
00100000
01000000
10000000
00001000
00000000
,
00000000
00010000
00001000
01000000
00100000
00000000
00000000
10000000
,
01000000
00100000
00001000
00000000
00000000
01000000
00010000
00100000
,
00001000
00000000
00000000
00010000
00000100
00000010
00000001
00000000
,
00000000
00000100
00000010
00001000
00000100
00000000
00000000
00010000
,
00000100
00001000
00000100
00000000
00001000
00000000
00000100
00000000
,
00010000
00001000
00000000
00001000
00000000
00001000
00010000
00001000
,
00010000
00001000
00010000
00001000
00000000
00010000
00000001
00000010
,
00000100
00010000
00001000
00000000
00000000
00000000
00010000
00001000
,
00020000
00000000
00000000
00000100
00000000
00000000
00030100
00000000
,
00010000
00000000
00002000
00000000
00000000
01000000
00000000
00000000
,
01003000
00001000
00022000
00000000
,
00033000
00022000
00000000
00033000
,
00011000
00000000
00001000
00010000
00001000
00000000
00011000
00000000
,
00000000
00000000
00001000
01000000
00100000
00000000
10000000
00100000
,
10000000
00100000
01000000
00000000
01000000
00000000
01100000
00000000
,
01000000
00100000
00010000
00100000
01000000
00000000
01000000
00000000
,
01100000
00000000
00100000
10000000
00100000
10000000
00001000
00000000
,
00001000
00010000
00000100
00001000
,
00000100
00000000
00010000
00000001
00000010
00000100
00001000
00000000
,
00000020
00000000
00000000
00000100
00000000
00000000
00000130
00000000
,
00000110
00000000
00001010
00000000
00002000
00000000
00000000
00000100
,
00000000
00003100
00001100
00011000
,
00002000
00000000
00000000
01000000
00000000
00000000
02003000
00000000
,
00000000
00100000
00000000
00000000
03200000
00000000
00000000
10000000
,
00000000
00000000
20300000
00000000
00000000
00010000
00000000
00000000
,
30010000
00000000
00000000
10010000
00000000
00000000
01100000
00000000
,
00000000
10010000
00000000
00000000
02100000
00000000
00000000
00000000
,
00000000
00000000
03100000
10000000
01000000
00100000
00001000
00010000
,
00001000
00011000
00010000
00000010
,
00000010
00000100
00000001
00000001
,
00001001
00000220
00000000
00000330
,
00002000
00000000
00000000
00000100
,
00003100
00000000
00020000
00000000
,
00000000
00000010
00030010
00000000
,
00010000
00000000
00000010
00000100
00000010
00000000
00010000
00000000
,
00000100
00000010
00000100
00000000
00000220
00000000
00000000
00000000
,
00000000
00000000
00000330
00000000
00000000
00000000
00000001
00000100
,
00000010
00000000
00000000
00001000
00000010
00000100
00000001
00000000
,
00000000
00000100
00000010
00010000
00001000
00000000
00000000
00010000
,
00000100
00000010
00000100
00000000
00000000
00010000
00000100
00000010
,
00000001
00000000
00000000
00000010
00000100
00010000
00001000
00000000
,
00000000
00010000
00001000
00100000
01000000
00000000
00000000
10000000
,
01000000
00100000
00010000
00000000
00010000
00000000
10010000
00000000
,
00100000
10000000
00010000
00000000
00010000
00100000
00000000
00100000
,
01000000
00000000
01100000
00000000
10010000
00000000
10000000
00100000
,
00000000
00100000
01000000
00000000
01100000
00000000
10010000
00000000
,
10000000
00010000
10000000
01000000
00100000
00000000
00101000
00000000
,
00001000
00011000
00010000
00010001
,
00000001
00000010
00000100
00001000
00000010
00000000
00010000
00000000
,
00010000
00000100
00001000
00000000
00000001
00000000
00000001
00000010
,
00000100
00000000
00001000
00000000
00001000
00000010
00000100
00000000
,
00000001
00000000
00000001
00000010
00000100
00000000
00010000
00000000
,
00010000
00000100
00000010
00000000
00000001
00000000
00000001
00000100
,
00000010
00000000
00010000
00000000
00010000
00001000
01000000
00000000
,
00100000
00000000
00100000
10000000
00010000
00000000
10010000
00000000
,
00000000
11000000
00000000
00000000
10010000
00000000
00000000
11000000
,
00000000
00000000
10020000
00000000
00000000
00100000
00000000
00000000
,
00130000
00001000
00010000
00000100
00001000
00000000
00001100
00000000
,
00000000
00001001
00000000
00000000
00001100
00000000
00000000
00001001
,
00000000
00000000
00001100
00000000
00000000
00001001
00000000
00000000
,
00000001
00000100
00000010
00010000
00001000
00010000
00000001
00000000
,
00000001
00000100
00000110
00000010
,
00001000
00001001
00000001
00000100
,
00000110
00000000
00000000
00011000
,
00010000
00001000
10001000
10000000
,
01000000
01100000
00001000
00010000
,
00022000
00000000
00000000
00000000
,
00000000
00033000
00000000
00000000
00000000
00000000
00000000
00000000
;

//---------------dance-single - ----------------
#NOTES:
     dance-single:
     :
     Beginner:
     3:
     0.116,0.137,0.019,0.000,0.000: // measure 1
0001
0000
0000
0000
,  // measure 2
0000
0001
0000
0000
,  // measure 3
0000
0000
0001
0000
,  // measure 4
0000
0000
0000
0001
,  // measure 5
0000
0000
0000
0000
,  // measure 6
1000
0000
0000
0000
,  // measure 7
0000
1000
0000
0000
,  // measure 8
0000
0000
1000
0000
,  // measure 9
0000
0000
0000
1000
,  // measure 10
0000
0000
0000
0000
,  // measure 11
0001
0000
0000
0000
,  // measure 12
0000
0000
0010
0000
,  // measure 13
0000
0000
0000
0000
,  // measure 14
0000
0100
0000
0000
,  // measure 15
0000
0000
1000
0000
,  // measure 16
0000
0000
0000
0000
,  // measure 17
0001
0000
0000
0000
,  // measure 18
0000
0000
0001
0000
,  // measure 19
0000
0000
0000
0000
,  // measure 20
1000
0000
0000
0000
,  // measure 21
0000
0000
1000
0000
,  // measure 22
0000
0000
0000
0000
,  // measure 23
0100
0000
0000
0000
,  // measure 24
0000
0000
0100
0000
,  // measure 25
0000
0000
0000
0000
,  // measure 26
0010
0000
0000
0000
,  // measure 27
0000
0000
0010
0000
,  // measure 28
0000
0000
0000
0000
,  // measure 29
0001
0000
0000
1000
,  // measure 30
0000
0000
0001
0000
,  // measure 31
0000
0000
0000
0000
,  // measure 32
1000
0000
0000
0000
,  // measure 33
0000
0000
0100
0000
,  // measure 34
0000
0000
0000
0000
,  // measure 35
0010
0000
0000
0000
,  // measure 36
0000
0000
0001
0000
,  // measure 37
0000
0000
0000
0000
,  // measure 38
1000
0000
0000
0000
,  // measure 39
0000
0000
0000
0001
,  // measure 40
0000
0000
0000
0000
,  // measure 41
1000
0000
0000
0000
,  // measure 42
0000
1000
0000
0000
,  // measure 43
0000
0000
1000
0000
,  // measure 44
0000
0000
0000
0000
,  // measure 45
1000
0000
0000
0000
,  // measure 46
0000
0000
0001
0000
,  // measure 47
0000
0000
0000
0010
,  // measure 48
0000
0000
0000
0000
,  // measure 49
0001
0000
0000
0000
,  // measure 50
0000
0000
0100
0000
,  // measure 51
0000
0000
0000
0000
,  // measure 52
0010
0000
0000
0000
,  // measure 53
0000
0000
0010
0000
,  // measure 54
0000
0000
0000
0000
,  // measure 55
0100
0000
0000
0000
,  // measure 56
0000
0000
0100
0000
,  // measure 57
0000
0000
0000
0000
,  // measure 58
0110
0000
0000
0010
,  // measure 59
0000
0000
0010
0000
,  // measure 60
0000
0000
0000
0000
,  // measure 61
1000
0000
0000
0100
,  // measure 62
0000
0000
0010
0000
,  // measure 63
0000
0001
0000
0000
,  // measure 64
1000
0000
0000
0000
,  // measure 65
0000
0000
0000
0000
,  // measure 66
0000
0000
0000
0000
,  // measure 67
1000
0000
0000
0000
,  // measure 68
0000
0000
1001
0000
,  // measure 69
0000
0000
0000
0000
,  // measure 70
0001
0000
0000
0010
,  // measure 71
0000
0000
0100
0000
,  // measure 72
0000
1000
0000
0000
,  // measure 73
0001
0000
0000
0010
,  // measure 74
0000
0000
0100
0000
,  // measure 75
0000
1000
0000
0000
,  // measure 76
0000
0001
0000
0000
,  // measure 77
0000
0000
1000
0000
,  // measure 78
0000
0000
0000
0001
,  // measure 79
0000
0000
0000
0000
,  // measure 80
0000
1000
0000
0000
,  // measure 81
0000
0000
0000
0010
,  // measure 82
0000
0000
0100
0000
,  // measure 83
0000
0010
0000
0000
,  // measure 84
0100
0000
0000
0001
,  // measure 85
0000
0000
1000
0000
,  // measure 86
0000
0001
0000
0000
,  // measure 87
1000
0000
0000
0010
,  // measure 88
0000
0000
1000
0000
,  // measure 89
0000
0010
0000
0000
,  // measure 90
0000
0000
0000
0100
,  // measure 91
0000
0000
0001
0000
,  // measure 92
0000
0100
0000
0000
,  // measure 93
0000
0000
0000
0001
,  // measure 94
0000
0000
0010
0000
,  // measure 95
0000
0100
0000
0000
,  // measure 96
1000
0000
0000
0001
,  // measure 97
0000
0000
0010
0000
,  // measure 98
0000
0100
0000
0000
,  // measure 99
1000
0000
0000
0000
;
