#TITLE:Pine Nut;
#SUBTITLE:;
#ARTIST:Doin;
#TITLETRANSLIT:;
#SUBTITLETRANSLIT:;
#ARTISTTRANSLIT:;
#CREDIT:DigiMindAxel;
#BANNER:Pine Nut.png;
#BACKGROUND:Pine Nut-bg.png;
#LYRICSPATH:;
#CDTITLE:PUMP IT UP.png;
#MUSIC:Pine Nut.ogg;
#METERTYPE:DDR X;
#OFFSET:-11.200;
#SAMPLESTART:1.300;
#SAMPLELENGTH:12.000;
#SELECTABLE:YES;
#BPMS:0.000=200.000;
#STOPS:;
#BGCHANGES:;

//---------------dance-single - ----------------
#NOTES:
     dance-single:
     :
     Easy:
     7:
     0.354,0.392,0.010,0.230,0.000:
1000
0001
1000
0001
,
1000
0001
1000
0001
,
0100
0001
0100
0001
,
0100
0001
0100
0001
,
0010
0100
0010
0100
,
0010
0100
0010
0100
,
1000
0100
1000
0100
,
1000
0100
1000
0100
,
2000
0000
0000
0000
,
0000
0000
0000
0000
,
3002
0000
0000
0000
,
0000
0000
0000
0000
,
2003
0000
0000
0000
,
0000
0000
0000
0000
,
3002
0000
0000
0000
,
0000
0000
0000
0000
,
0103
0010
0100
0010
,
0100
0001
0100
0001
,
1000
0100
1000
0100
,
0010
0001
0010
0001
,
0100
0010
0100
0010
,
1000
0001
1000
0001
,
0100
0001
0100
0001
,
1000
0100
0010
0001
,
1000
0100
1000
0100
,
1000
0001
1000
0001
,
0100
0010
0100
0010
,
1000
0100
0010
0001
,
1000
0001
1000
0001
,
0100
0001
0100
0001
,
0010
0100
0010
0100
,
1000
0010
0100
0001
,
1000
0100
1000
0100
,
1000
0001
1000
0001
,
0100
0001
0100
0001
,
0010
0100
0010
0100
,
1000
0010
1000
0010
,
0100
0010
0100
0010
,
0100
0001
0100
0001
,
1000
0100
0010
0001
,
1000
0010
1000
0010
,
1000
0001
1000
0001
,
0010
0001
0010
0001
,
0100
0010
1000
0001
,
0100
0010
0100
0010
,
1000
0100
1000
0100
,
1000
0001
1000
0001
,
0010
0100
1000
0001
,
0010
0100
0010
0100
,
1000
0100
1000
0100
,
1000
0001
1000
0001
,
0100
0001
0100
0001
,
0010
0100
0010
0100
,
1000
0100
1000
0100
,
1000
0010
1000
0010
,
0100
0001
0010
0100
,
2000
0001
3002
0000
,
0203
0010
0320
0000
,
2030
0001
3002
0000
,
2003
0100
3200
0000
,
0320
0001
0032
0000
,
2003
0010
3020
0000
,
2030
0001
3002
0000
,
0023
0100
0130
0000
,
2001
0000
0000
0000
,
0000
3000
0000
0000
,
0020
0000
0000
0000
,
0000
0030
0000
0000
,
0200
0000
0000
0000
,
0000
0300
0000
0000
,
0002
0000
0000
0000
,
0000
0003
0000
0000
;

//---------------dance-single - ----------------
#NOTES:
     dance-single:
     :
     Medium:
     12:
     0.577,0.534,0.020,0.120,0.000:
1000
0100
1000
0000
0001
1000
0001
0000
,
1000
0100
1000
0000
0001
1000
0001
0000
,
0100
0001
0100
0000
0010
0100
0010
0000
,
0100
0001
0100
0000
0010
0100
0010
0000
,
1000
0100
1000
0000
0010
0100
0010
0000
,
1000
0100
1000
0000
0010
0100
0010
0000
,
1000
0001
1000
0000
0001
0100
0001
0000
,
1000
0001
1000
0000
0001
0100
0001
0000
,
1001
1000
0001
0010
,
0100
1000
0000
0000
,
0001
0001
1000
0100
,
0010
0001
0000
0000
,
1000
1000
0001
1000
,
0010
0100
0000
0000
,
0001
0001
1000
0001
,
0100
0010
0000
0000
,
1000
0100
0010
0000
0001
1000
0001
0000
,
0010
0100
1000
0000
0010
0100
0010
0000
,
1000
0100
0010
0000
0001
1000
0001
0000
,
0100
0001
1000
0000
0100
1000
0100
0000
,
0010
0001
0100
0000
0010
0100
0010
0000
,
1000
0100
1000
0000
0001
0010
0100
0000
,
0010
0001
1000
0000
0010
0100
0010
0100
,
0001
1000
0001
1000
0001
1000
0001
0000
,
0100
0001
0010
0000
0001
1000
0001
0000
,
0010
0001
1000
0000
0100
0010
0100
0000
,
1000
0010
0100
0001
1000
0010
0100
0000
,
0001
0010
0100
1000
0001
0010
0100
0000
,
0010
0001
1000
0000
0010
0100
0010
0000
,
1000
0100
0010
0000
0001
0100
0010
0000
,
1000
0100
0010
0001
1000
0100
0010
0000
,
0001
0100
0010
1000
0001
0100
0010
0000
,
1000
0100
0010
0000
0001
1000
0010
0000
,
1000
0100
0010
0000
0001
1000
0010
0000
,
0100
0001
1000
0000
0100
0010
0001
0000
,
1000
0001
0100
0000
0001
0010
0100
0000
,
0010
0001
0100
0000
0010
1000
0100
0000
,
0010
0001
0100
0001
0010
0000
0100
0000
,
1000
0100
0010
0100
1000
0000
0100
0000
,
0010
0001
0100
0001
0010
0000
0100
0000
,
1000
0100
1000
0100
0010
0000
0010
0000
,
0001
0100
0001
0100
0010
0000
0010
0000
,
1000
0100
0010
0001
1000
0100
0010
0000
,
0001
0100
0010
1000
0001
0100
0010
0000
,
1000
0001
0010
0100
0010
0000
0100
0000
,
1000
0001
0100
0010
0100
0000
0010
0000
,
1000
0100
0010
0001
1000
0100
0010
0000
,
0100
1000
0010
0100
0001
1000
0100
0000
,
0010
0001
0010
0001
0100
0010
0100
0000
,
0010
1000
0010
1000
0100
0010
0100
0000
,
1000
0001
1000
0001
0100
0001
0100
0000
,
0010
1000
0010
1000
0010
0100
0010
0000
,
1000
0100
1000
0100
1000
0010
0100
0000
,
0001
0010
0001
0010
0001
0100
0010
0000
,
1000
0010
1000
0010
1000
0100
0010
0000
,
0001
0100
0001
0100
0001
0010
0100
0000
,
1000
0002
0000
0203
0000
0000
0301
0000
,
1000
0002
0000
0023
0000
0000
0130
0000
,
1000
0002
0000
0203
0000
0000
0301
0000
,
1000
0200
0000
2300
0000
0000
3001
0000
,
0100
0020
0000
2030
0000
0000
3001
0000
,
0010
0002
0000
0203
0000
0000
0310
0000
,
1000
0100
0010
0001
1000
0000
1000
0000
,
0001
0010
0100
1000
0001
0000
0001
0000
,
1001
1000
0001
0010
,
0100
1000
0000
0000
,
0010
0010
1000
0100
,
0010
0001
0000
0000
,
1000
1000
0010
0100
,
0001
0010
0000
0000
,
0100
0100
1000
0100
,
0010
0100
0000
0000
;

//---------------dance-single - ----------------
#NOTES:
     dance-single:
     :
     Hard:
     14:
     0.791,0.926,0.000,0.350,0.140:
1000
0001
0010
0001
0010
0100
0010
0000
,
0001
0100
0001
1000
0100
0010
0100
0000
,
1000
0010
1000
0100
0010
0001
1000
0000
,
0001
0010
0100
0010
0001
1000
0010
0000
,
0100
0001
1000
0100
1000
0001
1000
0000
,
0100
0010
0100
0010
0001
0100
0010
0000
,
0100
0010
0100
0001
0010
0001
1000
0000
,
0100
0010
0100
1000
0010
0001
0010
1000
,
0010
0100
0010
0000
0010
0100
0001
0010
,
0100
1000
0010
0000
0000
0000
0000
0000
,
0010
0100
0010
0000
0010
0100
0001
0010
,
0100
1000
0010
0000
0000
0000
0000
0000
,
0100
0010
0100
0000
0100
0010
1000
0100
,
0010
0001
0100
0000
0000
0000
0000
0000
,
0010
0100
0010
0000
0010
0100
0001
0010
,
0100
1000
0010
0000
0000
0000
0000
0000
,
1000
0000
0100
0000
0010
0000
0001
0000
0000
0100
0000
0000
0001
0000
1000
0000
,
0001
0000
0100
0000
0010
0000
1000
0000
0000
0100
0000
0000
1000
0000
0010
0000
,
0100
0100
0001
1000
1000
0100
0010
0000
,
0001
0010
0100
0010
0001
1000
0010
0000
,
1000
0000
0100
0000
0010
0000
0100
0000
0000
1000
0000
0000
0010
0000
0100
0000
,
0001
0000
1000
0000
0100
0000
0010
0000
0000
0001
0000
0000
0100
0000
0010
0000
,
1000
0001
0010
0100
1000
0010
0100
0000
,
0001
0001
0010
0100
0100
1000
0001
0000
,
1000
0000
0100
0000
1000
0000
0001
1000
0001
0000
0010
0000
0100
0000
0000
0000
,
1000
0000
0010
0000
0100
0000
0010
0100
0010
0000
1000
0000
0001
0000
0000
0000
,
1000
0010
0001
0010
1000
0100
0001
0100
,
1000
0010
0001
0010
1000
0100
0001
0100
,
1000
0000
0010
0000
0100
0000
0001
1000
0001
0000
0010
0000
0100
0000
0000
0000
,
0010
0000
0001
0000
1000
0000
0010
0100
0010
0000
1000
0000
0100
0000
0000
0000
,
1000
0010
0001
0010
1000
0100
0001
0100
,
1000
0010
0001
0010
1000
0001
1000
0000
,
0100
0010
0001
1000
0010
0100
1000
0100
,
0001
1000
0100
0010
1000
0010
0001
1000
,
0001
1000
0100
0001
0100
1000
0001
0010
,
1000
0010
0001
1000
0100
0001
0100
1000
,
0001
0010
0100
0001
0100
0010
0001
1000
,
0010
0100
1000
0100
0010
1000
0001
0000
,
1000
0001
0100
1000
0100
0001
1000
0010
,
0001
0000
0010
0000
1000
0000
0100
0000
0010
0000
0001
0000
1000
0001
1000
0001
,
1000
0000
0010
0000
0100
0000
0001
1000
0001
0000
1000
0000
0010
0000
0100
0000
,
0010
0000
1000
0000
0100
0000
0010
0001
0010
0000
0001
0000
1000
0000
0010
0000
,
0100
0001
0100
1000
0100
0001
1000
0001
,
1000
0010
0001
0010
1000
0001
0010
0000
,
0001
0000
0100
0000
0010
0000
0100
0001
0100
0000
0001
0000
1000
0000
0100
0000
,
0010
0000
0100
0000
1000
0000
0001
0100
0001
0000
0010
0000
0100
0000
0000
0000
,
1000
0010
0001
0010
1000
0100
0010
0001
,
1000
0000
0100
0000
0001
0000
0100
0000
1000
0000
0010
0000
0100
0001
0100
0001
,
1000
0000
0100
0000
0010
0000
0001
0000
0100
0010
0100
0000
0001
0100
0001
0000
,
1000
0000
0100
0000
0010
0000
0001
0000
0100
0010
0100
0000
0001
0100
0001
0000
,
1000
0010
0100
0010
2000
3002
2003
3000
,
0001
0100
0010
0100
0002
2003
3002
0003
,
1000
0000
0010
0000
0100
0000
0001
0000
1000
0100
1000
0000
0010
0100
0010
0000
,
1000
0000
0010
0000
0100
0000
0001
0000
1000
0100
1000
0000
0010
0100
0010
0000
,
1000
0100
0010
0100
2000
3002
2003
3000
,
0001
0000
0100
0000
0010
0000
1000
0000
0002
0000
2003
0000
3001
1000
0001
1000
,
0001
0020
0000
0230
0000
1000
1300
0001
,
0100
0020
0000
0230
0000
0001
0301
0000
,
1000
0010
0100
0010
2000
3002
0203
2300
,
3100
0010
1000
0001
0200
2300
3100
0010
,
1000
0002
0000
2003
0000
0010
3010
1000
,
0001
0020
0000
0230
0000
1000
1300
0000
,
0001
0100
0010
0100
0002
0023
2030
3020
,
0130
0000
0001
0000
1000
0000
0200
0000
0302
0000
0203
0000
1300
0001
1000
0001
,
1000
0100
1000
0000
1000
0001
0100
0010
,
1000
0100
0010
0000
0000
0000
0002
0000
,
1003
0001
1000
0000
1000
0001
0100
0010
,
1000
0100
0010
0000
0000
0000
0002
0000
,
0103
0010
0100
0000
0100
0001
0010
0100
,
1000
0001
0100
0000
0000
0000
0002
0000
,
1003
0001
1000
0000
1000
0100
0010
0001
,
1000
0001
0100
0000
0000
0000
0000
0000
;

//---------------dance-single - ----------------
#NOTES:
     dance-single:
     :
     Challenge:
     18:
     0.989,1.000,0.000,0.050,0.770:
1000
0001
0010
0001
1000
0001
0010
0001
,
1000
0001
0010
0100
0001
0100
1000
0001
,
1000
0010
1000
0001
1000
0010
1000
0001
,
1000
0000
0100
0000
0010
0000
1000
0000
0010
0000
0001
0000
1000
0000
0001
1000
,
0001
0010
0100
0010
0001
1000
0010
1000
,
0001
0010
0100
0001
0100
1000
0001
1000
,
0010
0100
0001
0100
0010
0100
0001
0100
,
0010
0000
1000
0000
0010
0000
0001
0000
0010
0000
0100
0000
0001
1000
0001
1000
,
0001
0100
0010
0000
1000
0001
0100
1000
,
0001
0000
0010
0000
1000
0000
0000
0000
0000
0000
0001
0000
1000
0001
1000
0001
,
1000
0100
0010
0000
0001
1000
0100
0001
,
1000
0000
0010
0000
0001
0000
0000
0000
0000
0000
1000
0000
0001
1000
0001
1000
,
0001
0100
0010
0000
1000
0001
0100
1000
,
0001
0000
0010
0000
1000
0000
0000
0000
0000
0000
0001
0000
1000
0001
1000
0001
,
1000
0010
0100
0000
0001
1000
0100
0001
,
1000
0000
0010
0000
0001
0000
0000
0000
0000
0000
1000
0000
0001
1000
0001
1000
,
0001
0000
0010
0000
0100
0000
1000
0010
0000
1000
0010
0000
0100
0000
0010
0000
,
1000
0000
0100
0000
0010
0000
0001
0100
0000
0001
0100
0000
0010
0000
1000
0000
,
0001
0010
1000
0010
0001
1000
0100
0000
,
1000
0100
0001
0100
1000
0001
0010
0000
,
0001
0000
1000
0000
0010
0000
0100
0001
0000
0100
0001
0000
1000
0000
0100
0000
,
0010
0000
0100
0000
1000
0000
0010
0100
0000
0010
0100
0000
0001
0000
1000
0000
,
0001
0100
1000
0100
0001
0010
0100
0000
,
1000
0010
0001
0010
1000
0100
0020
0000
,
0031
0000
1000
0000
0100
0000
0010
0100
0010
0100
0010
0000
0001
0000
1000
0000
,
0001
0000
0010
0000
0100
0000
1000
0001
1000
0001
1000
0000
0010
0000
0100
0000
,
0010
0000
1000
0100
1000
0000
0001
0000
1000
0100
1000
0000
0001
0000
0010
0000
,
0100
0000
1000
0010
1000
0000
0001
0000
0100
0010
0100
0010
0100
0000
0001
0000
,
1000
0000
0100
0000
1000
0000
0010
0100
0010
0100
0010
0000
1000
0000
0100
0000
,
0010
0000
0001
0000
0100
0000
0010
1000
0010
1000
0010
0000
1000
0000
0001
0000
,
0010
0000
0100
1000
0100
0000
1000
0000
0001
0000
0100
0010
0100
0000
0001
0000
,
1000
0000
0100
1000
0100
0000
1000
0000
0010
0100
0010
0000
1000
0001
1000
0001
,
1000
0000
0100
0000
1000
0000
0010
0100
0000
0100
0001
0000
1000
0000
0100
0000
,
1000
0000
0010
0000
0100
0000
0001
1000
0000
1000
0100
0000
0010
0000
0001
0000
,
0100
0000
0001
1000
0001
0000
1000
0000
0100
1000
0100
0000
0010
0000
0001
0000
,
1000
0000
0010
0100
0010
0000
0100
0000
0001
1000
0001
1000
0001
0000
0100
0010
,
0100
0000
0001
0000
0010
0000
0100
0010
0000
0010
0001
0000
0100
0000
0010
0000
,
1000
0000
0001
0000
0100
0000
0001
1000
0000
1000
0100
0000
0010
0000
0001
0000
,
0100
0000
0010
0100
0010
0000
1000
0000
0001
0010
0001
0000
1000
0000
0010
0000
,
0100
0000
0010
0100
0010
0000
1000
0000
0001
0010
0001
0000
0100
0010
0100
0010
,
0100
0000
0001
0000
0100
0000
0010
0100
0010
0100
0001
0000
0100
0000
0010
0000
,
1000
0000
0100
0000
0010
0000
0001
1000
0001
1000
0010
0000
0100
0000
0010
0000
,
1000
0000
0100
0010
0100
0000
1000
0000
0001
0100
0001
0000
0100
0000
0010
0000
,
1000
0000
0001
1000
0001
0000
1000
0000
0100
0010
0100
0010
0001
0010
0100
0000
,
1000
0000
0001
0000
0100
0000
0010
0100
0010
0100
0001
0000
0010
0000
0100
0000
,
1000
0000
0001
0000
0100
0000
0010
1000
0010
1000
0001
0000
0010
0000
0001
0000
,
0100
0000
0010
0100
0010
0000
1000
0000
0100
0010
0100
0000
1000
0000
0010
0000
,
0100
0000
0001
0100
0001
0000
1000
0000
0100
0010
0100
0000
1000
0001
1000
0001
,
1000
0100
1000
0100
0010
0000
0001
0000
0100
0010
0100
0010
1000
0100
1000
0000
,
0001
0100
0001
0100
0001
0000
1000
0000
0100
0010
0100
0010
0001
0010
0001
0000
,
1000
0100
1000
0100
0010
0000
0100
0000
0010
0001
0010
0001
0100
0000
0010
0000
,
1000
0100
1000
0100
0010
0000
0100
0000
1000
0010
1000
0010
0100
0010
0100
0000
,
0001
0010
0001
0010
0100
0000
1000
0000
0010
0100
0010
0100
0001
0000
0100
0000
,
0001
1000
0001
1000
0100
0000
0010
0000
0001
0100
0001
0100
0010
0000
0100
0000
,
0001
1000
0001
1000
0100
1000
0100
0010
0001
0010
0001
0010
0100
0000
1000
0010
,
1000
0010
0100
0001
0100
0001
1000
0100
1000
0100
0010
0000
0001
1000
0001
1000
,
0001
0000
0010
0100
1000
0000
0020
0000
0000
0000
0100
0000
0130
0000
0001
1000
,
0001
0000
1000
0100
0010
0000
0002
0000
0000
0000
0100
0000
0103
0000
0001
1000
,
0001
0000
1000
0000
0100
0010
0001
0000
0100
0000
0010
1000
0010
1000
0100
0010
,
0001
0000
0100
0010
0100
0000
0001
0010
0001
0010
0100
1000
0100
1000
0010
0000
,
0100
0000
0001
0010
0100
0000
2000
0000
0000
0000
0001
0000
3001
0000
1000
0010
,
1000
0000
0100
0010
0001
0000
2000
0000
0000
0000
0010
0000
3010
0000
0100
0010
,
0100
0000
0001
0010
0100
0000
1000
0010
1000
0010
0100
0001
0100
0001
0010
0000
,
0100
0000
1000
0001
1000
0001
0100
0010
0100
0010
1000
0100
0010
0001
0010
0001
,
0010
0001
0100
0000
0001
1000
0100
0001
,
1000
0000
0010
0000
0001
0000
0000
0000
0000
0000
1000
0000
0100
0010
0001
0010
,
0100
1000
0010
0000
1000
0001
0100
1000
,
0001
0000
0010
0000
1000
0000
0000
0000
0000
0000
0001
0000
0100
0010
1000
0010
,
0100
0001
1000
0000
0001
1000
0010
0001
,
1000
0000
0100
0000
0001
0000
0000
0000
0000
0000
1000
0000
0100
0010
0001
0010
,
0100
1000
0010
0000
1000
0001
0010
1000
,
0001
0100
1000
0000
0000
0000
0000
0000
;

//---------------dance-double - ----------------
#NOTES:
     dance-double:
     :
     Easy:
     7:
     0.391,0.534,0.020,0.470,0.000:
10000000
01000000
10000000
01000000
,
10000000
01000000
10000000
01000000
,
00100000
00001000
00100000
00001000
,
00100000
00001000
00100000
00001000
,
00010000
00001000
00010000
00001000
,
00010000
00001000
00010000
00001000
,
00010000
00000010
00010000
00000010
,
00010000
00000010
00010000
00000010
,
00000220
00000000
00000000
00000000
,
00000000
00000000
00000000
00000330
,
00000200
00000000
00000000
00000000
,
00000000
00000000
00000000
00000000
,
00000320
00000000
00000000
00000000
,
00000000
00000000
00000000
00000000
,
00000230
00000000
00000000
00000000
,
00000000
00000000
00000000
00000000
,
00001300
00000001
00001000
00001000
,
00000010
00000100
00000010
00000010
,
00001000
00000100
00010000
00010000
,
00000001
00000100
00000001
00000001
,
00000010
00000100
00000010
00000010
,
00000001
00000100
00000001
00000001
,
00010000
00001000
01000000
01000000
,
00100000
10000000
01000000
00100000
,
00001000
01000000
00100000
01000000
,
00001000
01000000
00100000
01000000
,
00001000
00010000
00000100
00000010
,
00000100
00010000
00000100
00000010
,
00000100
00010000
00000001
00000001
,
00010000
00001000
01000000
01000000
,
00100000
10000000
01000000
00100000
,
00010000
00001000
00000010
00000100
,
00000001
00010000
00000100
00010000
,
00001000
01000000
00100000
01000000
,
00001000
00100000
01000000
10000000
,
01000000
00100000
00001000
00010000
,
00000010
00000100
00000010
00010000
,
00001000
00010000
00000010
00000100
,
00000010
00001000
00000100
00000010
,
00000001
00000010
00000100
00001000
,
00000010
00000100
00000001
00000001
,
00010000
00000100
00001000
00001000
,
00010000
01000000
00100000
10000000
,
00001000
00100000
00001000
00010000
,
00001000
00010000
00000100
00000010
,
00000100
00010000
00000100
00000010
,
00000100
00010000
00000010
00000100
,
00000001
00000100
00000010
00010000
,
00002000
00023000
00032000
01003000
,
00200000
02300000
03200000
10300000
,
00002000
02003000
03002000
01003000
,
00002000
00023000
00030200
00000310
,
00000002
00000203
00000302
00001003
,
00000200
00020300
00032000
00013000
,
00002000
02003000
03200000
01300000
,
00020000
00230000
00320000
10030000
,
00002000
00010000
00023000
00000000
,
00030200
00000010
00000320
00000000
,
00000032
00000100
00000203
00000000
,
00000310
00010000
00001000
01000000
,
00200000
10000000
20300000
00000000
,
30002000
00100000
00203000
00000000
,
00302000
00010000
00023000
00000000
,
00030200
00000010
00000310
00000000
,
00002002
00000000
00000000
00000000
,
00003003
00000000
00000000
00000000
,
00000002
00000000
00000000
00000000
,
00000003
00000000
00000000
00000000
,
00020000
00000000
00000000
00000000
,
00030000
00000000
00000000
00000000
,
00002000
00000000
00000000
00000000
,
00000000
00003000
00000000
00000000
;

//---------------dance-double - ----------------
#NOTES:
     dance-double:
     :
     Medium:
     12:
     0.594,0.570,0.070,0.130,0.000:
01100000
00000000
01000000
00000000
00010000
10000000
00010000
00000000
,
10010000
00000000
10000000
00000000
00100000
01000000
00100000
00000000
,
01001000
00000000
00001000
00000000
00010000
00001000
00010000
00000000
,
00000010
00000100
00000010
00000000
00001000
00000100
00001000
00000000
,
00001001
00000000
00000001
00000000
00000010
00000100
00000010
00000000
,
00000101
00000000
00000001
00000000
00010000
00000100
00010000
00000000
,
00011000
00000000
00001000
00000000
01000000
00100000
01000000
00000000
,
00010000
10000000
00010000
00000000
10000000
01000000
10000000
00000000
,
10010000
00010000
01000000
10000000
,
01000000
00010000
00000000
00000000
,
00001000
00001000
00000010
00000001
,
00000010
00001000
00000000
00000000
,
00010000
00010000
00100000
10000000
,
00100000
00010000
00000000
00000000
,
00001000
00001000
00000100
00000001
,
00000100
00001000
00000000
00000000
,
00010000
00100000
01000000
00000000
10000000
00100000
10000000
00000000
,
01000000
00100000
00010000
00000000
10000000
00010000
10000000
00000000
,
00010000
01000000
00001000
00000000
00010000
00001000
00010000
00000000
,
00000010
00000100
00000001
00000000
00000100
00000010
00000100
00000000
,
00000001
00000010
00000100
00000000
00000010
00000001
00000010
00000000
,
00000001
00001000
00000010
00000000
00010000
00001000
00010000
00000000
,
00001000
01000000
00100000
00000000
10000000
00010000
10000000
00010000
,
00100000
01000000
00100000
01000000
00100000
01000000
00100000
00000000
,
00010000
00100000
00001000
00000000
00001000
00010000
00001000
00000000
,
00010000
00000100
00000010
00000000
00000010
00000001
00000010
00000000
,
00000001
00001000
00000100
00000010
00000001
00000010
00000100
00000000
,
00100000
00001000
01000000
00100000
10000000
00100000
01000000
00000000
,
00010000
00100000
01000000
00000000
01000000
10000000
01000000
00000000
,
00100000
00001000
00010000
00000000
00010000
00000010
00010000
00000000
,
00000100
00000010
00000001
00001000
00000001
00000010
00000100
00000000
,
00010000
00001000
01000000
00100000
01000000
00001000
00010000
00000000
,
01000000
00100000
10000000
00000000
10000000
00010000
10000000
00000000
,
01000000
00100000
00001000
00000000
00001000
00010000
00001000
00000000
,
00010000
00000010
00000100
00000001
00000100
00000010
00000100
00000000
,
00000001
00010000
00000100
00000010
00000001
00010000
00001000
00000000
,
00100000
01000000
10000000
00000000
10000000
00010000
10000000
00000000
,
00100000
01000000
00001000
00000000
00001000
00100000
00001000
00000000
,
00010000
00000100
00000010
00000001
00001000
00000100
00010000
00000000
,
00001000
01000000
00100000
10000000
01000000
00100000
01000000
10000000
,
00100000
01000000
00100000
01000000
00002000
00000000
10003000
00000000
,
00001000
00010000
00001000
00010000
00000020
00000000
00000130
00000000
,
00000001
00001000
00000010
00000100
00000001
00001000
00000010
00000000
,
00010000
00001000
00010000
00001000
02000000
00000000
03100000
00000000
,
10000000
01000000
00100000
00010000
02000000
00000000
03001000
00000000
,
00010000
00000100
00000010
00000001
00000020
00000000
00000130
00000000
,
00010000
00001000
01000000
00100000
01000000
00010000
00001000
00000000
,
00000010
00000100
00000001
00001000
00000100
00000010
00000100
00010000
,
00001000
01000000
10000000
01000000
00010000
10000000
00010000
00000000
,
10000000
01000000
00010000
01000000
10000000
00010000
10000000
00000000
,
01000000
00100000
01000000
00100000
00001000
00010000
00001000
00010000
,
00000010
00000100
00000010
00000100
00000001
00000010
00000100
00000000
,
00010000
00000100
00000001
00000100
00010000
00001000
00010000
00000000
,
00001000
00100000
10000000
00100000
00001000
00010000
00001000
00000000
,
00100000
01000000
00100000
01000000
10000000
00100000
10000000
00100000
,
01000000
00001000
01000000
00001000
00010000
00001000
00010000
00000000
,
00000010
00000200
00000000
00000302
00000000
00000000
00001003
00000000
,
00000100
00000020
00000000
00000032
00000000
00000000
00001003
00000000
,
00000100
00010000
00000100
00000000
00010000
00001000
00010000
00000000
,
01000000
00100000
01000000
00000000
10000000
00100000
10000000
00000000
,
00010000
20000000
00000000
32000000
00000000
00000000
03100000
00000000
,
00010000
20000000
00000000
30200000
00000000
00000000
01300000
00000000
,
00001000
00100000
00001000
00000000
00010000
00001000
00010000
00000000
,
00000010
00000100
00000010
00000000
00000100
00000001
00000100
00000001
,
00001000
00001000
00000010
00000001
,
00000010
00001000
00000000
00000000
,
00010000
00010000
00100000
10000000
,
00100000
00010000
00000000
00000000
,
00001000
00001000
00000100
00000001
,
00000100
00010000
00000000
00000000
,
00001000
00001000
01000000
10000000
,
01000000
00001000
00000000
00000000
;

//---------------dance-double - ----------------
#NOTES:
     dance-double:
     :
     Hard:
     14:
     0.796,0.926,0.010,0.320,0.140:
10000000
00100000
10000000
00010000
10000000
01000000
10000000
00000000
,
00100000
01000000
00100000
10000000
00010000
00100000
00001000
00000000
,
00010000
00000100
00010000
00000001
00010000
00000100
00000010
00000000
,
00000001
00000100
00000001
00010000
00000001
00000010
00000001
00000000
,
00000100
00000010
00010000
00000100
00010000
00001000
00100000
00000000
,
01000000
10000000
00100000
10000000
01000000
10000000
00001000
00000000
,
00010000
00001000
00010000
00000010
00000100
00000010
00001000
00000000
,
00000001
00000010
00000001
00001000
00000010
00010000
00001000
00100000
,
01000000
10000000
01000000
00000000
10000000
00010000
01000000
10000000
,
00010000
00100000
10000000
00000000
00000000
00000000
00000000
00000000
,
00001000
00010000
00001000
00000000
00010000
00000001
00000100
00001000
,
00000001
00000010
00001000
00000000
00000000
00000000
00000000
00000000
,
00000001
00001000
00000001
00000000
00001000
00000001
00000100
00001000
,
00000001
00000010
00001000
00000000
00000000
00000000
00000000
00000000
,
00010000
00001000
00010000
00000000
00001000
10000000
01000000
00010000
,
10000000
00100000
00010000
00000000
00000000
00000000
00000000
00000000
,
10000000
00000000
01000000
00000000
00100000
00000000
00010000
00000000
00000000
00010000
00000000
00000000
01000000
00000000
00100000
00000000
,
01000000
00000000
00001000
00000000
00010000
00000000
00000100
00000000
00000000
00000100
00000000
00000000
00001000
00000000
00000001
00000000
,
00000010
00000010
00000001
00000100
00000100
00000010
00010000
00000000
,
00001000
00001000
00100000
00010000
00010000
00100000
01000000
00000000
,
10000000
00000000
00100000
00000000
01000000
00000000
00010000
00000000
00000000
00010000
00000000
00000000
10000000
00000000
00010000
00000000
,
00100000
00000000
01000000
00000000
00100000
00000000
00001000
00000000
00000000
00001000
00000000
00000000
00010000
00000000
00000010
00000000
,
00000100
00000100
00000001
00001000
00001000
00000100
00010000
00000000
,
00100000
00100000
01000000
10000000
10000000
00010000
01000000
00000000
,
00010000
00000000
10000000
00000000
01000000
00000000
00100000
01000000
00100000
00000000
00010000
00000000
10000000
00000000
00000000
00000000
,
00001000
00000000
00100000
00000000
00001000
00000000
00010000
00001000
00010000
00000000
00000100
00000000
00000010
00000000
00000000
00000000
,
00000001
00000010
00001000
00000010
00000001
00010000
00000010
00010000
,
00001000
01000000
00100000
10000000
01000000
00010000
01000000
10000000
,
00100000
00000000
01000000
00000000
00010000
00000000
00100000
01000000
00100000
00000000
10000000
00000000
00001000
00000000
00000000
00000000
,
00010000
00000000
00001000
00000000
00010000
00000000
00000010
00001000
00000010
00000000
00000100
00000000
00000001
00000000
00000000
00000000
,
00001000
00000010
00000001
00000010
00001000
00000001
00000100
00000001
,
00001000
00010000
01000000
10000000
01000000
00010000
10000000
00000000
,
00010000
10000000
00100000
01000000
10000000
01000000
00100000
10000000
,
00001000
01000000
00100000
01000000
00001000
00010000
00000100
00000010
,
00000001
00000100
00000010
00000001
00000010
00000100
00000001
00010000
,
00000010
00000100
00000010
00010000
00001000
00100000
00010000
01000000
,
00100000
10000000
00100000
00010000
00100000
10000000
01000000
00100000
,
00001000
01000000
00100000
01000000
00001000
00010000
00000010
00000000
,
00001000
00000100
00000010
00001000
00000010
00000100
00001000
00000001
,
00010000
00000000
10001000
00000000
01000000
00000000
00100000
00000000
01000000
00000000
10000000
00000000
00010000
10000000
00010000
10000000
,
00010000
00000000
01000000
00000000
00010000
00000000
10000000
01000000
10000000
00000000
01000000
00000000
00100000
00000000
00001000
00000000
,
00010000
00000000
00000010
00000000
00001000
00000000
00000001
00001000
00000001
00000000
00000010
00000000
00000100
00000000
00001000
00000000
,
00000010
00010000
00000100
00010000
00001000
00100000
01000000
10000000
,
00100000
01000000
00100000
10000000
01000000
00100000
01000000
00000000
,
10000000
00000000
00010000
00000000
01000000
00000000
00001000
00010000
00001000
00000000
00010000
00000000
00000100
00000000
00000010
00000000
,
00000001
00000000
00001000
00000000
00000001
00000000
00000100
00000010
00000100
00000000
00000010
00000000
00010000
00000000
00000000
00000000
,
00001000
01000000
00100000
10000000
01000000
00100000
01000000
10000000
,
00010000
00000000
00100000
00000000
00001000
00000000
00010000
00000000
00001000
00000000
01000000
00000000
00100000
01000000
00100000
01000000
,
00100000
00000000
10000000
00000000
01000000
00000000
00100000
00000000
00001000
01000000
00001000
00000000
00010000
00001000
00010000
00000000
,
00000010
00000000
00000100
00000000
00000001
00000000
00001000
00000000
00000100
00001000
00000100
00000000
00010000
00001000
00010000
00000000
,
00001000
01000000
00100000
10000000
02000000
03020000
02030000
03000000
,
10000000
00100000
01000000
00001000
00020000
00032000
00023000
00030000
,
00000001
00000000
00000010
00000000
00000100
00000000
00000010
00000000
00000001
00000100
00000001
00000000
00010000
00001000
00010000
00000000
,
00001000
00000000
01000000
00000000
00100000
00000000
10000000
00000000
01000000
00100000
01000000
00000000
10000000
00010000
10000000
00000000
,
01000000
00100000
10000000
01000000
00020000
02030000
23000000
30000000
,
00100000
00000000
01000000
00000000
00001000
00000000
00010000
00000000
00000200
00000000
00000320
00000000
00000130
00001000
00000100
00001000
,
00000100
00020000
00000000
00030020
00000000
00000100
00000130
00000001
,
00000010
00000200
00000000
00020300
00000000
00001000
00031000
00000000
,
01000000
00100000
10000000
01000000
20000000
30200000
00320000
00230000
,
10300000
00001000
01000000
00100000
02000000
03002000
00013000
00000010
,
00000100
00000002
00000000
00000203
00000000
00000010
00000310
00010000
,
00001000
00200000
00000000
02300000
00000000
10000000
13000000
00000000
,
00100000
00010000
10000000
00010000
00200000
20300000
30200000
00302000
,
00013000
00000000
00000100
00000000
00000010
00000000
00000002
00000000
00000203
00000000
00000302
00000000
00010003
00000010
00010000
00000010
,
00010000
00001000
00010000
00000000
00000001
00001000
00000100
00000001
,
00001000
00000010
00000001
00000000
00001000
00010000
00001000
00010000
,
01000000
00100000
10000000
00000000
00010000
10000000
01000000
00010000
,
10000000
00100000
00010000
00000000
00000000
00000000
00100000
01000000
,
00100000
00001000
00010000
00000000
00000001
00001000
00000100
00000001
,
00001000
00000010
00000001
00000000
00000000
00000000
00000010
00000100
,
00000010
00000100
00001000
00000000
00010000
00001000
01000000
10000000
,
00001000
00100000
10000000
00000000
00000000
00000000
00000000
00000000
;

//---------------dance-double - ----------------
#NOTES:
     dance-double:
     :
     Challenge:
     18:
     0.993,1.000,0.000,0.040,0.785:
10000000
00001000
01000000
00001000
10000000
01000000
10000000
00001000
,
01000000
00001000
00010000
00000100
00000010
00000100
00010000
00000001
,
00000100
00000010
00000100
00000001
00001000
00000100
00001000
00000001
,
00010000
00000000
00001000
00000000
00100000
00000000
01000000
00000000
00100000
00000000
00001000
00000000
00010000
00000000
00001000
00010000
,
00001000
01000000
00100000
10000000
00001000
01000000
10000000
01000000
,
00100000
10000000
00001000
00010000
00000010
00000001
00000010
00000100
,
00000001
00010000
00001000
01000000
00100000
01000000
00001000
00010000
,
00000100
00000000
00000010
00000000
00000100
00000000
00001000
00000000
00010000
00000000
01000000
00000000
00100000
01000000
00100000
01000000
,
00100000
10000000
01000000
00000000
10000000
00100000
00010000
00100000
,
01000000
00000000
00010000
00000000
10000000
00000000
00000000
00000000
00000000
00000000
00010000
00000000
00001000
00010000
00001000
00010000
,
00001000
00000100
00000010
00000000
00000001
00000100
00001000
00000100
,
00000010
00000000
00001000
00000000
00000001
00000000
00000000
00000000
00000000
00000000
00001000
00000000
00010000
00001000
00010000
00001000
,
00010000
01000000
00100000
00000000
10000000
01000000
00010000
01000000
,
00100000
00000000
00010000
00000000
10000000
00000000
00000000
00000000
00000000
00000000
00010000
00000000
00001000
00010000
00001000
00010000
,
00001000
00000010
00000100
00000000
00000001
00000010
00001000
00000010
,
00000100
00000000
00001000
00000000
00000001
00000000
00000000
00000000
00000000
00000000
00001000
00000000
00010000
00001000
00010000
00001000
,
00010000
00000000
01000000
00000000
00100000
00000000
10000000
01000000
00000000
10000000
01000000
00000000
00010000
00000000
01000000
00000000
,
10000000
00000000
00010000
00000000
01000000
00000000
00001000
00010000
00000000
00001000
00010000
00000000
00000100
00000000
00000010
00000000
,
00000001
00001000
00000100
00000001
00000100
00001000
00000001
00000000
,
00001000
00000001
00000010
00001000
00000010
00000001
00000100
00000000
,
00000010
00000000
00010000
00000000
00001000
00000000
00100000
01000000
00000000
00100000
01000000
00000000
10000000
00000000
00010000
00000000
,
00100000
00000000
10000000
00000000
00100000
00000000
00001000
00010000
00000000
00001000
00010000
00000000
00000100
00000000
00000001
00000000
,
00000100
00010000
00000010
00000100
00000001
00000100
00000010
00000000
,
00001000
00000000
00000010
00000000
00000001
00000000
00000010
00000000
00010000
00000000
00001000
00000000
01000000
00100000
01000000
00100000
,
01000000
00000000
00010000
00000000
10000000
00000000
01000000
10000000
01000000
10000000
01000000
00000000
10000000
00000000
00010000
00000000
,
00100000
00000000
10000000
00000000
00100000
00000000
00001000
00010000
00001000
00010000
00001000
00000000
00010000
00000000
00000010
00000000
,
00000100
00000000
00000001
00001000
00000001
00000000
00001000
00000000
00000100
00001000
00000100
00000000
00001000
00000000
00010000
00000000
,
01000000
00000000
00100000
10000000
00100000
00000000
10000000
00000000
00010000
10000000
00010000
10000000
00010000
00000000
00100000
00000000
,
10000000
00000000
00100000
00000000
00001000
00000000
00010000
00001000
00010000
00001000
00010000
00000000
00000100
00000000
00000001
00000000
,
00000100
00000000
00001000
00000000
00000001
00000000
00000010
00000001
00000010
00000001
00000010
00000000
00000100
00000000
00010000
00000000
,
00001000
00000000
00100000
01000000
00100000
00000000
00010000
00000000
10000000
00000000
00100000
10000000
00100000
00000000
01000000
00000000
,
00001000
00000000
00010000
00001000
00010000
00000000
00000100
00000000
00000010
00000001
00000010
00000000
00000001
00001000
00000001
00001000
,
00000001
00000000
00000100
00000000
00000010
00000000
00010000
00001000
00000000
00001000
00010000
00000000
01000000
00000000
00100000
00000000
,
10000000
00000000
01000000
00000000
00100000
00000000
01000000
10000000
00000000
10000000
01000000
00000000
10000000
00000000
00100000
00000000
,
01000000
00000000
00001000
01000000
00001000
00000000
00010000
00000000
00000100
00010000
00000100
00000000
00001000
00000000
00000001
00000000
,
00000010
00000000
00000001
00001000
00000001
00000000
00000010
00000000
00000100
00010000
00000100
00010000
00000100
00000000
00010000
00001000
,
00010000
00000000
00001000
00000000
01000000
00000000
00100000
10000000
00000000
10000000
00100000
00000000
10000000
00000000
01000000
00000000
,
00010000
00000000
01000000
00000000
10000000
00000000
00100000
01000000
00000000
01000000
00100000
00000000
10000000
00000000
00001000
00000000
,
00100000
00000000
00001000
00010000
00001000
00000000
00010000
00000000
00000010
00001000
00000010
00000000
00000100
00000000
00000001
00000000
,
00000010
00000000
00000100
00001000
00000100
00000000
00001000
00000000
00010000
00001000
00010000
00000000
01000000
00100000
01000000
00100000
,
01000000
00000000
00010000
00000000
10000000
00000000
01000000
10000000
01000000
10000000
00100000
00000000
01000000
00000000
00001000
00000000
,
00100000
00000000
00001000
00000000
00010000
00000000
00000100
00000010
00000100
00000010
00000001
00000000
00001000
00000000
00000010
00000000
,
00010000
00000000
00001000
01000000
00100000
00000000
01000000
00000000
00010000
00100000
01000000
00000000
10000000
00000000
00001000
00000000
,
00100000
00000000
00001000
00010000
00000010
00000000
00001000
00000000
00000010
00000100
00000010
00000100
00000001
00000010
00000001
00000000
,
00001000
00000000
00000100
00000000
00000010
00000000
00000001
00000100
00000001
00000100
00000010
00000000
00010000
00000000
00001000
00000000
,
01000000
00000000
00100000
00000000
01000000
00000000
00010000
00100000
00010000
00100000
01000000
00000000
10000000
00000000
00001000
00000000
,
01000000
00000000
00001000
00010000
00000100
00000000
00000010
00000000
00000001
00000010
00000100
00000000
00010000
00000000
00001000
00000000
,
00100000
00000000
01000000
10000000
00100000
00000000
01000000
00000000
00010000
10000000
01000000
00000000
00100000
00001000
00100000
00001000
,
00010000
00001000
00010000
00001000
00000100
00000000
00000010
00000000
00000001
00000100
00000001
00000100
00000001
00000010
00000100
00000000
,
00010000
00001000
00010000
00001000
00100000
00000000
01000000
00000000
10000000
00010000
10000000
00010000
00100000
01000000
00100000
00000000
,
00001000
00010000
00001000
00010000
00000010
00000000
00000100
00000000
00000001
00001000
00000001
00001000
00000100
00000000
00001000
00000000
,
00010000
00100000
00010000
00100000
01000000
00000000
10000000
00000000
00100000
10000000
00100000
10000000
00010000
10000000
00010000
00000000
,
00100000
00001000
00100000
00001000
00010000
00000000
00000010
00000000
00000100
00000001
00000100
00000001
00001000
00000000
00000100
00000000
,
00001000
00010000
00001000
00010000
01000000
00000000
00100000
00000000
10000000
01000000
10000000
01000000
00100000
00000000
00010000
00000000
,
10000000
01000000
10000000
01000000
00010000
01000000
00010000
01000000
10000000
00010000
10000000
00010000
00100000
00000000
00001000
00010000
,
00001000
00010000
00000100
00000001
00000100
00000001
00000100
00010000
00000100
00010000
00000100
00000000
00010000
00001000
00010000
00001000
,
00010000
00000000
00001000
01000000
00100000
00000000
02000000
00000000
00000000
00000000
00100000
00000000
03100000
00000000
10000000
01000000
,
00100000
00000000
00010000
01000000
00001000
00000000
00020000
00000000
00000000
00000000
00001000
00000000
00031000
00000000
00010000
00000010
,
00010000
00000000
00000100
00000000
00000010
00000001
00000100
00000000
00000010
00000000
00010000
00000100
00010000
00001000
00100000
00000000
,
00010000
00100000
00010000
10000000
00100000
00000000
10000000
00100000
10000000
00100000
00010000
00100000
10000000
00001000
00010000
00000000
,
00000010
00000000
00000100
00000001
00000010
00000000
00000200
00000000
00000000
00000000
00001000
00000000
00001300
00000000
00000010
00000100
,
00000010
00000000
00001000
00000100
00000010
00000000
00000002
00000000
00000000
00000000
00001000
00000000
00001003
00000000
00000010
00010000
,
00000010
00000000
00001000
00010000
00100000
00000000
01000000
10000000
01000000
10000000
00010000
00100000
00010000
00100000
00001000
00000000
,
00010000
00000100
00010000
00000100
00000010
00000100
00000010
00000001
00001000
00000100
00000001
00000100
00001000
00000001
00000010
00000100
,
00010000
00001000
00010000
00000000
00001000
01000000
10000000
01000000
,
00100000
00000000
10000000
00000000
00001000
00000000
00000000
00000000
00000000
00000000
10000000
00000000
01000000
00100000
00001000
00010000
,
00001000
00010000
00001000
00000000
00010000
00000100
00000001
00000100
,
00001000
00000000
00000001
00000000
00000100
00000000
00000000
00000000
00000000
00000000
00000001
00000000
00000100
00000010
00010000
00001000
,
00010000
00001000
00010000
00000000
00001000
01000000
10000000
01000000
,
00100000
00000000
10000000
00000000
00001000
00000000
00000000
00000000
00000000
00000000
10000000
00000000
01000000
00100000
00010000
00001000
,
00010000
00001000
00010000
00000000
00000001
00000100
00001000
00000100
,
00000010
00001000
00000100
00000000
00000000
00000000
00000000
00000000
;

//---------------dance-single - ----------------
#NOTES:
     dance-single:
     :
     Beginner:
     5:
     0.200,0.280,0.020,0.000,0.000: // measure 1
1000
0000
0000
0000
,  // measure 2
0100
0000
0000
0000
,  // measure 3
1000
0000
0000
0000
,  // measure 4
0100
0000
0000
0000
,  // measure 5
0010
0000
0000
0000
,  // measure 6
0001
0000
0000
0000
,  // measure 7
0010
0000
0000
0000
,  // measure 8
0001
0000
0000
0000
,  // measure 9
1001
0000
0000
0000
,  // measure 10
0000
0000
0000
0000
,  // measure 11
1000
0000
0000
0000
,  // measure 12
0000
0000
0000
0000
,  // measure 13
1000
0000
0000
0000
,  // measure 14
0000
0000
0000
0000
,  // measure 15
1000
0000
0000
0000
,  // measure 16
0000
0000
0000
0000
,  // measure 17
0001
0000
0100
0000
,  // measure 18
0001
0000
0100
0000
,  // measure 19
0010
0000
0010
0000
,  // measure 20
1000
0000
1000
0000
,  // measure 21
0100
0000
0010
0000
,  // measure 22
0100
0000
0010
0000
,  // measure 23
0001
0000
0001
0000
,  // measure 24
1000
0000
0100
0000
,  // measure 25
1000
0000
0001
0000
,  // measure 26
0100
0000
0001
0000
,  // measure 27
1000
0000
1000
0000
,  // measure 28
0001
0000
0001
0000
,  // measure 29
0010
0000
0100
0000
,  // measure 30
0010
0000
0100
0000
,  // measure 31
1000
0000
1000
0000
,  // measure 32
0010
0000
0010
0000
,  // measure 33
0100
0001
0100
0000
,  // measure 34
0001
1000
0001
0000
,  // measure 35
1000
0100
1000
0000
,  // measure 36
0010
0100
0010
0000
,  // measure 37
1000
0001
1000
0000
,  // measure 38
0100
1000
0100
0000
,  // measure 39
0010
0001
0010
0000
,  // measure 40
0100
0010
0100
0000
,  // measure 41
1000
0010
0100
0000
,  // measure 42
0001
0100
0010
0000
,  // measure 43
1000
0100
0010
0000
,  // measure 44
0001
0010
0100
0000
,  // measure 45
1000
0001
1000
0000
,  // measure 46
0001
0100
0001
0000
,  // measure 47
1000
0100
0010
0000
,  // measure 48
0001
1000
0001
1000
,  // measure 49
0100
0000
0100
0000
,  // measure 50
1000
0010
0100
0000
,  // measure 51
0100
0000
0100
0000
,  // measure 52
0001
1000
0010
0000
,  // measure 53
0010
0000
0010
0000
,  // measure 54
1000
0100
0010
0000
,  // measure 55
0010
0000
0010
0000
,  // measure 56
0001
0100
0010
1000
,  // measure 57
0001
0000
0001
0000
,  // measure 58
1000
0000
1000
0000
,  // measure 59
0100
0010
0001
0010
,  // measure 60
0100
0000
0100
0000
,  // measure 61
1000
0000
1000
0000
,  // measure 62
0001
0000
0001
0000
,  // measure 63
1000
0010
0100
0010
,  // measure 64
1000
0000
1000
0000
,  // measure 65
1001
0000
0000
0000
,  // measure 66
0000
0000
0000
0000
,  // measure 67
0010
0000
0000
0000
,  // measure 68
0000
0000
0000
0000
,  // measure 69
0100
0000
0000
0000
,  // measure 70
0000
0000
0000
0000
,  // measure 71
1000
0000
0000
0000
;
