#TITLE:PentaCube Gt.(RX-Ver.S.P.L.);
#SUBTITLE:;
#ARTIST:高田雅史;
#TITLETRANSLIT:;
#SUBTITLETRANSLIT:;
#ARTISTTRANSLIT:MASAFUMI TAKADA;
#CREDIT:DigiMindAxel;
#BANNER:PentaCube Gt.(RX-Ver.S.P.L.).png;
#BACKGROUND:PentaCube Gt.(RX-Ver.S.P.L.)-bg.png;
#LYRICSPATH:;
#CDTITLE:beatmania IIDX.png;
#MUSIC:PentaCube Gt.(RX-Ver.S.P.L.).ogg;
#METERTYPE:DDR X;
#OFFSET:-0.381;
#SAMPLESTART:3.366;
#SAMPLELENGTH:12.000;
#SELECTABLE:YES;
#BPMS:0.000=183.000,209.000=91.500,229.000=183.000;
#STOPS:;
#BGCHANGES:-3.000=PentaCube Gt.(RX-Ver.S.P.L.).avi=1.000=1=0=1,
99999=-nosongbg-=1.000=0=0=0 // don't automatically add -songbackground-
;

//---------------dance-single - ----------------
#NOTES:
     dance-single:
     :
     Easy:
     5:
     0.196,0.265,0.034,0.229,0.000:
0000
0000
0000
0000
,
0000
0000
0000
0000
,
0000
0000
0000
0000
,
0000
0000
0000
0000
,
0000
0000
0000
0000
,
0000
0000
0000
0000
,
0000
0000
0000
0000
,
0000
0000
0000
0000
,
0000
0000
0000
0000
,
0000
0000
0000
0000
,
0000
0000
0000
0000
,
0000
0000
0000
0000
,
0000
0001
0010
0100
,
1000
0002
0000
0000
,
0000
0003
1000
0002
,
0000
0000
0103
0010
,
0200
0000
0000
0301
,
1000
0002
0000
0000
,
0000
0000
2003
0000
,
0000
0000
0000
3002
,
0000
0000
0000
0000
,
0000
0000
0000
0000
,
0000
1003
0000
0100
,
0000
0010
0000
0001
,
0000
0100
0000
0010
,
0000
0100
0000
0001
,
0000
1000
0000
0100
,
1000
0100
0000
1000
,
0000
0010
0000
0100
,
0000
0001
1000
0001
,
0000
0010
0000
0100
,
2000
0000
0000
0000
,
3001
1000
0100
1000
,
0000
0000
0001
1000
,
0001
0000
0000
0010
,
0001
0010
0000
0000
,
0100
1000
0100
0000
,
0000
0010
0100
0010
,
0000
0000
0001
1000
,
0001
0000
0000
1000
,
0100
1000
0001
0000
,
0010
0100
1000
0001
,
1000
0002
0000
0000
,
0000
0000
2003
0000
,
0000
0000
0000
3002
,
0000
0000
0000
0000
,
2003
0000
0000
0000
,
0001
3002
0000
0000
,
0000
0000
2003
0000
,
0000
0000
0000
3002
,
0000
0000
0000
0000
,
0023
0000
0000
0000
,
0000
0000
0031
0000
0000
0000
0000
1001
,
0000
0000
1000
0000
,
0000
1001
0000
0000
0000
0000
0001
0000
,
0000
0000
0000
1001
0000
0000
0000
0000
,
1000
0000
0000
0000
0000
1001
0000
0000
,
0000
0001
0100
0010
,
1000
0200
0000
0000
,
0000
1300
0001
0020
,
0000
0000
0031
1000
,
0200
0000
0000
0000
,
0000
1300
0001
0010
,
0100
0010
0002
0000
,
0000
1003
0100
0020
,
0000
0000
0031
0100
,
0020
0000
0000
0130
,
0010
1000
0010
0100
,
0001
2000
0000
0000
,
0000
3000
0100
0020
,
0000
0000
0031
1000
,
0002
0000
0000
1003
,
0100
0020
0000
0000
,
0000
0130
2000
0000
,
0000
0000
3001
1000
,
0000
1000
0000
0000
1000
0000
0001
0000
,
0100
0000
0000
0100
0000
0000
0100
0000
,
0010
2000
0000
0000
,
0000
3000
0000
0000
;

//---------------dance-single - ----------------
#NOTES:
     dance-single:
     :
     Medium:
     7:
     0.369,0.464,0.144,0.483,0.004:
0000
0000
0000
0000
,
0000
0000
0000
0000
,
0000
0000
0000
0000
,
0000
0000
0000
0000
,
0000
0000
0000
0000
,
0000
0000
0000
0000
,
0000
0000
0000
0000
,
0000
0000
0000
0000
,
0000
0000
0000
0000
,
0000
0000
0000
0000
,
0000
0000
0000
0000
,
0000
0000
0000
0000
,
0000
0000
0100
0010
0100
0010
1000
0000
,
0100
0000
0020
0000
0000
0002
0000
0000
,
0000
0000
0033
0000
0010
0100
0002
0000
,
0000
2003
0000
0000
3001
0000
0100
0000
,
0020
0000
0000
2030
0000
0000
3100
0000
,
0010
0000
0002
0000
0000
0020
0000
0000
,
0000
0000
0033
0000
0200
0000
0000
2000
,
0000
0000
3300
0020
,
0000
0200
0000
0000
0000
0000
0000
0000
,
0000
0000
0000
0330
,
1000
0001
1000
0000
0000
0100
0000
0000
,
0010
0000
0100
0000
1000
0000
0000
0001
,
0000
0100
0001
1000
,
0000
0100
0000
0000
0010
0000
0100
0000
,
1000
0000
0000
0010
0000
0000
0100
0000
,
0001
0000
1000
0100
1000
0001
0000
0000
,
0010
0000
0100
0000
1000
0010
1000
0001
,
0000
0000
0010
0000
0100
0000
0010
0001
,
0010
0100
0000
0000
1000
0000
0001
0000
,
0100
0010
0100
0001
0000
0000
1000
0000
,
0001
0010
0001
0000
0010
0000
0100
0000
,
1000
0001
0100
0000
0010
0000
1000
0000
,
0100
0000
0010
0001
0100
0010
0100
0000
,
0010
1000
0002
0023
,
0230
0000
0310
0001
0200
0000
0000
0000
,
0301
1000
0002
0000
0000
0203
0000
0000
,
0320
0000
1030
0100
,
0010
0000
0100
0000
1000
0001
0100
0001
,
0100
0001
0000
0000
0010
0000
0100
0000
,
1000
0001
0100
0001
0000
0000
0010
0000
,
0100
2000
0010
0000
,
0010
3010
0200
0001
,
0000
0001
0301
2000
,
0001
0000
0001
3001
,
0200
0010
0000
0010
,
0310
1000
0002
0000
1000
0000
0000
0000
,
1000
1003
0200
1000
,
0000
0000
1000
0000
1300
0001
0100
0000
,
0000
0101
0000
0000
0001
0000
1001
0000
,
1000
0000
0000
1100
0000
0000
0010
0000
,
0110
0000
0120
0000
0000
0000
0030
1002
,
0000
0000
0000
0003
0210
0000
0000
0000
,
0300
2001
0000
0000
0000
3000
0120
0000
,
0000
0000
0030
1002
0000
0000
0000
0003
,
0210
0000
0000
0000
0300
2001
0000
0000
,
0000
0000
3001
1000
0001
0000
0010
0000
0001
0000
0010
0000
0100
0000
0000
0000
,
1000
0000
0020
0000
0000
0200
0000
0000
,
0330
0000
0100
0010
1000
0000
0002
0000
,
0000
2003
0000
0000
3100
0000
0010
0000
,
0002
0000
0000
0023
0000
0000
0031
0000
,
1000
0100
0010
0001
,
0100
0001
0100
0001
2000
0000
0000
3200
,
0000
1300
0001
0020
,
0000
0032
0000
0000
0013
0000
0100
0000
,
2000
0000
0000
3020
0000
0000
0130
0000
,
0001
1000
0001
0000
0010
0001
0010
0001
,
0100
0000
0020
0000
0000
2000
0000
0000
,
0000
0000
3030
0000
0010
0001
2000
0000
,
0000
3020
0000
0000
0130
0000
0001
0000
,
0020
0000
0000
0230
0000
0000
1300
0000
,
0001
0010
0200
0000
0000
2000
0000
0000
,
3300
0000
0001
0010
0200
0000
0000
2000
,
0000
0000
3300
0000
0001
0010
0100
0000
,
0000
1100
0000
0000
1000
0000
1001
0000
,
0001
0000
0000
0101
0000
0000
0100
0000
,
0110
2020
0000
0000
,
0000
3030
0000
0000
;

//---------------dance-single - ----------------
#NOTES:
     dance-single:
     :
     Hard:
     12:
     0.556,0.696,0.390,0.440,0.064:
0000
0000
0000
0000
,
0000
0000
0000
0000
,
0000
0000
0000
0000
,
0000
0000
0000
0000
,
0000
0000
0000
0000
,
0000
0000
0000
0000
,
0000
0000
0000
0000
,
0000
0000
0000
0000
,
0000
0000
0000
0000
,
0000
0000
0000
0000
,
0000
0000
0000
0000
,
0000
0000
0000
0000
,
0000
0000
1000
0001
0010
1000
0010
0001
,
0100
0010
2000
0000
0000
3200
0000
0000
,
0000
0000
0000
0000
1300
0100
0020
0000
,
0000
0230
0000
0000
1300
0001
0100
0000
,
0002
0000
0000
0203
0000
0000
0310
1000
,
0001
1000
2100
0000
0000
3020
0000
0000
,
0100
0000
0130
0000
0102
0000
0000
2003
,
0000
0001
3001
2001
,
0000
3200
0000
0000
1000
0000
1000
0000
,
1300
0000
0001
0100
0000
0100
0010
0000
,
1000
0001
1000
0000
0001
0000
0010
0000
0001
0000
1000
0000
0000
0000
1000
0000
,
0001
0000
0101
0000
0010
1000
0100
1000
,
0000
1000
0001
0000
0011
0000
0010
0001
,
1000
0001
0000
0001
0010
0000
0110
0000
,
0100
1000
0010
1000
0000
1000
0001
0000
,
0011
0000
0001
1000
0100
0010
0000
0010
,
0001
0000
1001
0000
1000
0001
0010
0100
,
0000
0100
1000
0000
1001
0000
0001
1000
,
0010
0100
0000
0100
0001
0000
1001
0000
,
1000
0001
0100
0010
1000
0010
0100
0000
,
0001
0000
0001
0000
1000
0000
0000
0001
0000
0000
0020
0000
0000
0000
0031
0000
,
1000
0000
0100
0000
0010
0000
0001
0000
0100
0000
0000
0001
0000
0000
2000
0000
,
0000
3100
1000
0001
0100
0000
0201
0000
,
0000
0010
0000
0000
0310
1000
0100
0010
,
0002
0000
1003
0020
0000
0000
0130
0000
,
0001
0001
1000
0100
0010
0002
0000
1003
,
0020
0000
0130
0000
0001
0100
0010
1000
,
0000
1000
0001
0010
0001
0010
0001
1000
,
0100
0001
0000
0100
1000
0000
0001
0000
,
1000
0001
0010
1000
0000
0010
0001
0000
,
1000
0001
0100
0000
0101
0000
0000
0100
,
1000
0010
0100
0000
0110
0000
0101
0000
,
0000
0000
0001
1000
0001
1000
0100
0000
,
1100
0000
0000
0100
0010
0100
1000
0000
,
1001
0000
0101
0000
0000
0000
0100
0001
,
1000
1000
0001
0000
1001
0000
0000
1000
,
0010
0100
0010
0000
0110
0000
0101
0000
,
0000
0000
0100
0010
0100
0001
1001
0000
,
1000
1100
0000
0000
1100
0000
0110
0000
,
0011
0000
1000
1001
0000
0000
0101
0000
,
0110
0000
0000
0000
2010
0000
0000
0010
0000
0000
0010
0000
3010
0000
1002
0000
,
0000
1000
0000
0000
1000
0000
1003
0000
0021
0000
0000
0001
0000
0000
0001
0000
,
0031
0000
1200
0000
0000
1000
0000
0000
1000
0000
1300
0000
0120
0000
0000
0100
,
0000
0000
0100
0000
0130
0000
0102
0000
0000
0100
0000
0000
0100
0000
0103
0000
,
2010
0000
0000
0010
0000
0000
0010
0000
3010
0000
2001
0000
0000
0001
0000
0000
,
0001
0000
3001
0001
1000
0000
0010
0000
0001
0000
0010
0000
0100
0000
0001
0000
,
1000
0001
0020
0100
0000
0032
1000
0000
,
1003
0000
0000
0000
0001
1000
0001
0000
0100
0000
0000
0000
0002
0000
1000
0000
,
0000
2003
0100
0000
3100
1000
0010
0000
,
0200
0001
0000
0302
1000
0000
1000
0000
,
1003
0000
0000
0000
1001
0000
0000
0000
0001
0000
1000
0000
0100
1000
0100
0000
,
0001
0100
1000
0001
0200
0001
0000
0320
,
1000
0000
0000
0000
1030
0001
1000
0000
0100
0000
0010
0000
0002
0000
1000
0000
,
0000
0203
0001
0000
0301
1000
0100
0010
,
0002
1000
0000
0203
0001
0000
0302
0000
,
1003
1000
0001
0010
1000
0010
0100
1000
,
0001
0100
0020
1000
0000
2030
0001
0000
,
3001
0000
1000
0001
0010
1000
0020
0001
,
0000
0032
1000
0000
1003
0001
0010
0100
,
2000
0010
0000
3002
1000
0000
1003
0001
,
0100
1000
0200
0001
0000
0302
1000
0000
,
1003
0000
0001
0010
0200
1000
0000
2300
,
0001
0000
3001
0000
1000
0010
0110
0000
,
0001
1001
0000
1000
1100
0000
1001
0000
,
0011
0000
0100
0110
0000
1000
1010
0000
,
0101
2002
0000
0000
,
0000
3003
0000
0000
;

//---------------dance-double - ----------------
#NOTES:
     dance-double:
     :
     Easy:
     5:
     0.220,0.298,0.135,0.296,0.000: // measure 1
00000000
00000000
00000000
00000000
,  // measure 2
00000000
00000000
00000000
00000000
,  // measure 3
00000000
00000000
00000000
00000000
,  // measure 4
00000000
00000000
00000000
00000000
,  // measure 5
00000000
00000000
00000000
00000000
,  // measure 6
00000000
00000000
00000000
00000000
,  // measure 7
00000000
00000000
00000000
00000000
,  // measure 8
00000000
00000000
00000000
00000000
,  // measure 9
00000000
00000000
00000000
00000000
,  // measure 10
00000000
00000000
00000000
00000000
,  // measure 11
00000000
00000000
00000000
00000000
,  // measure 12
00000000
00000000
00000000
00000000
,  // measure 13
00000000
10000000
00100000
01000000
,  // measure 14
00001000
00020000
00000000
00000000
,  // measure 15
00000000
00030000
00000100
00000020
,  // measure 16
00000000
00000000
00000031
00001000
,  // measure 17
00000002
00000000
00000000
00000013
,  // measure 18
00000100
00022000
00000000
00000000
,  // measure 19
00000000
00033000
00022000
00000000
,  // measure 20
00000000
00000000
00033000
20002000
,  // measure 21
00000000
00000000
00000000
00000000
,  // measure 22
00000000
00000000
00000000
00000000
,  // measure 23
30003000
10000000
00000000
00100000
,  // measure 24
00000000
10000000
00000000
01000000
,  // measure 25
00000000
00100000
00000000
00010000
,  // measure 26
00000000
00100000
00000000
00001000
,  // measure 27
00000000
00010000
00000000
00001000
,  // measure 28
00001000
00010000
00000000
00000100
,  // measure 29
00000000
00000010
00000000
00000001
,  // measure 30
00000000
00001000
00000010
00001000
,  // measure 31
00000000
00000100
00000000
00010000
,  // measure 32
00002000
00000000
00000000
00000000
,  // measure 33
00013000
00001000
01000000
00001000
,  // measure 34
00000000
00100000
01000000
00100000
,  // measure 35
00000000
00000000
00000000
00010000
,  // measure 36
10000000
00100000
00000000
00000000
,  // measure 37
10000000
00010000
10000000
00000000
,  // measure 38
00000000
00001000
00010000
00001000
,  // measure 39
00000000
00000000
00010000
00000010
,  // measure 40
00000100
00000000
00000000
00000001
,  // measure 41
00000010
00000001
00001000
00000000
,  // measure 42
00000001
00000010
00000100
00001000
,  // measure 43
00000100
00020000
00000000
00000000
,  // measure 44
00000000
00030000
00022000
00000000
,  // measure 45
00000000
00000000
00033000
00002000
,  // measure 46
00000000
00000000
00000000
00003000
,  // measure 47
02200000
00000000
00000000
03300000
,  // measure 48
01000000
00200000
00000000
00000000
,  // measure 49
00000000
00300000
20020000
00000000
,  // measure 50
00000000
00000000
30030000
00002000
,  // measure 51
00000000
00000000
00000000
00000000
,  // measure 52
00003000
00022000
00000000
00000000
,  // measure 53
00033000
00000000
00011000
00000000
00000000
00000000
00000000
00010001
,  // measure 54
00000000
00000000
00000110
00000000
,  // measure 55
00000000
00010001
00000000
00000000
00000000
00000000
00011000
00000000
,  // measure 56
00000000
00000000
00000000
10001000
00000000
00000000
00000000
00000000
,  // measure 57
01100000
00000000
00000000
00000000
00000000
10001000
00000000
00000000
,  // measure 58
00000000
00001000
00001000
00000000
10000000
00000000
00100000
00000000
,  // measure 59
01000000
00002000
00000000
00000000
,  // measure 60
00000000
00013000
00000010
00000200
,  // measure 61
00000000
00000000
00000310
00001000
,  // measure 62
00000002
00000000
00000000
00000000
,  // measure 63
00000000
00000003
00000010
00000100
,  // measure 64
00000010
00000001
00002000
00000000
,  // measure 65
00000000
00003100
00010000
00002000
,  // measure 66
00000000
00000000
00103000
01000000
,  // measure 67
20000000
00000000
00000000
30100000
,  // measure 68
01000000
00010000
01000000
00100000
,  // measure 69
01000000
00002000
00000000
00000000
,  // measure 70
00000000
00003000
00010000
00000200
,  // measure 71
00000000
00000000
00000310
00000001
,  // measure 72
00000020
00000000
00000000
00000031
,  // measure 73
00000100
00000020
00000000
00000000
,  // measure 74
00000000
00000130
00000002
00000000
,  // measure 75
00000000
00000000
00001003
00000100
,  // measure 76
00000000
00000100
00000000
00000000
00000100
00000000
00010000
00000000
,  // measure 77
00001000
00000000
00000000
00001000
00000000
00000000
00001000
00000000
,  // measure 78
00100000
02200000
00000000
00000000
,  // measure 79
00000000
03300000
00000000
00000000
;

//---------------dance-double - ----------------
#NOTES:
     dance-double:
     :
     Medium:
     7:
     0.370,0.464,0.144,0.483,0.004: // measure 1
00000000
00000000
00000000
00000000
,  // measure 2
00000000
00000000
00000000
00000000
,  // measure 3
00000000
00000000
00000000
00000000
,  // measure 4
00000000
00000000
00000000
00000000
,  // measure 5
00000000
00000000
00000000
00000000
,  // measure 6
00000000
00000000
00000000
00000000
,  // measure 7
00000000
00000000
00000000
00000000
,  // measure 8
00000000
00000000
00000000
00000000
,  // measure 9
00000000
00000000
00000000
00000000
,  // measure 10
00000000
00000000
00000000
00000000
,  // measure 11
00000000
00000000
00000000
00000000
,  // measure 12
00000000
00000000
00000000
00000000
,  // measure 13
00000000
00000000
10000000
00100000
10000000
00100000
01000000
00000000
,  // measure 14
00001000
00000000
00020000
00000000
00000000
00000020
00000000
00000000
,  // measure 15
00000000
00000000
00030030
00000000
00000010
00000100
00000002
00000000
,  // measure 16
00000000
00002003
00000000
00000000
00003001
00000000
00000010
00000000
,  // measure 17
00000200
00000000
00000000
00020300
00000000
00000000
00031000
00000000
,  // measure 18
00100000
00000000
02000000
00000000
00000000
20000000
00000000
00000000
,  // measure 19
00000000
00000000
33000000
00000000
00002000
00000000
00000000
00020000
,  // measure 20
00000000
00000000
00033000
00000020
,  // measure 21
00000000
00000200
00000000
00000000
00000000
00000000
00000000
00000000
,  // measure 22
00000000
00000000
00000000
00000330
,  // measure 23
00010000
00001000
00010000
00000000
00000000
00000010
00000000
00000000
,  // measure 24
00000100
00000000
00000001
00000000
00001000
00000000
00000000
00000100
,  // measure 25
00000000
00010000
00001000
01000000
,  // measure 26
00000000
00100000
00000000
00000000
10000000
00000000
01000000
00000000
,  // measure 27
00100000
00000000
00000000
00001000
00000000
00000000
00010000
00000000
,  // measure 28
00000001
00000000
00001000
00000100
00001000
00000001
00000000
00000000
,  // measure 29
00000010
00000000
00000100
00000000
00010000
00001000
00010000
00000010
,  // measure 30
00000000
00000000
00000100
00000000
00000001
00000000
00001000
00000100
,  // measure 31
00001000
00000001
00000000
00000000
00000010
00000000
00000100
00000000
,  // measure 32
00001000
00010000
00001000
00000010
00000000
00000000
00000100
00000000
,  // measure 33
00010000
00001000
00010000
00000000
00001000
00000000
01000000
00000000
,  // measure 34
00100000
10000000
00010000
00000000
00100000
00000000
01000000
00000000
,  // measure 35
00100000
00000000
00001000
00010000
00000010
00000100
00000010
00000000
,  // measure 36
00001000
00000001
00000020
00000230
,  // measure 37
00020300
00000000
00031000
01000000
00200000
00000000
00000000
00000000
,  // measure 38
10300000
00010000
20000000
00000000
00000000
32000000
00000000
00000000
,  // measure 39
03200000
00000000
00310000
01000000
,  // measure 40
00001000
00000000
00010000
00000000
00000001
00000100
00000010
00000100
,  // measure 41
00000010
00000100
00000000
00000000
00000001
00000000
00000010
00000000
,  // measure 42
00000100
00010000
00000100
00010000
00000000
00000000
00001000
00000000
,  // measure 43
01000000
00200000
01000000
00000000
,  // measure 44
01300000
00010000
00200000
00001000
,  // measure 45
00000000
00001000
00301000
00020000
,  // measure 46
00000001
00000000
00000001
00030001
,  // measure 47
00000020
00000001
00000000
00000001
,  // measure 48
00000031
00010000
00002000
00000000
00100000
00000000
00000000
00000000
,  // measure 49
00100000
00103000
00020000
10000000
,  // measure 50
00000000
00000000
10000000
00000000
10030000
00010000
10000000
00000000
,  // measure 51
00000000
10010000
00000000
00000000
00010000
00000000
00100000
00000000
,  // measure 52
00001000
00000000
00000000
00011000
00000000
00000000
00010000
00000000
,  // measure 53
00010001
00000000
00000120
00000000
00000000
00000000
00000030
00000102
,  // measure 54
00000000
00000000
00000000
00000003
00002001
00000000
00000000
00000000
,  // measure 55
00003000
00020010
00000000
00000000
00000000
00030000
00012000
00000000
,  // measure 56
00000000
00000000
00003000
02100000
00000000
00000000
00000000
03000000
,  // measure 57
20010000
00000000
00000000
00000000
30000000
00102000
00000000
00000000
,  // measure 58
00003000
00000000
00010000
00001000
00010000
00000000
00000010
00000000
00000100
00000000
00000010
00000000
00000100
00000000
00000000
00000000
,  // measure 59
00000001
00000000
00000020
00000000
00000000
00000200
00000000
00000000
,  // measure 60
00000330
00000000
00010000
00001000
00010000
00000000
00002000
00000000
,  // measure 61
00000000
02003000
00000000
00000000
03100000
00000000
10000000
00000000
,  // measure 62
00020000
00000000
00000000
20030000
00000000
00000000
30001000
00000000
,  // measure 63
00010000
00000000
00011000
00000000
00010000
00000000
00000010
00000100
,  // measure 64
00000001
00000010
00000001
00000010
00000002
00000000
00000000
00002003
,  // measure 65
00000000
00003100
00010000
00002000
,  // measure 66
00000000
00203000
00000000
00000000
01300000
00000000
10000000
00000000
,  // measure 67
00020000
00000000
00000000
02030000
00000000
00000000
03001000
00000000
,  // measure 68
00010000
00001000
00010000
00000000
00000100
00000010
00000100
00000010
,  // measure 69
00000001
00000000
00000200
00000000
00000000
00000020
00000000
00000000
,  // measure 70
00000000
00000000
00000330
00000000
00010000
00001000
00020000
00000000
,  // measure 71
00000000
00032000
00000000
00000000
01003000
00000000
00100000
00000000
,  // measure 72
20000000
00000000
00000000
30020000
00000000
00000000
10030000
00000000
,  // measure 73
00001000
00010000
00002000
00000000
00000000
00020000
00000000
00000000
,  // measure 74
00033000
00000000
00000010
00000100
00000002
00000000
00000000
00000200
,  // measure 75
00000000
00000000
00000303
00000000
00000001
00000010
00000100
00000000
,  // measure 76
00000000
00000110
00000000
00000000
00010000
00000000
00011000
00000000
,  // measure 77
00001000
00000000
00000000
00101000
00000000
00000000
00100000
00000000
,  // measure 78
01100000
20020000
00000000
00000000
,  // measure 79
00000000
30030000
00000000
00000000
;

//---------------dance-double - ----------------
#NOTES:
     dance-double:
     :
     Hard:
     12:
     0.552,0.596,0.356,0.373,0.072: // measure 1
00000000
00000000
00000000
00000000
,  // measure 2
00000000
00000000
00000000
00000000
,  // measure 3
00000000
00000000
00000000
00000000
,  // measure 4
00000000
00000000
00000000
00000000
,  // measure 5
00000000
00000000
00000000
00000000
,  // measure 6
00000000
00000000
00000000
00000000
,  // measure 7
00000000
00000000
00000000
00000000
,  // measure 8
00000000
00000000
00000000
00000000
,  // measure 9
00000000
00000000
00000000
00000000
,  // measure 10
00000000
00000000
00000000
00000000
,  // measure 11
00000000
00000000
00000000
00000000
,  // measure 12
00000000
00000000
00000000
00000000
,  // measure 13
00000000
00000000
10000000
00010000
01000000
10000000
01000000
00010000
,  // measure 14
00100000
01000000
00200000
00000000
00000000
00302000
00000000
00000000
,  // measure 15
00000000
00000000
00000000
00000000
00013000
00000010
00000200
00000000
,  // measure 16
00000000
00000320
00000000
00000000
00001030
00000001
00000010
00000000
,  // measure 17
00000002
00000000
00000000
00020003
00000000
00000000
00031000
10000000
,  // measure 18
01000000
00100000
00020000
00000000
00000000
02030000
00000000
00000000
,  // measure 19
00001000
00000000
03001000
00000000
00012000
00000000
00000000
00023000
,  // measure 20
00000000
00000100
00030100
00002001
,  // measure 21
00000000
00003020
00000000
00000000
00000100
00000000
00000100
00000000
,  // measure 22
00000130
00000000
00000001
00001000
00000001
00001000
00000100
00000000
,  // measure 23
00001000
00000001
00001000
00000000
00000001
00000000
00000010
00000000
00000100
00000000
00010000
00000000
00000000
00000000
00010000
00000000
,  // measure 24
00001000
00000000
00011000
00000000
00001000
10000000
01000000
00100000
,  // measure 25
00000000
00100000
00001000
00000000
00011000
00000000
00010000
00000010
,  // measure 26
00000100
00000000
00000001
00000000
00000000
00000000
00000001
00000000
00010000
00000000
00000000
00000000
00001000
00010000
00001000
00010000
,  // measure 27
00001000
00100000
01000000
10000000
00000000
10000000
00001000
00000000
,  // measure 28
00011000
00000000
00010000
00000100
00000010
00000001
00000000
00000001
,  // measure 29
00001000
00000100
00010000
00000000
00001000
00100000
01000000
10000000
,  // measure 30
00000000
10000000
00010000
01000000
00010000
00000000
10000000
01000000
,  // measure 31
00100000
00001000
00010000
00000010
00000100
00000000
00000110
00000000
,  // measure 32
00000001
00000100
00000010
00010000
00001000
00100000
01000000
00000000
,  // measure 33
10000000
00000000
10000000
00000000
00010000
00000000
00000000
01000000
00000000
00000000
00002000
00000000
00000000
00000000
00013000
00000000
,  // measure 34
00000010
00000000
00000100
00000000
00000001
00000000
00000010
00000000
00000100
00000000
00000000
00010000
00000000
00000000
00002000
00000000
,  // measure 35
00000000
01003000
00100000
10000000
01000000
00000000
01200000
00000000
,  // measure 36
00000000
01000000
00000000
00000000
01300000
00001000
00010000
00000010
,  // measure 37
00000200
00000000
00000301
00000020
00000000
00000000
00000130
00000000
,  // measure 38
00010000
00010000
00001000
00100000
01000000
20000000
00000000
30010000
,  // measure 39
00200000
00000000
00301000
00000000
00010000
00000100
00000010
00000001
,  // measure 40
00000000
00000001
00010000
00000100
00010000
00000100
00010000
00001000
,  // measure 41
01000000
00100000
00000000
00100000
10000000
00000000
10000000
00000000
,  // measure 42
01000000
00100000
00001000
00010000
00000000
00010000
00000010
00000000
,  // measure 43
00000010
00001000
00000001
00000000
00001001
00000000
00000000
00000001
,  // measure 44
00000010
00000100
00010000
00000000
00011000
00000000
01001000
00000000
,  // measure 45
00000000
00000000
01000000
00100000
01000000
00100000
10000000
00000000
,  // measure 46
10100000
00000000
00000000
10000000
00100000
01000000
00001000
00000000
,  // measure 47
00011000
00000000
00010010
00000000
00000000
00000000
00000100
00000010
,  // measure 48
00001000
00001000
00000010
00000000
00001001
00000000
00000000
00000001
,  // measure 49
00000100
00000010
00010000
00000000
00011000
00000000
01001000
00000000
,  // measure 50
00000000
00000000
01000000
00010000
10000000
10000000
10010000
00000000
,  // measure 51
01000000
01010000
00000000
00000000
01001000
00000000
00011000
00000000
,  // measure 52
00010010
00000000
00000010
00000110
00000000
00000000
00000110
00000000
,  // measure 53
00000101
00000000
00000000
00000000
00001001
00000000
00000000
00001000
00000000
00000000
00000010
00000000
00010000
00000000
00011000
00000000
,  // measure 54
00000000
00001000
00000000
00000000
01000000
00000000
00100000
00000000
10100000
00000000
00000000
10000000
00000000
00000000
00010000
00000000
,  // measure 55
00100000
00000000
00101000
00000000
00000000
00001000
00000000
00000000
00010000
00000000
00000010
00000000
00000110
00000000
00000000
00000100
,  // measure 56
00000000
00000000
00000001
00000000
00001000
00000000
00001100
00000000
00000000
00000100
00000000
00000000
00010000
00000000
00001000
00000000
,  // measure 57
01001000
00000000
00000000
01000000
00000000
00000000
00100000
00000000
10000000
00000000
10010000
00000000
00000000
00010000
00000000
00000000
,  // measure 58
00100000
00000000
00001000
00001000
10000000
00000000
00010000
00000000
00100000
00000000
10000000
00000000
00100000
00000000
00010000
00000000
,  // measure 59
01000000
00100000
02000000
00001000
00000000
03002000
00010000
00000000
,  // measure 60
00013000
00000000
00000000
00000000
00000010
00000100
00000010
00000000
00001000
00000000
00000001
00000000
00000200
00000000
00000010
00000000
,  // measure 61
00000000
00000320
00001000
00000000
00001030
00000001
00000010
00000000
,  // measure 62
00000200
00010000
00000000
00020300
00001000
00000000
00001000
00000000
,  // measure 63
00031000
00000000
00000000
00000000
00011000
00000000
00000000
00000000
01000000
00000000
00100000
00000000
10000000
00100000
10000000
00000000
,  // measure 64
01000000
00100000
00010000
00001000
00020000
00001000
00000000
00030020
,  // measure 65
00000100
00000000
00000000
00000000
00000130
00000001
00000100
00000000
00000010
00000000
00001000
00000000
00000200
00000000
00010000
00000000
,  // measure 66
00000000
00020300
00001000
00000000
00031000
00100000
01000000
10000000
,  // measure 67
00200000
01000000
00000000
02300000
00001000
00000000
03002000
00000000
,  // measure 68
00013000
00010000
00000001
00001000
00000100
00000001
00000100
00001000
,  // measure 69
00000010
00000100
00000020
00010000
00000000
00020030
00001000
00000000
,  // measure 70
00031000
00000000
00100000
00010000
00100000
00010000
20000000
00100000
,  // measure 71
00000000
30200000
01000000
00000000
01300000
00001000
00010000
00000010
,  // measure 72
00000200
00000010
00000000
00000302
00001000
00000000
00001003
00000001
,  // measure 73
00000010
00000001
00020000
00001000
00000000
00032000
00100000
00000000
,  // measure 74
00103000
00000000
00010000
10000000
02000000
00100000
00000000
03200000
,  // measure 75
00010000
00000000
00310000
00000000
10000000
01000000
11000000
00000000
,  // measure 76
00001000
01001000
00000000
00010000
00011000
00000000
00010010
00000000
,  // measure 77
00000110
00000000
00000001
00001001
00000000
00001000
00001100
00000000
,  // measure 78
00011000
02200000
00000000
00000000
,  // measure 79
00000000
03300000
00000000
00000000
;

//---------------dance-single - ----------------
#NOTES:
     dance-single:
     :
     Beginner:
     3:
     0.088,0.196,0.127,0.000,0.000:
0000
0000
0000
0000
,
0000
0000
0000
0000
,
0000
0000
0000
0000
,
0000
0000
0000
0000
,
0000
0000
0000
0000
,
0000
0000
0000
0000
,
0000
0000
0000
0000
,
0000
0000
0000
0000
,
0000
0000
0000
0000
,
0000
0000
0000
0000
,
0000
0000
0000
0000
,
0000
0000
0000
0000
,
0000
0001
0000
0000
,
0000
0010
0000
0000
,
0000
0000
0000
0100
,
0000
0000
0000
0000
,
1000
0000
0000
0000
,
0000
0010
0000
0000
,
0000
0000
0010
0000
,
0000
0000
0000
0110
,
0000
0000
0000
0000
,
0000
0000
0000
0000
,
0000
0100
0000
0000
,
0000
0000
0001
0000
,
0000
0000
0000
1000
,
0000
0000
0000
0000
,
0100
0000
0000
0000
,
0000
0010
0000
0000
,
0000
0000
0001
0000
,
0000
0000
0000
1000
,
0000
0000
0000
0000
,
1001
0000
0000
0000
,
0000
1001
0000
0000
,
0000
0000
0001
0000
,
0000
0000
0000
0010
,
0000
0000
0000
0000
,
0001
0000
0000
0000
,
0000
0100
0000
0000
,
0000
0000
0010
0000
,
0000
0000
0000
1000
,
0000
0000
0000
0000
,
0001
0000
0000
0000
,
0000
1001
0000
0000
,
0000
0000
1000
0000
,
0000
0000
0000
0100
,
0000
0000
0000
0000
,
0010
0000
0000
0000
,
0000
0001
0000
0000
,
0000
0000
0010
0000
,
0000
0000
0000
0100
,
0000
0000
0000
0000
,
1001
0000
0000
0000
,
0000
0000
1001
0000
0000
0000
0000
0001
,
0000
0000
1001
0000
,
0000
1000
0000
0000
0000
0000
1001
0000
,
0000
0000
0000
0001
0000
0000
0000
0000
,
1001
0000
0000
0000
0000
1000
0000
0000
,
0000
1001
0000
0000
,
0000
0000
0001
0000
,
0000
0000
0000
0010
,
0000
0000
0000
0000
,
0100
0000
0000
0000
,
0000
0010
0000
0000
,
0000
0000
0001
0000
,
0000
0000
0000
1000
,
0000
0000
0000
0000
,
0010
0000
0000
0000
,
0000
0110
0000
0000
,
0000
0000
0100
0000
,
0000
0000
0000
0001
,
0000
0000
0000
0000
,
1000
0000
0000
0000
,
0000
1001
0000
0000
,
0000
0000
0001
0000
,
0000
0000
0000
1001
,
0000
0000
1000
0000
,
0110
0000
0000
0010
,
0000
0110
0000
0000
;
