#TITLE:빨개요;
#SUBTITLE:;
#ARTIST:현아;
#TITLETRANSLIT:PPALGAEYO;
#SUBTITLETRANSLIT:;
#ARTISTTRANSLIT:HYUNA;
#CREDIT:DigiMindAxel;
#BANNER:PPALGAEYO.png;
#BACKGROUND:PPALGAEYO-bg.png;
#LYRICSPATH:PPALGAEYO.lrc;
#CDTITLE:DigiMindAxel original simfile.png;
#MUSIC:PPALGAEYO.ogg;
#METERTYPE:DDR X;
#OFFSET:-6.371;
#SAMPLESTART:48.785;
#SAMPLELENGTH:12.000;
#SELECTABLE:YES;
#DISPLAYBPM:164.000;
#BPMS:0.000=164.000,16.000=82.000,18.000=164.000;
#STOPS:242.000=1.098
;
#BGCHANGES:-16.000=PPALGAEYO.avi=1.000=1=1=0,
99999=-nosongbg-=1.000=0=0=0 // don't automatically add -songbackground-
;

//---------------dance-single - ----------------
#NOTES:
     dance-single:
     :
     Easy:
     5:
     0.234,0.251,0.096,0.037,0.000:
1001
0000
1000
0000
,
0001
0000
1000
0000
,
0001
0000
0001
0000
,
1000
0001
1000
0000
,
1001
0000
0001
0000
,
0010
0000
0100
0000
,
0000
0000
0010
0000
,
0001
0000
0100
0000
,
0000
0000
0010
0000
,
1000
0000
0001
0000
,
0000
0000
0010
0000
,
0001
0000
0100
0000
,
0000
0000
0001
0000
,
0010
0000
0100
0000
,
1000
0000
0001
0000
,
0010
0000
0100
0000
,
1000
0000
0010
0000
,
0100
0000
0010
0000
,
0100
0000
0001
0000
,
0001
0000
2000
0000
,
0000
0000
3001
1000
,
0001
0000
1000
0001
,
1000
0000
0010
0100
,
0010
0000
0100
0010
,
0100
0000
0001
1000
,
0001
1000
0100
1000
,
0100
1000
0002
0000
,
2003
0000
3001
0000
,
0000
0000
1001
0000
,
1001
0000
0010
0100
,
0010
0000
1001
0000
,
1001
0000
0100
0010
,
0100
0000
1001
0000
,
1001
0000
0010
0100
,
0010
0000
1001
0000
,
1001
0000
0100
0010
,
0100
0000
0001
1000
,
0001
1000
0100
1000
,
0001
0010
0100
0000
,
0010
0000
0001
0000
,
0010
0000
0001
1000
,
0001
1000
0001
1000
,
0001
0010
0100
0000
,
0010
0000
0001
0000
,
0100
0000
0010
0010
,
0010
0000
0010
0010
,
0010
0000
0010
0010
,
0010
0010
0100
0010
,
0100
0000
0001
0001
,
0001
0000
1000
1000
,
1000
0000
0001
0001
,
0001
1000
0001
1000
,
0100
0000
1001
0000
,
0001
0000
0010
0000
,
0100
0000
1000
0000
,
0001
0000
0100
0010
,
0100
0000
0001
0000
,
1000
0000
0100
1000
,
0100
0000
1000
0000
,
0001
0000
0000
0000
,
0000
0000
0000
0110
,
0000
0000
0000
0010
,
0000
0000
0000
0010
,
0000
0000
0000
0010
,
0000
0000
0000
1001
,
0000
1000
0000
0001
,
0000
1000
0000
0001
,
1000
0001
1000
0002
,
0000
0000
0000
1003
,
0000
0100
0000
0010
,
0100
1000
0000
0010
,
0000
0100
0000
0001
,
0100
0010
0000
0100
,
0000
0001
0000
1000
,
0010
0100
0000
0001
,
0000
1000
0000
0100
,
0010
0001
0000
0100
,
0010
0100
0010
0100
,
0010
1000
0100
1000
,
0000
0001
0000
0010
,
0000
0100
0000
0010
,
0001
0010
0001
0010
,
0001
0010
0001
0100
,
0000
0010
0000
0200
,
0000
0000
0310
0000
;

//---------------dance-single - ----------------
#NOTES:
     dance-single:
     :
     Medium:
     10:
     0.424,0.439,0.148,0.089,0.000:
1001
0001
0001
0001
,
0010
0010
0010
0010
,
0001
0010
0100
1000
,
0001
1000
0010
1000
0010
0000
0000
0000
,
2002
0000
0000
3003
1000
0000
0100
0000
,
0010
0000
0100
1000
,
0100
0000
1000
0001
,
0010
0100
1000
0001
,
0100
0000
0000
0000
0001
0000
1000
0100
,
0000
1000
0100
0000
0000
1000
0001
1000
,
0001
1000
0000
0000
0010
0000
0100
0010
,
0000
0100
0010
0000
0000
0100
0001
0100
,
0001
0100
0000
0000
0001
1000
0000
0200
,
0000
0000
1300
0000
1000
0001
0000
0020
,
0000
0000
0031
0000
0001
1000
0001
1000
,
0000
0100
0000
0000
1000
0001
1000
0001
,
0000
0010
0000
0000
0001
1000
0001
0000
,
1000
0001
1000
0000
0100
0010
0100
0000
,
0010
0100
0010
0000
1000
0010
1000
0000
,
0001
0100
0001
0000
2000
0000
0000
0000
,
0000
3001
1000
0001
,
1000
0001
1000
0100
,
1000
0100
1000
0001
,
1000
0001
1000
0001
,
0100
0001
0100
0100
,
0010
0010
0100
0100
,
0010
0000
0010
0000
1000
0001
1000
0001
,
1000
0001
1000
0001
2000
0000
0000
0000
,
0000
0000
0000
0000
3001
0000
1000
0100
,
0000
1000
0001
1000
0100
0000
0010
0000
,
0001
0000
0000
0000
0100
0000
0010
0100
,
0010
0000
1000
0000
0001
0000
0010
0001
,
0000
0000
0000
0000
0100
0000
0001
1000
,
0000
0001
1000
0100
1000
0000
0010
0000
,
0100
0000
0000
0000
0001
0000
1000
0100
,
1000
0000
0001
0000
0100
0000
0010
0100
,
0000
0000
0102
0000
,
1000
0000
0100
0000
,
1003
0001
0010
0100
1000
0000
1100
0000
,
0000
0000
0011
0000
0000
0001
1000
0010
,
1000
1001
2100
0000
,
0001
0000
0100
0000
,
3001
1000
0010
0100
0001
0000
0101
0000
,
0000
0000
1010
0000
0000
1000
0001
0010
,
0001
1001
1000
1000
,
1000
1000
0001
0001
,
0001
0001
1000
1000
,
1000
1000
0001
0001
,
0001
0000
0001
0000
1000
0001
1000
0000
,
0001
1000
0001
0000
1000
0001
1000
0000
,
0001
1000
0001
0000
0100
0010
0100
0010
,
0100
0010
0100
0010
0100
0000
0100
0000
,
0100
0000
0100
0000
0010
0100
0001
0000
,
1000
0001
1000
0001
1000
0000
0100
0000
,
0010
0000
0001
0000
0010
0001
1000
0000
,
0100
1000
0100
0000
1000
0010
0100
0010
,
0100
0001
1000
0000
0100
0010
0001
0000
,
0010
0001
0010
0000
0001
0100
0001
0100
,
0010
1000
0010
1000
0000
0001
0010
0100
,
1000
0001
1000
0002
0000
0000
0000
0000
,
0000
0000
0000
0003
0000
0000
0110
0000
,
0100
0100
0100
0100
,
0100
0100
0100
0010
,
0010
0010
0010
0010
,
0010
0010
0010
1001
,
1000
0001
1000
0001
,
0010
0000
0001
0000
1000
0000
0100
1000
,
0100
1000
0100
1000
0100
1000
0200
0000
,
0000
0000
0300
1001
,
1000
0100
0000
1000
0001
0010
0100
0000
,
0010
0001
0000
1000
,
0001
0100
0001
0000
0100
0000
0010
0000
,
1000
0001
0000
0000
0000
0000
0010
0000
,
0001
1000
0000
0001
1000
0100
1000
0000
,
0010
0100
0000
0001
,
1000
0100
1000
0000
0001
0000
0100
0000
,
0001
1000
0000
0000
0000
0000
2100
0000
,
0000
0001
0000
0100
,
0000
0000
3001
1000
0010
0100
0001
0000
,
0101
0000
0000
0000
1010
0000
0000
0010
,
1000
0100
0010
0000
0001
0000
0102
0000
,
0000
1000
0000
0100
,
0000
0000
1003
0001
0010
0100
1000
0000
,
1100
0000
0000
0000
0011
0000
0000
0001
,
0100
0010
0100
0000
0110
0000
0000
0000
;

//---------------dance-single - ----------------
#NOTES:
     dance-single:
     :
     Hard:
     13:
     0.587,0.534,0.393,0.215,0.108: // measure 1
1001
0000
1000
0100
1000
0000
0110
0000
,  // measure 2
0010
0000
0010
0100
0010
0000
0101
0000
,  // measure 3
0001
0000
0001
1000
0100
0000
1100
0000
,  // measure 4
1000
0000
0100
0000
0010
0000
0001
0000
1000
0000
0010
0000
0100
0001
0100
0001
,  // measure 5
0200
0000
0000
0300
1001
0000
0001
0010
,  // measure 6
1000
0000
0010
0000
0002
0000
0000
1003
,  // measure 7
0100
0000
1000
0000
1001
0000
0001
0100
,  // measure 8
1000
0000
0100
0000
0002
0000
0000
1003
,  // measure 9
0010
0000
0100
0000
0001
0000
1000
0010
,  // measure 10
0000
0010
0100
0001
0000
1000
0100
0010
,  // measure 11
0001
1000
0000
0000
0010
0000
0100
0001
,  // measure 12
0000
0001
1000
0100
0000
1000
0001
0010
,  // measure 13
0100
1000
0001
0000
1000
0100
0010
0001
,  // measure 14
1000
0000
1100
0000
1000
0100
0010
0001
,  // measure 15
0000
0001
1000
0100
1000
0001
0100
0010
,  // measure 16
0000
0110
0000
0100
0001
0010
0100
1000
,  // measure 17
0000
0000
1001
0000
0000
0000
0000
0000
0001
0000
0010
0000
0100
0000
1000
0010
,  // measure 18
1000
0000
0001
0000
0001
0000
0000
0000
0010
0000
0100
0000
1000
0000
0001
0100
,  // measure 19
0001
1000
1000
0001
0100
0010
0001
0010
,  // measure 20
0100
0000
0001
1000
0001
0000
0200
0000
0000
0000
0000
0000
0000
0000
0000
0000
,  // measure 21
0300
0000
0010
0100
0010
0000
0000
0000
0101
0000
0000
0000
0001
0000
0000
0000
,  // measure 22
0001
1001
0001
0011
,  // measure 23
0001
1000
0001
0000
1000
0000
1000
0000
,  // measure 24
1000
1100
1000
1001
,  // measure 25
1000
0010
1000
0000
1001
0000
0001
0100
,  // measure 26
0001
0000
1000
0010
1000
0000
0001
0100
,  // measure 27
0001
0000
1000
0010
1000
0100
0010
0001
,  // measure 28
1000
0100
0010
0001
2000
0000
0000
0000
,  // measure 29
0000
0000
3010
1000
0010
0000
0000
0000
1001
0000
0000
0000
0200
0000
0001
0000
,  // measure 30
0000
0301
1000
0100
0010
0000
0011
0000
,  // measure 31
1100
0000
1001
0000
0110
0000
0001
0100
,  // measure 32
1000
0100
0001
0000
1000
0000
0010
0100
,  // measure 33
0002
0000
0000
0000
1003
0000
0200
1000
,  // measure 34
0000
1300
0001
0100
0010
0000
1010
0000
,  // measure 35
0101
0000
1001
0000
0110
0000
1000
0010
,  // measure 36
0001
0010
1000
0000
0001
0000
0100
0010
,  // measure 37
1000
0000
0010
1000
0010
0000
1000
0001
2000
0000
0000
0000
0000
0000
0000
0000
,  // measure 38
0001
0000
0001
0000
,  // measure 39
3001
0010
0100
1000
0100
0000
2020
0000
,  // measure 40
3030
0000
0202
0000
0303
0001
1000
0100
,  // measure 41
0010
0110
1002
0000
,  // measure 42
1000
0000
1000
0000
,  // measure 43
1003
0100
0010
0001
0010
0000
0202
0000
,  // measure 44
0303
0000
2020
0000
3030
1000
0001
0010
,  // measure 45
0100
0110
0101
0001
,  // measure 46
0001
1001
1000
1100
,  // measure 47
1000
0001
1000
0000
0001
0000
0001
0000
,  // measure 48
0001
0101
0001
1001
,  // measure 49
0001
0010
0001
0000
1000
0100
0010
0000
,  // measure 50
0100
0010
0001
0000
1000
0010
0100
0000
,  // measure 51
0010
0000
0100
0000
0001
0000
0000
0000
1000
0000
0100
0000
0010
0000
0001
1000
,  // measure 52
0001
1000
0010
0100
0001
1000
0001
1000
,  // measure 53
0001
0000
1000
0000
0001
0000
0000
0000
1000
0000
0001
0100
0001
0000
0000
0000
,  // measure 54
1000
0000
0001
0100
0001
0000
1000
0000
0100
0000
0100
0000
0010
0000
0010
0000
,  // measure 55
0001
0000
1000
0001
1000
0000
0000
0000
0001
0000
1000
0100
1000
0000
0000
0000
,  // measure 56
0001
0000
1000
0100
1000
0000
0000
0000
0001
0000
0100
0000
0100
0000
0010
0000
,  // measure 57
0010
0000
1000
0001
1000
0000
0000
0000
0001
0000
0100
0010
0100
0000
0000
0000
,  // measure 58
0001
1000
0100
0010
0000
0001
0100
1000
,  // measure 59
0100
0000
0001
1000
0001
0000
1000
0000
0000
0000
0001
0000
0010
0000
1000
0000
,  // measure 60
0010
0000
0001
1000
0001
0000
2000
0000
0000
0000
0000
0000
0000
0000
0000
0000
,  // measure 61
0000
0000
0000
3000
0000
0000
0110
0000
,  // measure 62
0010
0010
1010
0010
,  // measure 63
0110
0000
0010
0100
0010
0000
1001
0000
,  // measure 64
0001
0001
0101
0001
,  // measure 65
1001
0000
0001
0010
0001
0000
1000
0001
,  // measure 66
0010
0000
0001
1000
0100
0000
1000
0010
,  // measure 67
0100
0000
0010
0100
0001
0000
0010
0100
,  // measure 68
1000
0000
0001
0100
0001
0000
1000
0000
0100
0000
0010
0000
0002
0000
0000
0000
,  // measure 69
0000
0000
0000
0000
0000
0000
1003
0010
1000
0000
0000
0000
1001
0000
0000
0000
,  // measure 70
0020
0001
0000
0031
1000
0100
0010
0000
,  // measure 71
0011
0000
1100
0000
1001
0000
0001
0100
,  // measure 72
1000
0100
0001
0000
1001
0000
1000
0010
,  // measure 73
0001
0010
2000
0000
0000
0000
3001
0000
,  // measure 74
0200
0001
0000
0301
1000
0100
0010
0000
,  // measure 75
0011
0000
1100
0000
1001
0000
1000
0010
,  // measure 76
0001
0010
1000
0000
1001
0000
0001
0100
,  // measure 77
1000
0000
0100
0000
0001
0000
1000
0100
1000
0000
0001
1000
0002
0000
0000
0000
,  // measure 78
0000
1000
0000
1000
,  // measure 79
0000
0000
0000
0000
1003
0000
0100
0000
0010
0000
0001
0000
1000
0000
0010
1000
,  // measure 80
0020
0000
0000
0000
0030
0000
0100
0001
0200
0000
0000
0000
0300
0000
0001
0000
,  // measure 81
1000
0100
0010
0000
0110
0000
2001
0000
,  // measure 82
0000
0001
0000
0001
,  // measure 83
0000
0000
0000
0000
3001
0000
1000
0000
0100
0000
0010
0000
0001
0000
0100
0001
,  // measure 84
0200
0000
0000
0000
0300
0000
0001
1000
0002
0000
0000
0000
0003
0000
1000
0000
,  // measure 85
1000
0000
0010
0000
0100
0000
0001
0100
0001
0000
1000
0001
0000
0000
0000
0000
;

//---------------dance-double - ----------------
#NOTES:
     dance-double:
     :
     Easy:
     6:
     0.228,0.251,0.096,0.082,0.000:
10010000
00000000
10000000
00000000
,
00010000
00000000
10000000
00000000
,
00001000
00000000
00010000
00001000
,
00010000
00001000
00010000
00000000
,
00011000
00000000
00001000
00000000
,
00010000
00000000
00000100
00000000
,
00000000
00000000
00001000
00000000
,
00000001
00000000
00001000
00000000
,
00000000
00000000
00000010
00000000
,
00000100
00000000
00000010
00000000
,
00000000
00000000
00001000
00000000
,
00000100
00000000
00001000
00000000
,
00000000
00000000
00000001
00000000
,
00000010
00000000
00000100
00000000
,
00010000
00000000
00001000
00000000
,
00010000
00000000
00000010
00000000
,
00000100
00000000
00001001
00000000
,
00000001
00000000
00001000
00000000
,
00001000
00000000
00000001
00000000
,
00000001
00000000
00020000
00000000
,
00000000
00000000
00031000
00010000
,
00001000
00000000
00010000
00000010
,
00010000
00000000
00001000
00010000
,
00001000
00000000
00010000
00000100
,
00010000
00000000
00001000
00010000
,
00001000
00010000
00001000
00010000
,
00001000
00010000
00002000
00000000
,
02003000
00000000
03100000
00000000
,
00000000
00000000
01100000
00000000
,
00100000
00000000
10000000
00010000
,
10000000
00000000
01100000
00000000
,
01000000
00000000
00010000
10000000
,
00010000
00000000
10010000
00000000
,
10010000
00000000
00100000
01000000
,
00100000
00000000
00011000
00000000
,
00011000
00000000
00001000
00010000
,
00001000
00000000
00010000
00000001
,
00010000
00000001
00000010
00000001
,
00010000
00000100
00000010
00000000
,
00001001
00000000
00000001
00001000
,
00000001
00000000
00000100
00000010
,
00000100
00000010
00000100
00000010
,
00010000
00001000
00010000
00000000
,
00011000
00000000
00001000
00010000
,
00001000
00000000
00020000
00000000
,
00000000
00000000
00032000
00000000
,
00000000
00000000
00023000
00000000
,
00031000
00010000
00001000
00010000
,
00001000
00000000
02000000
00000000
,
00000000
00000000
03200000
00000000
,
00000000
00000000
02300000
00000000
,
00000000
00000000
03100000
01000000
,
00100000
00000000
10010000
00000000
,
10000000
00000000
01000000
00000000
,
00100000
00000000
00001000
00000000
,
00010000
00000000
00001000
01000000
,
00001000
00000000
00010000
00000000
,
00001000
00000000
00010000
00000100
,
00010000
00000000
00000001
00000000
,
00000100
00000000
00000000
00000000
,
00000000
00000000
00000000
00000110
,
00000000
00000000
00000000
00000100
,
00000000
00000000
00000000
00000100
,
00000000
00000000
00000000
00000100
,
00000000
00000000
00000000
00000100
,
00000000
00000010
00000000
00000100
,
00000000
00000010
00000000
00001000
,
00000001
00001000
00000001
00002000
,
00000000
00000000
00000000
00003001
,
00000000
00001000
00000000
00000100
,
00010000
00000100
00000000
00010000
,
00000000
00001000
00000000
00100000
,
01000000
00100000
00000000
00010000
,
00000000
10000000
00000000
00010000
,
00100000
00010000
00000000
10000000
,
00000000
00010000
00000000
10000000
,
00100000
10000000
00000000
01000000
,
00000000
00100000
00000000
00001000
,
00000000
00010000
00001000
00010000
,
00000010
00000000
00000010
00000000
,
00000010
00000100
00000010
00001000
,
00000000
00000100
00000000
00000010
,
00000000
00000001
00010000
00000100
,
00010000
00000000
00010000
00002000
,
00000000
00000000
00013000
00000000
;

//---------------dance-double - ----------------
#NOTES:
     dance-double:
     :
     Medium:
     10:
     0.431,0.501,0.185,0.134,0.000:
10010000
10000000
10000000
10000000
,
00100000
00100000
00100000
00100000
,
10000000
00100000
01000000
00010000
,
01000000
00001000
01000000
00001000
01000000
00000000
00000000
00000000
,
02200000
00000000
00000000
03300000
20000000
00000000
00000000
00000000
,
32000000
00000000
13000000
00010000
,
00100000
00010000
00200000
00000000
,
00302000
00000000
00013000
00000100
,
00001000
00000000
00000000
00000000
00001001
00000000
00001000
00000100
,
00000000
00001000
00000100
00000000
00000000
00001000
00000001
00001000
,
00000001
00000010
00000000
00000000
00000001
00000000
00010000
00000100
,
00000000
00010000
00000100
00000000
00000000
00001000
00000010
00001000
,
00000010
00000100
00000000
00000000
00000001
00010000
00001000
00010000
,
00000000
00010000
00000000
00001000
00000000
00010000
00000000
00000010
,
00000000
00000100
00000010
00000000
00001000
00000001
00000100
00000001
,
00000000
00000001
00000000
00001000
00000000
00000100
00000000
00001000
,
00000000
00000100
00010000
00000000
00001000
01000000
00001000
01000000
,
00001000
01000000
00001000
00000000
01000000
00100000
01000000
00100000
,
01000000
00100000
01000000
00000000
00010000
10000000
00010000
10000000
,
00010000
10000000
00010000
00000000
20000000
00000000
00000000
00000000
,
00000000
30010000
10000000
00010000
,
10000000
00001000
00010000
00001000
,
00010000
00000010
00000100
00000010
,
00000100
00000001
00000010
00000001
,
00000010
00000001
00001000
00001000
,
00000100
00000100
00010000
00010000
,
00001000
00000000
00001000
00000000
00010000
00001000
00010000
00001000
,
00010000
00001000
00010000
00001000
00020000
00000000
00000000
00000000
,
00000000
00000000
00000000
00000000
00031000
00000000
01000000
00100000
,
00000000
01000000
00010000
00100000
01000000
00000000
00100000
00000000
,
00010000
00000000
00000000
00000000
10000000
00000000
00010000
01000000
,
00010000
00000000
10000000
00000000
01000000
00000000
10000000
00010000
,
01000000
00000000
00000000
00000000
00001000
00000000
00010000
00001000
,
00000000
00010000
00000010
00000100
00000001
00000000
00000100
00000000
,
00000010
00000000
00000000
00000000
00000100
00000000
00000001
00001000
,
00000001
00000000
00000100
00000000
00000010
00000000
00001000
00000001
,
00000010
00000000
00000220
00000000
,
00000000
00000000
00000000
00000330
,
00001000
00000001
00000010
00000100
00001000
00000000
00001100
00000000
,
00000000
00000000
00000110
00000000
00000000
00000001
00000100
00000010
,
00010000
00011000
02200000
00000000
,
00000000
00000000
00000000
03300000
,
00010000
10000000
00100000
01000000
00010000
00000000
01010000
00000000
,
00000000
00000000
01100000
00000000
00000000
10000000
01000000
00100000
,
00001000
00011000
00010000
00010000
,
00010000
00010000
00000100
00000100
,
00000100
00000100
00001000
00001000
,
00001000
00001000
00000001
00000001
,
00000100
00000000
00000100
00000000
00000001
00001000
00000001
00000000
,
00001000
00000001
00001000
00000000
00000001
00001000
00000001
00000000
,
00001000
00000001
00001000
00000000
00000100
00010000
00000100
00010000
,
00000100
00010000
00000100
00010000
00000100
00000000
00010100
00000000
,
00010100
00000000
00000000
00000000
00000100
00001000
00000010
00000000
,
00001000
00000010
00001000
00000010
00001000
00000000
00000001
00000000
,
00000010
00000000
00000100
00000000
00010000
00001000
00100000
00000000
,
00001000
00100000
00001000
00000000
00100000
01000000
10000000
00100000
,
10000000
00100000
10000000
00000000
00010000
10000000
00010000
00000000
,
00100000
00001000
00100000
00000000
00001000
00010000
00001000
00010000
,
00000100
00000010
00000001
00000100
00000000
00000001
00000010
00000100
,
00010000
00001000
00010000
00002000
00000000
00000000
00000000
00000000
,
00000000
00000000
00003000
01100000
,
00100000
00100000
00100000
00100000
,
00100000
00100000
00100000
01000000
,
01000000
01000000
01000000
01000000
,
00100000
00100000
00100000
01100000
,
00100000
01000000
00100000
01000000
,
00100000
00000000
01000000
00000000
00100000
00000000
10000000
00010000
,
10000000
00010000
10000000
00010000
10000000
00010000
20000000
00000000
,
00000000
00000000
30000000
10010000
,
00100000
01000000
00000000
00100000
01000000
00010000
00100000
00000000
,
01000000
10000000
00000000
00001000
,
01000000
00100000
01000000
00000000
00001000
00000000
00010000
00000000
,
00000010
00000100
00000000
00000000
00000000
00000000
00001001
00000000
,
00000010
00000001
00000000
00000010
00000001
00001000
00000100
00000000
,
00010000
00001000
00000000
00100000
,
00001000
00010000
00001000
00000000
00100000
00000000
00010000
00000000
,
00100000
01000000
00000000
00000000
00000000
00000000
02200000
00000000
,
00000000
00000000
00000000
00000000
,
03300000
00000000
00010000
00100000
01000000
10000000
01000000
00000000
,
11000000
00000000
00000000
00000000
01100000
00000000
00000000
10000000
,
00100000
01000000
00001000
00000000
00011000
00000000
00000220
00000000
,
00000000
00000000
00000000
00000000
,
00000330
00000000
00000001
00001000
00000100
00000010
00000001
00000000
,
00000011
00000000
00000000
00000000
00000110
00000000
00000000
00000001
,
00000100
00000010
00010000
00000000
00011000
00000000
00000000
00000000
;

//---------------dance-double - ----------------
#NOTES:
     dance-double:
     :
     Hard:
     13:
     0.573,0.565,0.282,0.282,0.078:
10010000
00000000
00010000
00100000
00010000
00000000
00110000
00000000
,
00001000
00100000
00001000
00100000
00001000
00000000
00101000
00000000
,
00010000
00000100
00010000
00000100
00010000
00000000
00010100
00000000
,
00010000
00000000
00000100
00000000
00000010
00000000
00000001
00000000
00000010
00000000
00000100
00000000
00010000
00000100
00010000
00000100
,
00020000
00000000
00000000
00030000
00010001
00000000
00000001
00000010
,
00000001
00000000
00000100
00000000
00000020
00000000
00000000
00000130
,
00000010
00000000
00010000
00000000
00010100
00000000
00000100
00000010
,
00000100
00000000
00001000
00000000
00000002
00000000
00000000
00000013
,
00000100
00000000
00001000
00000000
00000001
00000000
00001000
00000100
,
00000000
00000100
00010000
00000100
00000000
00010000
00000001
00000010
,
00000100
00001000
00000000
00000000
00000100
00000000
00010000
00001000
,
00000000
00001000
10000000
00001000
00000000
10000000
00010000
00100000
,
01000000
10000000
00001000
00000000
00100000
00020000
00000000
00000000
,
00130000
00000000
00110000
00000000
01000000
00100000
10000000
01000000
,
00000000
10000000
00010000
00100000
10000000
00100000
00010000
10000000
,
00000000
10010000
00000000
00010000
01000000
10000000
01000000
00010000
,
00000000
10010000
00000000
10000000
01000000
00100000
00001000
00010000
,
00010000
00000010
00000010
00000000
00001000
00000001
00000010
00000100
,
00000100
00010000
00010000
00001000
00100000
01000000
10000000
00001000
,
00010000
00001000
00001000
02000000
00000000
00000000
00000000
00000000
,
00000000
00000000
03100000
01000000
00100000
00000000
00000000
00000000
10010000
00000000
00000000
00000000
00010000
00000000
00000000
00000000
,
00010000
00110000
00010000
10010000
,
00010000
00100000
00001000
00000000
00001000
00000000
00001000
00000000
,
00001000
00011000
00001000
00001010
,
00001000
00000001
00000010
00000001
00000010
00000000
00000001
00001000
,
00000001
00000000
00010000
00000100
00010000
00000000
00000001
00001000
,
00000001
00000000
00010000
00000100
00010000
00000001
00010000
00000001
,
00010000
00000001
00000100
00000010
00020000
00000000
00000000
00000000
,
00000000
00000000
00031000
00010000
00001000
00000000
00000000
00000000
01001000
00000000
00000000
00000000
01000000
00000000
00100000
00000000
,
00000000
00100000
10000000
00010000
00200000
00000000
02300000
00000000
,
23000000
00000000
30010000
00000000
01100000
00000000
00100000
01000000
,
00010000
00100000
00010000
00000000
10000000
00000000
00001000
00010000
,
00002000
00000000
00000000
00000000
00013000
00000000
00001000
00010000
,
00000000
00010000
00000001
00000010
00000200
00000000
00000320
00000000
,
00000032
00000000
00001003
00000000
00000110
00000000
00000010
00010000
,
00001000
00010000
00000010
00000000
00000100
00000000
00000001
00010000
,
00001000
00000000
00010000
00001000
00010000
00000000
00001000
01000000
00002000
00000000
00000000
00000000
00000000
00000000
00000000
00000000
,
01000000
00000000
01000000
00000000
,
01003000
00001000
00100000
01000000
10000000
00000000
22000000
00000000
,
33000000
00000000
00220000
00000000
00330000
00010000
10000000
01000000
,
00100000
00011000
00020100
00000000
,
00000100
00000000
00000100
00000000
,
00030100
00010000
00000100
00000010
00000001
00000000
00000022
00000000
,
00000033
00000000
00002200
00000000
00003300
00000100
00001000
00000010
,
00000100
00000110
00001001
00000001
,
00000001
00001001
00001000
00001100
,
00001000
00000100
00010000
00000000
00010000
00000000
00010000
00000000
,
00010000
00011000
00001000
00001000
,
00001000
00100000
01000000
00000000
10000000
00100000
10000000
00000000
,
00001000
10000000
00001000
00000000
10000000
00100000
10000000
00000000
,
00001000
00000000
10000000
00000000
00001000
00000000
00000000
00000000
00100000
00000000
01000000
00000000
10000000
00000000
00010000
00100000
,
00010000
10000000
01000000
00100000
00001000
00100000
00001000
00100000
,
00001000
00010000
00001000
00000000
00010000
00000100
00000010
00000000
,
00000001
00000010
00001000
00000010
00000001
00000001
00001000
00001000
,
00000010
00000000
00010000
00000010
00010000
00000000
00000000
00000000
00001000
00000000
00100000
00000000
01000000
00000000
00000000
00000000
,
10000000
00100000
00010000
00100000
10000000
00010000
00010000
00100000
,
01000000
00000000
10000000
00010000
10000000
00000000
00000000
00000000
00100000
00000000
01000000
00000000
00001000
00000000
00000000
00000000
,
00010000
00000100
00000010
00000001
00000000
00000001
00000100
00000010
,
00001000
00000000
00000100
00001000
00000100
00000000
00001000
00000000
00000000
00000000
00000100
00000000
00010000
00000000
00001000
00000000
,
01000000
00000000
00100000
01000000
00100000
00000000
02000000
00000000
00000000
00000000
00000000
00000000
00000000
00000000
00000000
00000000
,
00000000
00000000
03000000
10100000
,
10000000
10000000
10001000
00001000
,
01001000
00000000
00001000
00010000
00000100
00000000
00010100
00000000
,
00010000
00010000
00010001
00000001
,
00000001
00000000
00000001
00000010
00000100
00000000
00010000
00000100
,
00010000
00000000
00000001
00001000
00000001
00000000
00010000
00000100
,
00010000
00000000
00000001
00001000
00000001
00000000
00010000
00000100
,
00001000
00000000
00000100
00001000
00000100
00000000
00001000
00000000
00000001
00000000
00000010
00000000
00000200
00000000
00000000
00000000
,
00000000
00000000
00000000
00000000
00000000
00000000
00001300
00000001
00001000
00000000
00000000
00000000
00001001
00000000
00000000
00000000
,
00001000
00000010
00000000
00000010
00001000
00000100
00002000
00000000
,
00003020
00020030
00031000
00011000
,
00001000
01000000
00100000
00000000
00100000
00000000
10000000
00100000
,
01000000
00001000
00020000
00000000
00000000
00000000
00031000
00000000
,
00010000
00001000
00000000
00001000
01000000
00100000
20000000
00000000
,
30200000
02300000
03001000
00010000
,
00010000
00000100
00001000
00000000
00001100
00000000
00001000
00000001
,
00000010
00000000
00000100
00000000
00001000
00000000
00000001
00000100
00000001
00000000
00010000
00000100
00020000
00000000
00000000
00000000
,
00000000
00000100
00000000
00000100
,
00000000
00000000
00000000
00000000
00030100
00000000
00010000
00000000
00000100
00000000
00000010
00000000
00000001
00000000
00000100
00000010
,
00000200
00000000
00000000
00000000
00000300
00000000
00000010
00010000
00000020
00000000
00000000
00000000
00000030
00000000
00001000
00000000
,
00000001
00000010
00000100
00000000
00011000
00000000
01002000
00000000
,
00000000
01000000
00000000
01000000
,
00000000
00000000
00000000
00000000
01003000
00000000
00001000
00000000
00100000
00000000
01000000
00000000
10000000
00000000
00010000
00100000
,
00020000
00000000
00000000
00000000
00030000
00000000
01000000
00100000
02000000
00000000
00000000
00000000
03000000
00000000
00010000
00000000
,
10000000
00000000
01000000
00000000
00100000
00000000
00001000
00010000
00001000
00000000
00010000
00001000
00000000
00000000
00000000
00000000
;

//---------------dance-single - ----------------
#NOTES:
     dance-single:
     :
     Beginner:
     2:
     0.081,0.125,0.082,0.000,0.000:
0001
0000
0000
0000
,
0001
0000
0000
0000
,
0001
0000
0000
0000
,
0001
0000
0000
0000
,
1000
0000
1001
0000
,
0000
0000
0000
0000
,
0000
0000
0010
0000
,
0000
0000
0000
0000
,
0000
0000
0100
0000
,
0000
0000
0000
0000
,
0000
0000
0010
0000
,
0000
0000
0000
0000
,
0000
0000
1000
0000
,
0000
0000
0000
0000
,
0000
0000
0001
0000
,
0000
0000
0010
0000
,
0000
0000
0001
0000
,
0000
0000
0000
0000
,
0000
0000
1000
0000
,
0000
0000
0000
0000
,
0000
0000
1001
0000
,
0000
0000
0000
0000
,
0000
0000
0001
0000
,
0000
0000
0000
0000
,
0000
0000
1000
0000
,
0001
0000
1000
0000
,
0001
0000
1000
0000
,
0000
0000
1000
0000
,
0000
0000
1001
0000
,
0000
0000
0000
0000
,
0000
0000
0100
0000
,
0000
0000
0000
0000
,
0000
0000
0010
0000
,
0000
0000
0000
0000
,
0000
0000
0001
0000
,
0000
0000
0000
0000
,
0000
0000
0110
0000
,
0000
0000
0000
0000
,
0000
0000
0000
0010
,
0000
0000
0000
0000
,
0000
0000
0110
0000
,
0000
0000
0000
0000
,
0000
0000
0000
0100
,
0000
0000
0000
0000
,
0000
0000
1001
0000
,
0000
0000
0000
0000
,
0000
0000
0001
0000
,
0000
0000
0000
0000
,
0000
0000
0010
0000
,
0000
0000
0001
0000
,
0000
0000
0010
0000
,
0000
0000
0001
0000
,
0000
0000
1001
0000
,
0000
0000
0000
0000
,
0000
0000
1000
0000
,
0000
0000
0000
0000
,
0000
0000
0010
0000
,
0000
0000
0000
0000
,
0000
0000
0100
0000
,
0000
0000
0000
0000
,
0000
0000
0000
0010
,
0000
0000
0000
0000
,
0000
0000
0000
0010
,
0000
0000
0000
0000
,
0000
0000
0000
0110
,
0000
0100
0000
0010
,
0000
0100
0000
0010
,
0000
0100
0000
0000
,
0000
0000
0000
1001
,
0000
0000
0000
1000
,
0000
0001
0000
1000
,
0000
0000
0000
0001
,
0000
0010
0000
0001
,
0000
0000
0000
0100
,
0000
0010
0000
0100
,
0000
0000
0000
0001
,
0000
1000
0000
1001
,
0000
0000
0000
0000
,
0000
0000
0000
0000
,
0001
0000
0000
0000
,
0000
0000
0000
1001
,
0000
0000
0000
0000
,
0000
0000
0000
0000
,
1000
0000
0000
0000
,
0000
0000
0010
0000
;
