#TITLE:PHANTOM;
#SUBTITLE:;
#ARTIST:BANYA;
#TITLETRANSLIT:;
#SUBTITLETRANSLIT:;
#ARTISTTRANSLIT:;
#CREDIT:DigiMindAxel;
#BANNER:PHANTOM.png;
#BACKGROUND:PHANTOM-bg.png;
#LYRICSPATH:;
#CDTITLE:PUMP IT UP.png;
#MUSIC:PHANTOM.ogg;
#METERTYPE:DDR X;
#OFFSET:-3.586;
#SAMPLESTART:42.228;
#SAMPLELENGTH:12.000;
#SELECTABLE:YES;
#BPMS:0.000=136.000;
#STOPS:;
#BGCHANGES:-8.000=PHANTOM.avi=1.000=1=1=0,
99999=-nosongbg-=1.000=0=0=0 // don't automatically add -songbackground-
;

//---------------dance-single - ----------------
#NOTES:
     dance-single:
     :
     Easy:
     5:
     0.228,0.281,0.143,0.215,0.000:
0000
0000
0000
0000
,
0000
0000
0000
0000
,
1001
0001
1000
0000
,
0010
0000
0100
0000
,
0001
1000
0001
0000
,
0100
0000
0010
0000
,
1000
0001
1000
0000
,
0100
0000
0010
0000
,
0001
1000
0001
0000
,
0010
0000
0100
0000
,
2000
0000
0000
0000
,
3002
0000
0000
0000
,
0023
0000
0000
0000
,
0031
0000
1001
0000
,
2000
0000
0000
0000
,
3200
0000
0000
0000
,
2300
0000
0000
0000
,
3010
0000
0110
0000
,
0100
0010
0100
0000
,
0001
1000
0001
1000
,
0010
0100
0010
0000
,
1000
0001
1000
0010
,
0100
0010
1000
0000
,
0001
0010
0100
0010
,
0100
1000
0001
0000
,
1000
0001
0010
0100
,
0220
0000
0000
0330
,
2002
0000
0000
3003
,
0220
0000
0000
0330
,
2002
0000
0000
3003
,
0110
0100
0100
0100
,
0110
0010
0010
0010
,
1000
0001
1000
0001
,
2002
0000
0000
3003
,
0010
0000
0000
0000
,
0100
0000
0000
0000
,
0010
0000
0000
0000
,
1000
0000
0000
0000
,
0001
0010
0100
1000
,
0001
1000
0002
0000
,
1003
0100
0010
0001
,
1000
0001
2000
0000
,
3001
0010
0100
1000
,
0010
0100
0002
0000
,
1003
0010
0100
0001
,
1000
0010
0200
0000
,
0310
0110
0000
1001
,
0000
1001
0200
0000
,
0310
0100
0001
1000
,
0001
0010
0100
1000
,
0110
0000
0000
0000
;

//---------------dance-single - ----------------
#NOTES:
     dance-single:
     :
     Hard:
     10:
     0.518,0.625,0.552,0.266,0.107:
0002
0000
0000
0003
,
2000
0000
0000
3000
,
0002
0000
0203
0000
0301
0010
0100
0000
,
2000
0000
3200
0000
1300
0100
0010
0000
,
0002
0000
0203
0000
0301
0100
1000
0000
,
0200
0000
0302
0000
1003
0100
0010
0100
,
1000
1100
0011
0100
,
0110
0000
1001
0000
1000
0010
0100
0001
,
1001
0011
1100
0010
,
0110
0000
1001
0000
0001
0100
0010
1000
,
0001
0000
0001
0000
0001
0000
0000
0101
0000
0000
0000
0000
0100
0000
0010
0000
,
1000
0000
1000
0000
1000
0000
0000
1010
0000
0000
1000
0000
0001
0000
0010
0000
,
0100
1100
0100
0101
,
0010
1010
0010
0011
,
0001
0000
0001
0000
0001
0000
0000
0011
0000
0000
0000
0000
0010
0000
0100
0000
,
1000
0000
1000
0000
1000
0000
0000
1100
0000
0000
1000
0000
0001
0000
0010
0000
,
0100
0101
0100
1100
,
0010
0011
0010
1010
,
0011
0000
1100
0000
0010
0001
1000
0000
,
1010
0101
1001
1001
,
0101
0000
1010
0000
0010
1000
0001
0000
,
0011
1100
1001
1001
,
0001
0010
1000
0010
0001
0000
0011
0000
,
1000
0100
0001
0100
1000
0000
1100
0000
,
0001
0100
1000
0100
0001
0000
0101
0000
,
1000
0010
0001
0010
1000
0000
1010
0000
,
1000
0000
0010
0000
0200
0000
0000
0001
0000
0000
0301
0000
1100
0000
0000
0000
,
0010
0000
0001
0000
0200
0000
0000
0010
0000
0000
0310
0000
1000
0000
1000
0000
,
0001
0000
0100
0000
0020
0000
0000
1000
0000
0000
1030
0000
0011
0000
0000
0000
,
0100
0000
1000
0000
0020
0000
0000
0100
0000
0000
0130
0000
0001
0000
1000
0000
,
0001
0001
0100
0100
1000
1000
0100
0100
,
0001
0001
0010
0100
1000
0100
0010
0001
,
1000
0000
0100
0000
0020
0000
0000
0001
0000
0000
0031
0000
0110
0000
0000
0000
,
2002
0000
0000
3003
,
0200
0000
0320
0000
,
0230
0000
0302
0000
,
2003
0000
3002
0000
,
2003
0000
0000
3000
,
0001
0100
0101
0000
0010
0100
0110
0000
,
0001
0000
0100
0000
0010
0000
1000
0000
0001
0000
0000
0001
0000
0000
0001
0000
,
1000
0100
1100
0000
0100
0010
0110
0000
,
1000
0000
0100
0000
0011
0000
0001
0000
1000
0000
0000
1000
0000
0000
1000
0000
,
0001
0010
0110
0000
0100
0001
0011
0000
,
0001
0000
0010
0000
1100
0000
1000
0000
0001
0000
0000
0001
0000
0000
0001
0000
,
1000
0100
0001
0100
1000
0010
0001
0010
,
1000
0000
0100
0000
0010
0000
0001
0000
0101
0000
0000
0110
0000
0000
1001
0000
,
0001
0010
1000
0010
0001
0100
1000
0100
,
0001
0010
0100
1000
0010
0100
0101
0000
,
0010
1000
0010
1000
0010
0000
0000
0000
0100
0010
0100
0010
0100
0000
0000
0000
,
0001
0100
0001
0100
0001
0000
1000
0000
0100
0010
0100
0000
1000
0001
1000
0000
,
0220
0000
0000
0000
,
0330
0000
0000
0000
;

//---------------dance-single - ----------------
#NOTES:
     dance-single:
     :
     Challenge:
     13:
     0.652,0.860,0.449,0.123,0.623:
2000
0000
0000
3000
,
0002
0000
0000
0003
,
1000
0000
0000
0000
0010
0000
0000
0010
0100
0000
0001
0000
1000
0000
0000
0000
,
0100
0000
0000
0000
0010
0000
0000
0010
0100
0000
1000
0000
0001
0000
0000
0000
,
1001
0000
0000
0000
0100
0000
0000
0100
0010
0000
1000
0000
0001
0000
0000
0000
,
0010
0000
0000
0000
0100
0000
0000
0100
0010
0000
0001
0000
1000
0000
0010
0000
,
0110
0000
0000
0000
0101
0000
0000
0001
1000
0000
0010
0000
0100
0000
0000
0000
,
0110
0000
0000
0000
1010
0000
0000
1000
0001
0000
0100
0000
0010
0000
1000
0000
,
1001
0000
0000
0000
0110
0000
0000
0010
0100
0000
0001
0000
0010
0000
0100
0000
,
1000
0000
0000
0000
1001
0000
0000
1000
0001
0000
1000
0000
0010
0000
0100
0000
,
0001
0000
0001
0000
1000
0100
0000
1000
0000
0000
0010
0000
0110
0000
0000
0000
,
1000
0000
1000
0000
0010
0100
0000
0001
0000
0000
0010
0000
0100
0000
1000
0000
,
0001
0000
0001
0000
1000
0010
0000
1000
0000
0000
0010
0000
0110
0000
0000
0000
,
0101
0000
0110
0000
1010
0010
0110
0000
,
0010
0000
0100
0000
1000
0010
0000
0100
0000
0000
0001
0000
1001
0000
0000
0000
,
0100
0000
0010
0000
0001
0100
0000
0010
0000
0000
1000
0000
0100
0000
0010
0000
,
0001
0000
0001
0000
0100
0001
0000
0010
0000
0000
0100
0000
0110
0000
0000
0000
,
1100
0000
0110
0000
0011
0010
0110
0000
,
1001
0000
0000
0001
0100
0000
0000
0100
0001
0000
0010
0000
0100
0000
1000
0000
,
0010
0000
0000
0010
1000
0000
0000
1000
0100
0000
0000
0100
0010
0000
0000
0000
,
1001
0000
0000
0001
0100
0000
0000
0100
0010
0000
1000
0000
0100
0000
0010
0000
,
0001
0000
0000
0001
0010
0000
0000
0010
0100
0000
0000
0100
1000
0000
0000
0000
,
1001
0000
0000
1000
0010
0000
0000
0010
0100
0000
0001
0000
0010
0000
0100
0000
,
1000
0000
0000
1000
0001
0000
0000
0001
0010
0000
0000
0010
0100
0000
0000
0000
,
1001
0000
0000
0001
0010
0000
0000
0010
0100
0000
1000
0000
0010
0000
0100
0000
,
0010
0000
0000
0010
1000
0000
0000
1000
0001
0000
0000
0001
0100
0000
0000
0000
,
0001
0000
0100
0000
1000
0100
0000
0001
0000
0000
0110
0000
0110
0000
0000
0000
,
1000
0000
0100
0000
0001
0100
0000
1000
0000
0000
0110
0000
0010
0000
1000
0000
,
0001
0000
0010
0000
1000
0010
0000
0001
0000
0000
0110
0000
0110
0000
0000
0000
,
1000
0000
0010
0000
0001
0010
0000
1000
0000
0000
0110
0000
0010
0000
1000
0000
,
0001
0010
0001
0010
0001
0010
0100
0000
1000
0100
1000
0100
1000
0100
0010
0000
,
0001
0100
0001
0100
0001
0100
0010
0000
1000
0010
1000
0010
1000
0010
0100
0000
,
0001
0000
0100
0000
1000
0100
0000
0001
0000
0000
0110
0000
0100
0010
0100
0000
,
2002
0000
0000
3003
,
2000
0000
3200
0000
,
0302
0000
0203
0000
,
0320
0000
0032
0000
,
2000
0000
0000
3003
,
0001
0100
0001
0100
0001
0000
1000
0000
0100
1000
0100
1000
0100
0000
0010
0000
,
0001
1000
0001
1000
0001
0000
0100
0000
0110
0000
0000
0110
0000
0000
0110
0000
,
1000
0100
1000
0100
1000
0000
0001
0000
0100
0001
0100
0001
0100
0000
0001
0000
,
1000
0001
1000
0001
1000
0000
0010
0000
0110
0000
0000
0110
0000
0000
0110
0000
,
0001
0100
0010
0100
0001
0000
1000
0000
0100
1000
0100
1000
0100
0000
0010
0000
,
0100
1000
0001
1000
0100
0000
0010
0000
0110
0000
0000
1001
0000
0000
0110
0000
,
1000
0010
0100
0010
1000
0000
0001
0000
0010
0001
0010
0001
0010
0000
0100
0000
,
0010
0001
1000
0001
0010
0000
0100
0000
0110
0000
0000
1001
0000
0000
0110
0000
,
0100
0001
0100
0001
1000
0100
1000
0100
1000
0001
1000
0001
0100
0010
0100
0010
,
0100
0001
0100
0001
1000
0100
1000
0100
1000
0001
1000
0001
0100
0010
0100
0000
,
0010
0100
0010
0100
0010
1000
0100
1000
0100
0010
0001
0010
0001
0100
0001
0100
,
0010
1000
0010
1000
0100
0010
0100
0010
0001
1000
0001
1000
0001
1000
0100
0010
,
0002
0000
0000
0000
,
0003
0000
0000
0000
;

//---------------dance-single - ----------------
#NOTES:
     dance-single:
     :
     Medium:
     8:
     0.390,0.417,0.409,0.123,0.066:
0000
0000
0000
0000
,
0000
0000
0000
0000
,
1001
0100
0010
0001
,
1000
0001
0100
0000
0010
1000
0001
0000
,
1001
0000
0010
0000
1000
0001
1000
0000
,
0010
0000
0100
0000
0001
1000
0001
0000
,
0110
0000
0100
0000
0001
0100
0001
0000
,
0010
0000
0100
0000
1000
0100
0010
0000
,
1001
0011
1100
0100
,
1010
0000
0101
0000
0010
0100
0010
1000
,
0001
1100
0011
1001
,
0100
1010
0101
1001
,
0110
0000
0000
0000
1000
0000
0000
1000
0000
0000
0000
0000
0110
0000
0000
0000
,
1001
1001
1001
1001
,
0110
0000
0000
0000
1000
0000
0000
1000
0000
0000
0000
0000
0110
0000
0000
0000
,
1001
0000
0000
0000
0001
0000
0000
0001
0000
0000
0000
0000
0110
0000
0000
0000
,
1001
0000
0000
0000
0100
0000
0000
0100
0000
0000
0000
0000
0110
0000
0000
0000
,
1001
1001
1001
1001
,
1001
0100
0010
0001
,
1000
1100
0011
1000
,
0001
0010
1000
0010
,
0001
0110
1000
0100
,
0001
0100
1000
0001
,
1001
0000
0100
0010
1000
0000
0100
0000
,
0011
0000
0100
1000
0010
0000
1000
0000
,
0101
0000
0010
0100
0001
0000
0010
0000
,
0001
0000
0100
0000
0020
0000
0000
1000
0000
0000
0000
0000
1030
0000
0000
0000
,
0001
0000
0010
0000
0200
0000
0000
0010
0000
0000
0000
0000
0310
0000
0000
0000
,
1000
0000
0100
0000
0020
0000
0000
0001
0000
0000
0000
0000
0031
0000
0000
0000
,
1000
0000
0010
0000
0200
0000
0000
0010
0000
0000
0000
0000
0310
0000
0000
0000
,
1000
0100
1000
0000
0100
0010
0100
0000
,
0010
0001
0010
0000
0100
0010
0100
0000
,
1001
0000
0000
0000
0100
0000
0000
0100
0000
0000
0100
0000
0010
0000
0000
0000
,
2002
0000
0000
3003
,
0020
0000
0000
0000
,
0230
0000
0000
0000
,
0320
0000
0000
0000
,
0230
0000
0000
0000
,
0301
0100
1000
0100
,
0001
0000
0000
0000
1000
0000
0000
0000
0001
0000
0000
0001
0000
0000
0001
0000
,
1000
0100
0001
0100
,
1000
0000
0000
0000
0001
0000
0000
0000
0100
0000
0000
0100
0000
0000
0100
0000
,
0010
1000
0100
0001
,
0100
0000
0000
0000
1000
0000
0000
0000
0001
0000
0000
0001
0000
0000
0001
0000
,
1000
0100
0010
0000
0001
0010
0100
0000
,
1000
0000
0001
0000
0100
0000
0000
0000
0010
0000
0000
0010
0000
0000
0010
0000
,
1000
0100
0010
0000
0001
1000
0010
0000
,
0100
0001
0100
0001
1000
0100
1000
0000
,
0100
1000
0010
0000
0100
0001
0010
0000
,
0001
1000
0001
1000
0010
0100
0010
0000
,
2002
0000
0000
0000
,
3003
0000
0000
0000
;

//---------------dance-single - ----------------
#NOTES:
     dance-single:
     :
     Beginner:
     2:
     0.089,0.153,0.102,0.000,0.000:
0000
0000
0000
0000
,
0000
0000
0000
0000
,
1000
0000
0000
0000
,
0001
0000
0000
0000
,
1000
0000
0000
0000
,
0010
0000
0000
0000
,
0100
0000
0000
0000
,
0001
0000
0000
0000
,
1000
0000
0000
0000
,
0001
0000
0000
0000
,
1001
0000
0000
0000
,
0000
0000
0000
0000
,
0100
0000
0000
0000
,
0000
0000
0000
0000
,
1001
0000
0000
0000
,
0000
0000
0000
0000
,
0010
0000
0000
0000
,
0000
0000
0000
0000
,
1000
0000
0000
0000
,
0100
0000
0000
0000
,
1000
0000
0000
0000
,
0001
0000
0000
0000
,
0010
0000
0000
0000
,
0001
0000
0000
0000
,
1000
0000
0000
0000
,
0001
0000
0000
0000
,
1001
0000
0000
0000
,
0100
0000
0000
0000
,
0010
0000
0000
0000
,
0100
0000
0000
0000
,
0010
0000
0010
0000
,
0100
0000
0100
0000
,
0001
0000
0000
0000
,
1001
0000
0000
0000
,
0000
0000
0000
0000
,
0000
0000
0000
0000
,
0000
0000
0000
0000
,
0000
0000
0000
0000
,
1001
0000
0001
0000
,
1000
0000
0000
0000
,
0110
0000
0100
0000
,
0010
0000
0000
0000
,
1001
0000
1000
0000
,
0001
0000
0000
0000
,
0110
0000
0010
0000
,
0100
0000
0000
0000
,
1001
0000
0001
0000
,
1000
0000
0001
0000
,
0100
0000
0010
0000
,
0100
0000
0010
0000
,
1001
0000
0000
0000
;

//---------------dance-double - ----------------
#NOTES:
     dance-double:
     :
     Easy:
     5:
     0.241,0.255,0.092,0.296,0.000:
00000000
00000000
00000000
00000000
,
00000000
00000000
00000000
00000000
,
10020000
00000000
20030000
00000000
,
31000000
00100000
01000000
00100000
,
02000000
00000000
23000000
00000000
,
30001000
00010000
00001000
00010000
,
00002000
00000000
00023000
00000000
,
00030010
00000100
00000010
00000100
,
00000020
00000000
00000230
00000000
,
00000301
00001000
00000001
00001000
,
00000002
00000000
00000000
00000000
,
00020003
00000000
00000000
00000000
,
00032000
00000000
00000000
00000000
,
00103000
00000000
01100000
00000000
,
20000000
00000000
00000000
00000000
,
32000000
00000000
00000000
00000000
,
03200000
00000000
00000000
00000000
,
00301000
00000000
00011000
00000000
,
00000010
00000100
00000010
00000000
,
00001000
00000001
00001000
00000001
,
00010000
00000010
00010000
00000000
,
00001000
00010000
00001000
00100000
,
01000000
00100000
01000000
00000000
,
10000000
00100000
01000000
00100000
,
01000000
00001000
00010000
00000000
,
00000100
00000010
00000001
00001000
,
00002002
00000000
00000000
00003003
,
00002002
00000000
00000000
00003003
,
00000220
00000000
00000000
00000330
,
00000220
00000000
00000000
00000330
,
00010000
00001000
00010000
00001000
,
00100000
01000000
00100000
01000000
,
10000000
00010000
10000000
00010000
,
20020000
00000000
00000000
30030000
,
00100000
00000000
00000000
00000000
,
01000000
00000000
00000000
00000000
,
00010000
00000000
00000000
00000000
,
00001000
00000000
00000000
00000000
,
00010000
00000100
00000010
00000001
,
00000010
00000100
00020000
00000000
,
00030001
00000100
00000010
00001000
,
00000010
00000100
00000002
00000000
,
00010003
00001000
00100000
01000000
,
10000000
00001000
00020000
00000000
,
00031000
01000000
00100000
10000000
,
00100000
01000000
00002000
00000000
,
00013000
00000001
00000010
00000100
,
00001000
00010000
02000000
00000000
,
03100000
10000000
00010000
00100000
,
00010000
00001000
00000100
00000010
,
00000110
00000000
00000000
00000000
;

//---------------dance-double - ----------------
#NOTES:
     dance-double:
     :
     Medium:
     9:
     0.432,0.443,0.409,0.184,0.046:
00000000
00000000
00000000
00000000
,
00000000
00000000
00000000
00000000
,
10010000
00000000
00010000
00000000
10000000
00100000
10000000
00000000
,
01000000
00100000
00010000
00000000
10000000
01000000
00100000
00000000
,
01100000
00000000
01000000
00000000
00001000
00010000
00001000
00000000
,
00010000
00000010
00000100
00000000
00000010
00000100
00000010
00000000
,
00001001
00000000
00001000
00000000
00000100
00001000
00000100
00000000
,
00001000
00010000
00100000
00000000
01000000
00100000
01000000
00000000
,
10010000
10100000
02020000
03030000
,
10010000
11000000
01001000
00011000
,
00001000
00010000
00000010
00000000
00000010
00000000
00000110
00000000
,
00000100
00000001
00000010
00000000
00000010
00000000
00000011
00000000
,
00000100
00000010
00010000
00000000
00010000
00000000
00011000
00000000
,
01001000
01001000
01100000
01100000
,
00100000
01000000
10000000
00000000
10000000
00000000
10010000
00000000
,
00010000
01000000
00001000
00000000
00001000
00000000
00011000
00000000
,
00000100
00000010
00000001
00000000
00000001
00000000
00001001
00000000
,
00000110
00000110
00010010
00010010
,
00011000
00000000
00001000
01000000
00200000
00000000
00000000
00000000
,
10300000
10010000
01001000
00011000
,
00010000
00000000
00000100
00000010
00000002
00000000
00000000
00000000
,
00000103
00000110
00010010
00011000
,
00001000
00000000
01000000
00100000
20000000
00000000
00000000
00000000
,
30010000
01100000
01001000
00011000
,
00010000
00000000
00000100
00000010
00000002
00000000
00000000
00000000
,
00000013
00000110
00010100
00011000
,
01000000
00000000
00100000
00000000
20000000
00000000
00000000
01000000
00000000
00000000
00000000
00000000
31000000
00000000
00000000
00000000
,
00100000
00000000
00001000
00000000
00020000
00000000
00000000
00001000
00000000
00000000
00000000
00000000
00031000
00000000
00000000
00000000
,
00010000
00000000
00000010
00000000
00000200
00000000
00000000
00000001
00000000
00000000
00000000
00000000
00000301
00000000
00000000
00000000
,
00001000
00000000
00000100
00000000
00000020
00000000
00000000
00000001
00000000
00000000
00000000
00000000
00000031
00000000
00000000
00000000
,
00000100
00000010
00000100
00000010
00010000
00000100
00010000
00000100
,
00010000
00001000
00010000
00001000
01000000
00100000
01000000
00000000
,
01100000
00000000
00000000
00000000
00010000
00000000
00000000
00010000
00000000
00000000
00010000
00000000
10000000
00000000
00000000
00000000
,
02200000
00000000
00000000
03300000
,
02000000
00000000
00000000
00000000
,
03002000
00000000
00000000
00000000
,
00023000
00000000
00000000
00000000
,
00030020
00000000
00000000
00000000
,
00001030
00000001
00000010
00000000
00000001
00000010
00000100
00000000
,
00010000
00000000
00001000
00000000
01000000
00000000
00000000
00000000
00100000
00000000
00000000
00100000
00000000
00000000
00100000
00000000
,
10000000
01000000
00100000
00000000
00001000
01000000
00010000
00000000
,
00100000
00000000
00010000
00000000
00001000
00000000
00000000
00000000
00000010
00000000
00000000
00000010
00000000
00000000
00000010
00000000
,
00000100
00000001
00000010
00000000
00000001
00000010
00000100
00000000
,
00000010
00000000
00000100
00000000
00010000
00000000
00000000
00000000
00001000
00000000
00000000
00001000
00000000
00000000
00001000
00000000
,
01000000
00100000
01000000
00100000
10000000
01000000
10000000
01000000
,
00100000
00000000
00001000
00000000
00100000
00000000
00001000
00000000
00010000
00000000
00000000
00010000
00000000
00000000
00010000
00000000
,
00000010
00000100
00000010
00000100
00000001
00000010
00000001
00000010
,
00000001
00000100
00000001
00000100
00000001
00010000
00000001
00010000
,
00001000
00100000
01000000
10000000
00010000
00100000
01000000
10000000
,
00001000
00010000
00000010
00000100
00000001
00010000
00000010
00000000
,
00000220
00000000
00000000
00000000
,
00000330
00000000
00000000
00000000
;

//---------------dance-double - ----------------
#NOTES:
     dance-double:
     :
     Hard:
     11:
     0.534,0.625,0.460,0.358,0.153: // measure 1
20000000
00000000
00000000
30000000
,  // measure 2
00020000
00000000
00000000
00030000
,  // measure 3
20010000
00000000
32000000
00000000
03100000
01000000
10000000
00000000
,  // measure 4
00200000
00000000
02300000
00000000
03100000
01000000
00001000
00000000
,  // measure 5
00020000
00000000
00030200
00000000
00000310
00000100
00010000
00000000
,  // measure 6
00000020
00000000
00000230
00000000
00000301
00001000
00000100
00000010
,  // measure 7
00000200
00000000
00020300
00000000
00031000
00100000
01000000
00000000
,  // measure 8
20000000
00000000
30200000
00000000
10300000
00100000
01000000
00001000
,  // measure 9
00020000
00000000
00030200
00000000
00000310
00000001
00000100
00000000
,  // measure 10
00000002
00000000
00000023
00000000
00000130
00001000
00010000
00100000
,  // measure 11
01000000
00000000
01000000
00000000
01000000
00000000
00000000
10100000
00000000
00000000
00000000
00000000
01000000
00000000
10000000
00000000
,  // measure 12
00001000
00000000
00001000
00000000
00001000
00000000
00000000
00101000
00000000
00000000
00010000
00000000
00000100
00000000
00000010
00000000
,  // measure 13
00000001
00000000
00000001
00000000
00000001
00000000
00000000
00000110
00000000
00000000
00000000
00000000
00010010
00000000
00000000
00000000
,  // measure 14
00011000
00011000
01100000
01100000
,  // measure 15
10000000
00000000
10000000
00000000
10000000
00000000
00000000
00110000
00000000
00000000
00000000
00000000
00100000
00000000
01000000
00000000
,  // measure 16
00001000
00000000
00001000
00000000
00001000
00000000
00000000
00010010
00000000
00000000
00000010
00000000
00000100
00000000
00000001
00000000
,  // measure 17
00000010
00000000
00000010
00000000
00000010
00000000
00000000
00010010
00000000
00000000
00000000
00000000
00011000
00000000
00000000
00000000
,  // measure 18
01100000
01100000
10100000
10100000
,  // measure 19
11000000
00000000
01100000
00000000
00100000
00001000
00010000
00000000
,  // measure 20
00001010
00000110
00000101
00001001
,  // measure 21
00000011
00000000
00000110
00000000
00000100
00001000
00010000
00000000
,  // measure 22
01010000
10100000
01100000
10010000
,  // measure 23
00010000
00100000
10000000
00100000
00020000
00000000
00000000
00000000
,  // measure 24
01030000
00001000
00010000
00000010
00000100
00000001
00000010
00000000
,  // measure 25
00000001
00000100
00001000
00000100
00000002
00000000
00000000
00000000
,  // measure 26
00000013
00000100
00010000
00001000
00100000
01000000
10000000
00000000
,  // measure 27
00010000
00000000
00010000
00000000
20000000
00000000
00000000
01000000
00000000
00000000
31000000
00000000
10001000
00000000
00000000
00000000
,  // measure 28
00010000
00000000
00010000
00000000
00000020
00000000
00000000
00000100
00000000
00000000
00000130
00000000
00000001
00000000
00001000
00000000
,  // measure 29
00000100
00000000
00000100
00000000
00020000
00000000
00000000
00001000
00000000
00000000
00031000
00000000
00101000
00000000
00000000
00000000
,  // measure 30
01000000
00000000
01000000
00000000
20000000
00000000
00000000
00010000
00000000
00000000
30010000
00000000
10000000
00000000
00001000
00000000
,  // measure 31
00010000
00000000
00010000
00000000
00000010
00000000
00000010
00000000
00000100
00000010
00000100
00000010
00000100
00000010
00000100
00000000
,  // measure 32
00000001
00000000
00000001
00000000
00000010
00000000
00000010
00000000
00000100
00010000
00000100
00010000
00000100
00010000
00000100
00000000
,  // measure 33
00010000
00000000
00001000
00000000
02000000
00000000
00000000
00100000
00000000
00000000
03100000
00000000
11000000
00000000
00000000
00000000
,  // measure 34
20020000
00000000
00000000
30030000
,  // measure 35
02000000
00000000
03200000
00000000
,  // measure 36
02300000
00000000
23000000
00000000
,  // measure 37
32000000
00000000
03200000
00000000
,  // measure 38
00302000
00000000
00000000
00000000
,  // measure 39
00013000
00000010
00000110
00000000
00000001
00000010
00000110
00000000
,  // measure 40
00001000
00000000
00000100
00000000
00000001
00000000
00000100
00000000
00010000
00000000
00000000
00010000
00000000
00000000
00010000
00000000
,  // measure 41
00001000
00100000
01100000
00000000
10000000
01000000
01100000
00000000
,  // measure 42
00010000
00000000
01000000
00000000
01001000
00000000
00001000
00000000
00010000
00000000
00000000
00010000
00000000
00000000
00010000
00000000
,  // measure 43
00000100
00000010
00000011
00000000
00000100
00010000
00011000
00000000
,  // measure 44
00100000
00000000
10000000
00000000
11000000
00000000
01000000
00000000
00100000
00000000
00000000
00100000
00000000
00000000
00100000
00000000
,  // measure 45
00010000
01000000
10000000
01000000
00001000
00010000
00000100
00000010
,  // measure 46
00000001
00000000
00000100
00000000
00001000
00000000
00000100
00000000
00000101
00000000
00000000
00010001
00000000
00000000
00011000
00000000
,  // measure 47
00001000
00100000
10000000
00100000
00010000
01000000
00001000
00010000
,  // measure 48
00000100
00000010
00000001
00001000
00000100
00010000
00011000
00000000
,  // measure 49
00100000
01000000
00100000
01000000
00100000
00000000
00000000
00000000
10000000
00100000
10000000
00100000
10000000
00000000
00000000
00000000
,  // measure 50
00001000
00010000
00001000
00010000
00001000
00000000
00010000
00000000
00000010
00000100
00000010
00000000
00001000
00000001
00001000
00000001
,  // measure 51
00020000
00000000
00000000
00000000
,  // measure 52
00030000
00000000
00000000
00000000
;

//---------------dance-double - ----------------
#NOTES:
     dance-double:
     :
     Challenge:
     14:
     0.660,0.860,0.470,0.123,0.623: // measure 1
20000000
00000000
00000000
30000000
,  // measure 2
00020000
00000000
00000000
00030000
,  // measure 3
10000000
00000000
00000000
00000000
01000000
00000000
00000000
01000000
00100000
00000000
00010000
00000000
00001000
00000000
00000000
00000000
,  // measure 4
00000010
00000000
00000000
00000000
00000100
00000000
00000000
00000100
00000001
00000000
00000010
00000000
00000100
00000000
00000000
00000000
,  // measure 5
00011000
00000000
00000000
00000000
00010000
00000000
00000000
00010000
00100000
00000000
01000000
00000000
10000000
00000000
00000000
00000000
,  // measure 6
00010000
00000000
00000000
00000000
01000000
00000000
00000000
01000000
00001000
00000000
00010000
00000000
00000010
00000000
00000100
00000000
,  // measure 7
00000110
00000000
00000000
00000000
00000101
00000000
00000000
00000001
00001000
00000000
00000100
00000000
00010000
00000000
00000000
00000000
,  // measure 8
00110000
00000000
00000000
00000000
01100000
00000000
00000000
01000000
10000000
00000000
00010000
00000000
00100000
00000000
00001000
00000000
,  // measure 9
00011000
00000000
00000000
00000000
00010010
00000000
00000000
00000010
00000100
00000000
00000001
00000000
00000010
00000000
00000100
00000000
,  // measure 10
00000010
00000000
00000000
00000000
00001001
00000000
00000000
00001000
00000001
00000000
00000010
00000000
00000100
00000000
00000010
00000000
,  // measure 11
00000001
00000000
00000001
00000000
00001000
00000010
00000000
00000010
00000000
00000000
00010000
00000000
00011000
00000000
00000000
00000000
,  // measure 12
10000000
00000000
10000000
00000000
00010000
00100000
00000000
00100000
00000000
00000000
00010000
00000000
00001000
00000000
00000100
00000000
,  // measure 13
00000010
00000000
00000010
00000000
00000001
00001000
00000000
00001000
00000000
00000000
00000010
00000000
00010010
00000000
00000000
00000000
,  // measure 14
00011000
01100000
11000000
10010000
,  // measure 15
10000000
00000000
10000000
00000000
00100000
01000000
00000000
01000000
00000000
00000000
00001000
00000000
00011000
00000000
00000000
00000000
,  // measure 16
00000010
00000000
00000010
00000000
00001000
00000001
00000000
00000001
00000000
00000000
00000010
00000000
00000100
00000000
00010000
00000000
,  // measure 17
00001000
00000000
00001000
00000000
01000000
00100000
00000000
00100000
00000000
00000000
10000000
00000000
11000000
00000000
00000000
00000000
,  // measure 18
10100000
01100000
01001000
00011000
,  // measure 19
00010001
00000000
00000000
00000001
00000010
00000000
00000000
00000010
00000100
00000000
00000010
00000000
00000001
00000000
00010000
00000000
,  // measure 20
00001000
00000000
00000000
00001000
01000000
00000000
00000000
01000000
10000000
00000000
00000000
10000000
01000000
00000000
00000000
00000000
,  // measure 21
01001000
00000000
00000000
00001000
00010000
00000000
00000000
00010000
00000100
00000000
00000010
00000000
00000001
00000000
00001000
00000000
,  // measure 22
00010000
00000000
00000000
00010000
00100000
00000000
00000000
00100000
10000000
00000000
00000000
10000000
00100000
00000000
00000000
00000000
,  // measure 23
00101000
00000000
00000000
00001000
00010000
00000000
00000000
00010000
00000010
00000000
00000100
00000000
00000001
00000000
00000010
00000000
,  // measure 24
00000100
00000000
00000000
00000100
00010000
00000000
00000000
00010000
00001000
00000000
00000000
00001000
01000000
00000000
00000000
00000000
,  // measure 25
01100000
00000000
00000000
00100000
10000000
00000000
00000000
10000000
00001000
00000000
00010000
00000000
00000100
00000000
00000010
00000000
,  // measure 26
00000100
00000000
00000000
00000100
00001000
00000000
00000000
00001000
00000001
00000000
00000000
00000001
00000010
00000000
00000000
00000000
,  // measure 27
00000001
00000000
00000001
00000000
00000100
00000010
00001000
00000100
00000000
00000000
00011000
00000000
00011000
00000000
00000000
00000000
,  // measure 28
00100000
00000000
00100000
00000000
01000000
10000000
00100000
01000000
00000000
00000000
00011000
00000000
00011000
00000000
00010000
00000000
,  // measure 29
00000010
00000000
00000010
00000000
00000100
00000001
00000100
00000010
00000000
00000000
00011000
00000000
00011000
00000000
00000000
00000000
,  // measure 30
01000000
00000000
01000000
00000000
00100000
10000000
00100000
01000000
00000000
00000000
00011000
00000000
00011000
00000000
00010000
00000000
,  // measure 31
00000010
00000100
00000010
00000100
00000010
00000100
00000001
00000000
00000010
00000100
00000010
00000100
00000010
00000100
00010000
00000000
,  // measure 32
00001000
00010000
00001000
00010000
00001000
00010000
00100000
00000000
01000000
10000000
01000000
10000000
01000000
10000000
00100000
00000000
,  // measure 33
10000000
00000000
10000000
00000000
00100000
01000000
00010000
00100000
00000000
00000000
00011000
00000000
00001000
00010000
00001000
00000000
,  // measure 34
00020002
00000000
00000000
00030003
,  // measure 35
00000002
00000000
00000023
00000000
,  // measure 36
00002030
00000000
00003020
00000000
,  // measure 37
00000032
00000000
00002003
00000000
,  // measure 38
00020000
00000000
00000000
00033000
,  // measure 39
01000000
00100000
01000000
00100000
01000000
00000000
00010000
00000000
10000000
01000000
10000000
01000000
10000000
00000000
00001000
00000000
,  // measure 40
00010000
00001000
00010000
00001000
00010000
00000000
00000010
00000000
00000110
00000000
00000000
00000110
00000000
00000000
00000110
00000000
,  // measure 41
00000001
00000010
00000001
00000010
00000001
00000000
00001000
00000000
00000010
00001000
00000010
00001000
00000010
00000000
00001000
00000000
,  // measure 42
00010000
00001000
00010000
00001000
00010000
00000000
00100000
00000000
01100000
00000000
00000000
01100000
00000000
00000000
01100000
00000000
,  // measure 43
00010000
01000000
00100000
01000000
00010000
00000000
10000000
00000000
01000000
10000000
01000000
10000000
01000000
00000000
00100000
00000000
,  // measure 44
00001000
00010000
00000100
00010000
00001000
00000000
00000100
00000000
00000110
00000000
00000000
00000101
00000000
00000000
00001001
00000000
,  // measure 45
00000001
00000100
00000010
00000100
00000001
00000000
00001000
00000000
00000100
00001000
00000100
00001000
00000100
00000000
00010000
00000000
,  // measure 46
00001000
00100000
00010000
00100000
00001000
00000000
01000000
00000000
01100000
00000000
00000000
11000000
00000000
00000000
01100000
00000000
,  // measure 47
01000000
00010000
01000000
00010000
10000000
01000000
10000000
01000000
10000000
00001000
10000000
00001000
00010000
00001000
00010000
00001000
,  // measure 48
00010000
00000010
00010000
00000010
00000100
00000010
00000100
00000010
00000100
00000010
00001000
00000100
00001000
00000100
00001000
00000000
,  // measure 49
00000001
00000010
00000001
00000010
00000001
00000100
00000010
00000100
00000010
00010000
00001000
00010000
00001000
01000000
00100000
01000000
,  // measure 50
00100000
10000000
01000000
10000000
01000000
00100000
00001000
00100000
00001000
01000000
00100000
10000000
00001000
01000000
00100000
10000000
,  // measure 51
00020000
00000000
00000000
00000000
,  // measure 52
00030000
00000000
00000000
00000000
;
