#TITLE:PARADISE;
#SUBTITLE:;
#ARTIST:玉置成実;
#TITLETRANSLIT:;
#SUBTITLETRANSLIT:;
#ARTISTTRANSLIT:NAMI TAMAKI;
#CREDIT:DigiMindAxel;
#BANNER:PARADISE.png;
#BACKGROUND:PARADISE-bg.png;
#LYRICSPATH:PARADISE.lrc;
#CDTITLE:DigiMindAxel original simfile.png;
#MUSIC:PARADISE.ogg;
#METERTYPE:DDR X;
#OFFSET:-8.229;
#SAMPLESTART:62.407;
#SAMPLELENGTH:12.000;
#SELECTABLE:YES;
#BPMS:0.000=124.000;
#STOPS:;
#BGCHANGES:-17.500=PARADISE.avi=1.000=1=1=0,
99999=-nosongbg-=1.000=0=0=0 // don't automatically add -songbackground-
;

//---------------dance-single - ----------------
#NOTES:
     dance-single:
     :
     Easy:
     3:
     0.182,0.207,0.020,0.140,0.000: // measure 1
0002
0000
2003
0000
,  // measure 2
3002
0000
2003
0000
,  // measure 3
3002
0000
2003
0000
,  // measure 4
3020
0000
0000
0000
,  // measure 5
1030
0000
1000
0000
,  // measure 6
1000
0000
1000
0000
,  // measure 7
0100
0000
0100
0000
,  // measure 8
0100
0000
0010
0000
,  // measure 9
0001
0000
0001
0000
,  // measure 10
0001
0000
0001
0000
,  // measure 11
0100
0000
0100
0000
,  // measure 12
0100
0000
0010
0000
,  // measure 13
1000
0000
1000
0000
,  // measure 14
1000
0000
1000
0000
,  // measure 15
0100
0000
0100
0000
,  // measure 16
0010
0000
0001
0000
,  // measure 17
1000
0000
1000
0000
,  // measure 18
1000
0000
1000
0000
,  // measure 19
0010
0000
0010
0000
,  // measure 20
0100
0000
0001
0000
,  // measure 21
0020
0000
0000
0000
,  // measure 22
0230
0000
0000
0000
,  // measure 23
0320
0000
0000
0000
,  // measure 24
0230
0000
0000
0000
,  // measure 25
0310
0001
0010
0000
,  // measure 26
0001
1000
0001
0000
,  // measure 27
1000
0010
1000
0000
,  // measure 28
0100
0000
0100
0000
,  // measure 29
0010
0010
0020
0000
,  // measure 30
0130
0000
0100
1000
,  // measure 31
0001
0100
0001
0100
,  // measure 32
0001
1000
0001
1000
,  // measure 33
0100
0100
0200
0000
,  // measure 34
1300
0001
1000
0001
,  // measure 35
0100
0001
0100
0001
,  // measure 36
1000
0100
1000
0100
,  // measure 37
0020
0000
0000
0000
,  // measure 38
0031
1000
0001
1000
,  // measure 39
0001
0000
0100
0000
,  // measure 40
0010
0100
0010
0100
,  // measure 41
0001
0000
0010
0000
,  // measure 42
0100
1000
0100
1000
,  // measure 43
0001
0000
0100
0000
,  // measure 44
0010
0100
0010
0100
,  // measure 45
0001
0000
0001
0000
,  // measure 46
1001
0000
0100
0000
,  // measure 47
0110
0000
0000
0000
;

//---------------dance-single - ----------------
#NOTES:
     dance-single:
     :
     Medium:
     6:
     0.339,0.392,0.311,0.160,0.000: // measure 1
1000
0000
1000
0000
,  // measure 2
0100
0000
0100
0000
,  // measure 3
1000
0000
1000
0000
,  // measure 4
0010
0000
0010
0000
,  // measure 5
0100
0001
0100
0001
,  // measure 6
0100
0001
0100
0001
,  // measure 7
1000
0100
1000
0100
,  // measure 8
1000
0100
1000
0100
,  // measure 9
0010
0100
0010
0100
,  // measure 10
0010
0100
0010
0100
,  // measure 11
1000
0010
1000
0010
,  // measure 12
1000
0001
1000
0001
,  // measure 13
0010
0001
0010
0001
,  // measure 14
0100
0010
0100
0010
,  // measure 15
1000
0100
1000
0100
,  // measure 16
1000
0001
1000
0001
,  // measure 17
0010
0100
0010
0100
,  // measure 18
1000
0010
1000
0010
,  // measure 19
0100
0010
0100
0010
,  // measure 20
1000
0100
0010
0001
,  // measure 21
2000
3200
0320
0230
,  // measure 22
2300
3020
0230
0320
,  // measure 23
1030
0002
0023
0230
,  // measure 24
2300
0002
0000
3003
,  // measure 25
1001
1000
1100
0010
,  // measure 26
1001
1000
1100
0010
,  // measure 27
1001
0001
0101
0010
,  // measure 28
1001
0000
1000
0001
1000
0000
0001
1000
,  // measure 29
0001
0100
0020
0000
,  // measure 30
0130
0001
0100
0000
0001
0000
1001
0000
,  // measure 31
1000
0100
1000
0000
0010
0000
0110
0000
,  // measure 32
0100
0010
0100
0000
0001
0000
0011
0000
,  // measure 33
0010
0100
0010
0000
0200
0000
0010
0000
,  // measure 34
0310
0000
1000
0100
1000
0000
0010
0000
,  // measure 35
0110
0000
0100
0001
0100
0000
1001
0000
,  // measure 36
0001
0010
0001
0000
0010
0000
0110
0000
,  // measure 37
0200
0000
1000
0000
1300
0000
0100
1000
,  // measure 38
0010
1010
1010
1010
,  // measure 39
1001
0000
0001
0000
1000
0000
0001
1000
,  // measure 40
0100
1100
1100
1100
,  // measure 41
1001
0000
0001
0000
1000
0001
0100
0000
,  // measure 42
0101
0101
0101
0101
,  // measure 43
1001
0000
0001
0000
1000
0001
0010
0000
,  // measure 44
0011
0011
0011
1001
,  // measure 45
1000
0100
0010
0000
0100
0010
0001
0000
,  // measure 46
1000
0010
0100
0000
0001
0000
0001
0000
,  // measure 47
1001
0000
0000
0000
;

//---------------dance-single - ----------------
#NOTES:
     dance-single:
     :
     Hard:
     10:
     0.505,0.437,0.381,0.281,0.145: // measure 1
0001
0000
0000
0001
0000
0000
1000
0000
0100
0000
0000
0100
0000
0000
0010
0000
,  // measure 2
0100
0000
0000
0100
0000
0000
1000
0000
0010
0000
0000
0010
0000
0000
1000
0000
,  // measure 3
0001
0000
0000
0001
0000
0000
0010
0000
0100
0000
0000
0100
0000
0000
1000
0000
,  // measure 4
0001
0000
0010
0000
0100
0000
1000
0000
0001
0000
0010
0000
0100
1000
0100
1000
,  // measure 5
0100
0000
1000
0000
0001
1000
0100
0000
,  // measure 6
0001
0000
0100
0000
1000
0001
0010
0000
,  // measure 7
1000
0000
0010
0000
0001
1000
0100
0000
,  // measure 8
0002
0000
0000
1000
0000
0000
1003
0000
0020
0000
0000
0100
0000
0000
0130
0000
,  // measure 9
0001
0000
1000
0000
0001
1000
0010
0000
,  // measure 10
0001
0000
0010
0000
1000
0010
0001
0000
,  // measure 11
1000
0000
0100
0000
0001
0100
1000
0000
,  // measure 12
0200
0000
0000
0010
0000
0000
0310
0000
0002
0000
0000
1000
0000
0000
1003
0000
,  // measure 13
0001
1000
0100
0010
0200
0000
1300
0001
,  // measure 14
0100
0010
0100
0100
0001
0010
0000
0001
,  // measure 15
1000
0100
0020
0000
0130
1000
0001
0100
,  // measure 16
0002
0000
0000
0100
0000
0000
0103
0000
0020
0000
0000
0100
0000
0000
0130
0000
,  // measure 17
0001
1000
0001
1000
0100
0000
0010
0001
,  // measure 18
0100
0100
0001
0010
0100
0010
0001
0000
,  // measure 19
1000
1000
0010
0010
1000
0100
0010
0001
,  // measure 20
2000
0000
0000
0100
0000
0000
3100
0000
0020
0000
0000
0100
0000
0000
0130
0000
,  // measure 21
2000
3020
0032
0023
,  // measure 22
2030
3200
0302
0203
,  // measure 23
1300
0002
0203
0320
,  // measure 24
2030
3200
0000
0310
,  // measure 25
1001
1001
1001
0011
,  // measure 26
0110
0110
0110
1010
,  // measure 27
0101
0101
0101
1001
,  // measure 28
1200
0000
1300
0001
0200
0000
0301
1000
,  // measure 29
0100
0000
0000
0000
1100
0000
0000
0000
1001
0000
0000
1001
0000
0000
1001
0000
,  // measure 30
1000
0100
0010
0100
1000
0010
0100
0001
,  // measure 31
1000
0010
0100
0010
1000
0001
0010
0100
,  // measure 32
1000
0000
0001
0000
0010
0000
0001
0000
1000
0000
0010
0000
0100
0000
0010
1000
,  // measure 33
0020
0000
0000
0000
1030
0000
0001
0010
0002
0000
0000
0000
1003
0000
0010
0100
,  // measure 34
0010
1000
0001
0010
0100
0001
0100
1000
,  // measure 35
0001
1000
0001
0100
0010
0001
0010
1000
,  // measure 36
0001
0000
1000
0000
0001
0000
0010
0000
0100
0000
0001
0000
0100
0000
1000
0001
,  // measure 37
2000
0000
0000
0000
3001
0000
0100
0001
0100
0000
0010
0000
1000
0000
0001
0000
,  // measure 38
1001
0000
0000
0000
1001
0000
0000
0000
1001
0000
0000
0000
1001
0000
0000
0110
,  // measure 39
0000
0010
0100
0010
0001
0010
1000
0100
,  // measure 40
1100
0000
0000
0000
1100
0000
0000
0000
1100
0000
0000
0000
1100
0000
0000
1001
,  // measure 41
0000
0000
0001
0000
1000
0000
0001
1000
0001
0000
0010
0000
0100
0000
1000
0000
,  // measure 42
1001
0000
0000
0000
1001
0000
0000
0000
1001
0000
0000
0000
1001
0000
0000
0110
,  // measure 43
0000
0100
0010
0100
1000
0100
0001
0010
,  // measure 44
0011
0011
0011
0011
,  // measure 45
1001
0000
1000
0000
0001
0000
0100
0001
0100
0000
0001
0000
1000
0000
0100
0010
,  // measure 46
0100
0000
1000
0000
0010
0000
0100
0000
0001
0000
0000
0000
0001
0000
0000
0110
;

//---------------dance-double - ----------------
#NOTES:
     dance-double:
     :
     Medium:
     6:
     0.356,0.392,0.271,0.321,0.000:
00000001
00000000
00000001
00000000
,
00000010
00000000
00000010
00000000
,
00000001
00000000
00000001
00000000
,
00010000
00000000
00010000
00000000
,
00010000
00001000
00010000
00001000
,
00010000
00001000
00010000
00001000
,
01000000
00100000
01000000
00100000
,
20000000
32000000
03200000
00302000
,
00013000
00001000
00010000
00001000
,
00010000
00001000
00010000
00001000
,
00010000
00000100
00010000
00000100
,
00020000
00030200
00000320
00000032
,
00001003
00000010
00000100
00000010
,
00001000
00000100
00000010
00000100
,
00010000
00001000
00010000
00001000
,
20000000
30020000
02030000
03200000
,
01300000
00100000
01000000
00010000
,
10000000
00001000
00010000
00001000
,
00010000
00000010
00010000
00000010
,
00002000
00003200
00000320
00000032
,
00020003
00030020
00000230
00002300
,
00023000
00030020
00000230
00002300
,
00013000
00000020
00000230
00002300
,
00023000
00002000
00000000
00033000
,
00100000
00100000
00110000
01000000
,
00100000
00100000
10100000
00001000
,
00010000
00010000
00011000
00000100
,
00000010
00000000
00000010
00000100
00000010
00000000
00000010
00000100
,
00000010
00001000
00000002
00000000
,
00010003
00001000
00010000
00000000
00001000
00000000
01001000
00000000
,
01000000
00100000
01000000
00000000
00010000
00000000
00110000
00000000
,
00100000
00010000
00100000
00000000
00001000
00000000
00011000
00000000
,
00000010
00000100
00000010
00000000
00000200
00000000
00000010
00000000
,
00000310
00000000
00010000
00001000
00010000
00000000
00000010
00000000
,
00010010
00000000
00001000
00010000
00001000
00000000
00011000
00000000
,
01000000
00100000
01000000
00000000
00010000
00000000
10010000
00000000
,
02000000
00000000
00100000
00000000
03100000
00000000
10000000
01000000
,
00100000
01100000
01100000
01100000
,
01001000
00000000
00001000
00000000
01000000
00000000
00001000
00010000
,
00001000
00011000
00011000
00011000
,
00010100
00000000
00000100
00000000
00000010
00000100
00000010
00000000
,
00000110
00000110
00000110
00000110
,
00010100
00000000
00000100
00000000
00010000
00001000
00010000
00000000
,
00011000
00011000
00011000
00101000
,
00100000
00001000
10000000
00000000
10000000
00001000
00100000
00000000
,
00001000
00010000
00000100
00000000
00000100
00000000
00000100
00000000
,
00000110
00000000
00000000
00000000
;

//---------------dance-double - ----------------
#NOTES:
     dance-double:
     :
     Hard:
     10:
     0.505,0.437,0.401,0.261,0.145:
00000001
00000000
00000000
00000001
00000000
00000000
00000100
00000000
00000010
00000000
00000000
00000010
00000000
00000000
00010000
00000000
,
00001000
00000000
00000000
00001000
00000000
00000000
00100000
00000000
01000000
00000000
00000000
01000000
00000000
00000000
10000000
00000000
,
00001000
00000000
00000000
00001000
00000000
00000000
00010000
00000000
00000010
00000000
00000000
00000010
00000000
00000000
00001000
00000000
,
00000001
00000000
00000010
00000000
00000100
00000000
00010000
00000000
00001000
00000000
01000000
00000000
00100000
01000000
00100000
01000000
,
00010000
00000000
01000000
00000000
00001000
01000000
00100000
00000000
,
00001000
00000000
00100000
00000000
01000000
00001000
00010000
00000000
,
00000010
00000000
00001000
00000000
00000010
00000100
00000001
00000000
,
00020000
00000000
00000000
00000100
00000000
00000000
00030100
00000000
00020000
00000000
00000000
00001000
00000000
00000000
00031000
00000000
,
10000000
00000000
01000000
00000000
00001000
01000000
10000000
00000000
,
00001000
00000000
00010000
00000000
00000001
00000100
00001000
00000000
,
00000100
00000000
00000001
00000000
00001000
00000010
00010000
00000000
,
00002000
00000000
00000000
00010000
00000000
00000000
00013000
00000000
00002000
00000000
00000000
00100000
00000000
00000000
00103000
00000000
,
00001000
10000000
01000000
00100000
00020000
00000000
10030000
00001000
,
00010000
00001000
01000000
01001000
00010000
00000010
00000000
00000100
,
00000001
00000010
00000200
00000000
00010300
00000010
00000100
00000010
,
00020000
00000000
00000000
00001000
00000000
00000000
00031000
00000000
00020000
00000000
00000000
00000100
00000000
00000000
00030100
00000000
,
00010000
00001000
10000000
00100000
01000000
00000000
00100000
01000000
,
00001000
00001000
10000000
01000000
00100000
01000000
10000000
00000000
,
00001000
00001000
00010000
00010000
00000001
00000100
00000010
00001000
,
00000020
00000000
00000000
00000100
00000000
00000000
00000130
00000000
00000002
00000000
00000000
00001000
00000000
00000000
00001003
00000000
,
00000002
00000203
00020300
02030000
,
23000000
32000000
03020000
20030000
,
30001000
20000000
32000000
03002000
,
00003200
00000302
00000000
00001003
,
00000110
00000110
00000110
00010100
,
00011000
00011000
00011000
01001000
,
01100000
01100000
01100000
10010000
,
11000000
00000000
10000000
00001000
00010000
00000000
00010000
00000100
,
00001000
00000000
00000000
00000000
00001100
00000000
00000000
00000000
00001001
00000000
00000000
00001001
00000000
00000000
00001001
00000000
,
00000001
00010000
00001000
00010000
00000001
00001000
00000010
00001000
,
00000001
00010000
00001000
00010000
00000001
00001000
00000010
00001000
,
00000001
00000000
00000010
00000000
00000100
00000000
00010000
00000000
00001000
00000000
01000000
00000000
00100000
00000000
01000000
00100000
,
02000000
00000000
00000000
00000000
03001000
00000000
00010000
00001000
00020000
00000000
00000000
00000000
00030100
00000000
00001000
00000001
,
00001000
00000100
00010000
00001000
00010000
00000100
00010000
00001000
,
01000000
00100000
01000000
00001000
01000000
00001000
01000000
00100000
,
01001000
00000000
00010000
00000000
00000001
00000000
00000010
00000000
00000100
00000000
00010000
00000000
00001000
00000000
00010000
00001000
,
00020000
00000000
00000000
00000000
00031000
00000000
00100000
00001000
00100000
00000000
00010000
00000000
01000000
00000000
00001000
00000000
,
01001000
00000000
00000000
00000000
01001000
00000000
00000000
00000000
01001000
00000000
00000000
00000000
01001000
00000000
00000000
00011000
,
00000000
00010000
00000010
00000100
00000010
00010000
00000010
00000100
,
00010100
00000000
00000000
00000000
00010100
00000000
00000000
00000000
00010100
00000000
00000000
00000000
00010100
00000000
00000000
00011000
,
00000000
00000000
00001000
00000000
00100000
00000000
00001000
00100000
00001000
00000000
10000000
00000000
01000000
00000000
00100000
00000000
,
01100000
00000000
00000000
00000000
01100000
00000000
00000000
00000000
01100000
00000000
00000000
00000000
01100000
00000000
00000000
00011000
,
00000000
00001000
00010000
00000010
00010000
00001000
00010000
00000010
,
00000110
00000110
00000110
00000110
,
00001100
00000000
00000100
00000000
00010000
00000000
00001000
00010000
00001000
00000000
01000000
00000000
00001000
00000000
00010000
00001000
,
00010000
00000000
00000010
00000000
00010000
00000000
00001000
00000000
00100000
00000000
00000000
00000000
00100000
00000000
00000000
01100000
;

//---------------dance-double - ----------------
#NOTES:
     dance-double:
     :
     Easy:
     5:
     0.238,0.323,0.301,0.170,0.000:
00002000
00000000
00003002
00000000
,
00002003
00000000
00003002
00000000
,
00020003
00000000
00032000
00000000
,
00023000
00000000
00000000
00000000
,
00031000
00000000
00001000
00000000
,
01000000
00000000
01000000
00000000
,
00100000
00000000
00100000
00000000
,
20000000
00000000
30020000
00000000
,
10030000
00000000
10000000
00000000
,
00001000
00000000
00001000
00000000
,
00010000
00000000
00010000
00000000
,
00000002
00000000
00002003
00000000
,
00003010
00000000
00000010
00000000
,
00000100
00000000
00000100
00000000
,
00000001
00000000
00000001
00000000
,
00020000
00000000
00032000
00000000
,
00013000
00000000
00010000
00000000
,
00000100
00000000
00000100
00000000
,
00001000
00000000
00001000
00000000
,
00000002
00000000
00002003
00000000
,
00003001
00001000
00000001
00000000
,
00001000
00000001
00001000
00000000
,
00000010
00000100
00000010
00000000
,
00000100
00000010
00000100
00000000
,
00000001
00001000
00000001
00001000
,
00000010
00010000
00000010
00010000
,
00001000
00010000
00001000
00010000
,
00002000
00000000
02003000
00000000
,
03100000
01100000
01100000
00000000
,
01000000
00100000
01000000
00000000
,
00010000
10000000
00010000
00000000
,
00100000
00010000
00100000
00000000
,
10010000
10010000
10010000
00000000
,
00001000
00010000
00001000
00010000
,
00000100
00001000
00000100
00000000
,
00001000
00000001
00001000
00000000
,
00001001
00000000
00001001
00000000
,
00000110
00000110
00000110
00000110
,
00000110
00000000
00010000
00000000
,
00011000
00011000
00011000
00011000
,
00011000
00000000
10000000
00000000
,
10010000
10010000
10010000
10010000
,
10010000
00000000
00001000
00000000
,
00011000
00011000
00011000
00011000
,
00011000
00000000
00000110
00000000
,
00011000
00000000
01000000
00000000
,
01100000
00000000
00000000
00000000
;

//---------------dance-single - ----------------
#NOTES:
     dance-single:
     :
     Beginner:
     1:
     0.073,0.138,0.070,0.000,0.000: // measure 1
0001
0000
0000
0000
,  // measure 2
0000
0000
0000
0000
,  // measure 3
1000
0000
0000
0000
,  // measure 4
0000
0000
0000
0000
,  // measure 5
0001
0000
0000
0000
,  // measure 6
0010
0000
0000
0000
,  // measure 7
0100
0000
0000
0000
,  // measure 8
0010
0000
0000
0000
,  // measure 9
0001
0000
0000
0000
,  // measure 10
1000
0000
0000
0000
,  // measure 11
0010
0000
0000
0000
,  // measure 12
1000
0000
0000
0000
,  // measure 13
0001
0000
0000
0000
,  // measure 14
0000
0000
0000
0000
,  // measure 15
1000
0000
0000
0000
,  // measure 16
0000
0000
0000
0000
,  // measure 17
0100
0000
0000
0000
,  // measure 18
0010
0000
0000
0000
,  // measure 19
0001
0000
0000
0000
,  // measure 20
1000
0000
0000
0000
,  // measure 21
0001
0000
0000
0000
,  // measure 22
0001
0000
0000
0000
,  // measure 23
0001
0000
0000
0000
,  // measure 24
0001
0000
0000
0000
,  // measure 25
1000
0000
0000
0000
,  // measure 26
0100
0000
0000
0000
,  // measure 27
1000
0000
0000
0000
,  // measure 28
0100
0000
0000
0000
,  // measure 29
0010
0000
0000
0000
,  // measure 30
1001
0000
0000
0000
,  // measure 31
1000
0000
0000
0000
,  // measure 32
0001
0000
0000
0000
,  // measure 33
1000
0000
0000
0000
,  // measure 34
0010
0000
0000
0000
,  // measure 35
0100
0000
0000
0000
,  // measure 36
0010
0000
0000
0000
,  // measure 37
1000
0000
0000
0000
,  // measure 38
1001
0000
0000
0000
,  // measure 39
0001
0000
0000
0000
,  // measure 40
1001
0000
0000
0000
,  // measure 41
1000
0000
0000
0000
,  // measure 42
1001
0000
0000
0000
,  // measure 43
0001
0000
0000
0000
,  // measure 44
1001
0000
0000
0000
,  // measure 45
0110
0000
0100
0000
,  // measure 46
0100
0000
0000
0000
,  // measure 47
0110
0000
0000
0000
;
