#TITLE:オンナのコ♥オトコのコ;
#SUBTITLE:;
#ARTIST:小倉優子;
#TITLETRANSLIT:ONNA NO KO♥OTOKO NO KO;
#SUBTITLETRANSLIT:;
#ARTISTTRANSLIT:YUKO OGURA;
#CREDIT:DigiMindAxel;
#BANNER:ONNA NO KO OTOKO NO KO.png;
#BACKGROUND:ONNA NO KO OTOKO NO KO-bg.png;
#LYRICSPATH:ONNA NO KO OTOKO NO KO.lrc;
#CDTITLE:DigiMindAxel original simfile.png;
#MUSIC:ONNA NO KO OTOKO NO KO.ogg;
#METERTYPE:DDR X;
#OFFSET:-1.700;
#SAMPLESTART:4.717;
#SAMPLELENGTH:12.000;
#SELECTABLE:YES;
#BPMS:0.000=162.000;
#STOPS:;
#BGCHANGES:-2.000=ONNA NO KO OTOKO NO KO.avi=1.000=1=0=1,
99999=-nosongbg-=1.000=0=0=0 // don't automatically add -songbackground-
;

//---------------dance-single - ----------------
#NOTES:
     dance-single:
     :
     Beginner:
     4:
     0.178,0.223,0.148,0.000,0.000:
0000
0000
0000
0000
,
0000
0000
0000
0000
,
1000
0000
0010
0000
,
0100
0000
0001
0000
,
1000
0000
0010
0000
,
0100
0000
0010
0000
,
1000
0000
0001
0000
,
1000
0000
0100
0000
,
0010
0000
0001
0000
,
1000
0000
0001
0000
,
1001
0000
0000
0000
,
0110
0000
0000
0000
,
1001
0000
0000
0000
,
0110
0000
0000
0000
,
1000
0000
0010
0000
,
0100
0000
0001
0000
,
1001
0000
0000
0000
,
0000
0000
0000
0000
,
0010
0010
0010
0010
,
0010
0000
0000
0000
,
0100
0100
0100
0100
,
0100
0000
0000
0000
,
0001
0000
1000
0000
,
0001
0000
1000
0000
,
0110
0000
0100
0000
,
0010
0000
0100
0000
,
1001
0000
1000
0000
,
0001
0000
0000
0000
,
1000
0000
1000
0000
,
0000
1001
0000
0000
,
0001
0001
0001
0000
,
1000
1000
1000
0000
,
0100
0000
0010
0000
,
0100
0000
0000
0000
,
1001
0000
0010
0000
,
0100
0000
0001
0000
,
0100
0000
0010
0000
,
1000
0000
0001
0000
,
1001
0000
0010
0000
,
0100
0000
1000
0000
,
0100
0000
0010
0000
,
0001
0000
0000
0000
,
1000
0000
1000
0000
,
0001
0001
0001
0000
,
0100
0000
0100
0000
,
0110
0000
0000
0000
,
0100
0000
0000
0000
,
0100
0000
0000
0000
,
0001
0000
0001
0000
,
1001
0000
0000
0000
,
1000
0000
0000
0000
,
0010
0000
0010
0000
;

//---------------dance-single - ----------------
#NOTES:
     dance-single:
     :
     Medium:
     9:
     0.432,0.447,0.506,0.000,0.000:
0000
0000
0000
0000
,
0000
0000
0000
0000
,
1001
0100
1000
0100
,
0001
0100
0001
0100
,
1001
0100
0010
0100
,
1001
0010
0100
0001
,
0110
1000
0010
1000
,
0010
0001
0010
0001
,
1001
0100
0010
0100
,
0001
0010
0100
1000
,
0110
0100
0100
0001
,
0100
0001
0110
1000
,
0001
1000
0010
0100
,
1001
1000
1000
0001
,
0100
0001
0100
0010
,
1000
0100
0010
0001
,
1001
1000
0000
1000
,
0000
1001
1001
1001
,
0101
0110
0101
0110
,
0010
1000
0010
0100
0000
0000
0000
0000
,
1100
0110
1100
0110
,
0100
1000
0100
0010
0000
0000
0000
0000
,
0101
0010
1000
0100
,
0010
0001
1000
0010
,
1001
1000
0001
1000
,
0001
0100
0010
1000
,
0110
0001
0010
0001
,
1001
1000
0000
1000
,
1001
0100
0010
0001
,
0010
1100
0011
1001
,
0010
0100
1000
0100
,
0010
0001
0100
1000
,
0010
0001
1000
0010
,
0100
0010
0100
0110
,
1001
1000
0010
0100
,
0001
0100
1000
0010
,
0001
1000
0100
0010
,
0100
1000
0010
0110
,
1001
1000
0100
0010
,
1001
0010
0100
1000
,
0110
0000
0010
0100
0010
0000
0100
0010
,
0100
0001
0000
0001
,
1001
0100
0010
0001
,
1000
0110
0110
0110
,
1001
0000
0001
0000
0010
0001
0010
0000
,
0100
0010
0100
0000
1000
0010
0100
0000
,
0010
0100
0001
0000
0000
0000
0000
1000
,
0000
0010
0100
0000
0100
0000
0100
0000
,
1001
0000
1000
0000
0100
1000
0100
0000
,
0010
0100
0010
0000
0001
0100
0010
0000
,
0100
0010
1000
0000
0000
0000
0000
0001
,
0000
0001
0010
0000
0010
0000
0110
0000
;

//---------------dance-single - ----------------
#NOTES:
     dance-single:
     :
     Hard:
     11:
     0.571,0.543,0.457,0.000,0.000:
0000
0000
0000
0000
,
0000
0000
0000
0000
,
1001
0000
1001
0000
0001
1000
0100
1000
,
0001
0000
0001
0010
0100
0010
0001
1000
,
0010
0100
0010
0000
0100
0000
0010
1000
,
0000
1000
0001
0010
0100
0000
0110
0000
,
1001
0000
1001
0000
1000
0001
0010
0001
,
1000
0000
1000
0100
0010
0001
1000
0010
,
1000
0010
0100
0000
0010
0000
0100
0001
,
0000
0001
1000
0100
1000
0000
1001
0000
,
0110
0000
0010
0000
0010
0000
0010
1000
,
0100
0010
0001
0100
1000
0000
0100
0000
,
0001
1000
0000
0100
0000
0010
0001
0000
,
1001
0000
0001
0000
0001
0000
0001
0010
,
0100
1000
0010
0100
0010
1000
0000
0001
,
0100
0001
1000
0100
0000
1000
0100
0010
,
0001
1000
0000
1000
,
0000
1001
1001
1001
,
0010
0000
0010
0100
0001
0000
0001
0010
,
0100
1000
0001
0100
0000
0001
0001
0000
,
1000
0100
1000
0100
1000
0001
0100
0010
,
1000
0100
0010
0001
0000
1000
1000
0000
,
1001
0101
0110
1010
,
1000
0010
0100
1000
0100
0010
1000
0000
,
1001
0000
1001
0000
0001
0100
0010
0001
,
0010
0100
0001
0000
0010
0100
1000
0001
,
0100
0000
0100
0001
1000
0000
1000
0100
,
0010
0001
0000
0001
,
1001
1001
1100
1100
,
0000
1001
1001
0110
,
0010
0100
1000
0100
0010
0000
0100
0010
,
0001
0000
0001
1000
0010
1000
0001
0010
,
0100
1000
0100
0010
0001
1000
0010
1000
,
0001
0010
0100
1001
,
1000
0100
0010
0100
1000
0000
0001
0010
,
0100
0000
0100
1000
0010
0100
0010
1000
,
0100
0000
1000
0100
0010
0001
0010
0100
,
1000
0010
0100
1001
,
0001
0100
0001
0010
0100
1000
0001
0100
,
0001
0000
0100
0001
0010
0100
1000
0000
,
0110
0000
0010
1000
0100
0000
0100
1000
,
0001
1000
0000
1000
,
1001
1001
0011
0011
,
1000
1010
0110
0101
,
1001
0000
1000
0000
1000
0001
1000
0001
,
1000
0100
0010
0001
1000
0100
0010
0001
,
0100
0010
0100
0000
0001
0000
1000
0001
,
0000
0001
0010
0100
1000
0000
1000
0000
,
1001
0000
0001
0000
0001
1000
0001
1000
,
0001
0100
0010
1000
0001
0100
0010
1000
,
0100
0010
0100
0000
0010
0000
0001
1000
,
0000
1000
0001
0010
0100
0000
0110
0000
;

//---------------dance-single - ----------------
#NOTES:
     dance-single:
     :
     Easy:
     6:
     0.321,0.415,0.383,0.123,0.000:
0000
0000
0000
0000
,
0000
0000
0000
0000
,
1000
1000
0001
1000
,
0001
0001
1000
0000
,
1001
0000
0000
0000
,
1000
0100
0010
0001
,
0100
0100
0010
0100
,
0010
0010
1000
0000
,
1001
0000
0000
0000
,
0010
0000
0100
0000
,
1001
0001
0001
0000
,
1000
1000
1001
0000
,
0010
0100
0010
0000
,
0110
0000
0110
0000
,
0100
0010
0100
0001
,
1000
0100
0010
0001
,
2002
0000
0000
0000
,
3003
1000
1000
1001
,
0110
0000
0110
0000
,
0100
0010
0100
0000
,
0001
1000
0100
0010
,
0001
0000
0000
0000
,
0110
0000
0110
0000
,
0100
0010
0100
0000
,
1001
0000
1001
0000
,
0001
1000
0001
0000
,
0110
0000
0110
0000
,
2002
0000
0000
3003
,
1001
0001
0010
0100
,
1000
0110
0110
1001
,
0002
1000
0000
1000
,
0000
1003
0001
0010
,
0200
1000
0000
1000
,
0000
1300
0001
1000
,
0020
0100
0000
0100
,
0000
0130
0001
0010
,
0200
1000
0000
1000
,
0000
1300
0001
1000
,
1001
0000
1001
0000
,
0001
0010
0100
1000
,
0110
0000
0110
0000
,
2002
0000
0000
3003
,
0001
1000
0001
1000
,
0010
0110
0110
0110
,
1001
0001
0001
0000
,
1000
0100
1000
0100
,
1000
0000
0001
0000
,
1000
0000
0010
0000
,
0110
0100
0100
0000
,
0001
1000
0001
1000
,
0001
0000
0010
0000
,
0100
1000
0001
0100
;

//---------------dance-double - ----------------
#NOTES:
     dance-double:
     :
     Easy:
     6:
     0.317,0.319,0.383,0.086,0.000:
00000000
00000000
00000000
00000000
,
00000000
00000000
00000000
00000000
,
10000000
10000000
10010000
00000000
,
00010000
00010000
10010000
00000000
,
01100000
00000000
00000000
00000000
,
01000000
00100000
01000000
00000000
,
00001000
00001000
00011000
00000000
,
00010000
00010000
00011000
00000000
,
00010001
00000000
00000000
00000000
,
00000100
00000010
00000100
00000000
,
00000001
00000001
00001001
00000000
,
00000100
00000010
00010000
00001000
,
00010000
00010000
00011000
00000000
,
00100000
00100000
01100000
00000000
,
00100000
01000000
10000000
00010000
,
01000000
00001000
00010000
00000010
,
00000200
00000000
00000000
00000000
,
00000300
00000001
00000001
00001001
,
00000110
00000000
00000110
00000000
,
00000100
00000010
00000100
00000000
,
00000001
00010000
00001000
01000000
,
00100000
00000000
00000000
00000000
,
01100000
00000000
01100000
00000000
,
01000000
00100000
01000000
00000000
,
00011000
00000000
00011000
00000000
,
00010000
00001000
00010000
00000000
,
00000110
00000000
00000110
00000000
,
00002002
00000000
00000000
00003003
,
00001001
00001000
00000100
00000000
,
00010000
00001000
00001000
01000000
,
00100000
00100000
01100000
00000000
,
10000000
10000000
10010000
00000000
,
01000000
10000000
01000000
10000000
,
00001000
00010000
00001000
00000000
,
00010000
00010000
00010001
00000000
,
00000100
00000100
00000110
00000000
,
00000100
00000001
00000100
00000001
,
00010000
00001000
00010000
00000000
,
00011000
00000000
00011000
00000000
,
00001000
01000000
00100000
10000000
,
10010000
00000000
10010000
00000000
,
02200000
00000000
00000000
03300000
,
00100000
01000000
00100000
01000000
,
00001000
00010000
00010000
00010000
,
00012000
00000000
00013000
00001000
,
00010000
00000010
00000100
00000010
,
00010000
00000000
00000010
00000000
,
00000100
00000010
00000100
00000000
,
00001002
00000000
00001003
00000000
,
00000001
00001000
00000100
00001000
,
00000001
00000000
00010000
00000000
,
00001000
10000000
01000000
00100000
;

//---------------dance-double - ----------------
#NOTES:
     dance-double:
     :
     Medium:
     8:
     0.416,0.415,0.407,0.074,0.000:
00000000
00000000
00000000
00000000
,
00000000
00000000
00000000
00000000
,
10010000
00000000
10000000
00000000
01000000
00100000
01000000
00000000
,
10000000
00000000
10000000
00000000
00001000
01000000
00001000
00000000
,
00011000
00011000
00000000
00000000
,
00010000
00000000
00000010
00000000
00000100
00000001
00001000
00000000
,
00001001
00000000
00000001
00000000
00000010
00000100
00000010
00000000
,
00000001
00000001
00010000
00001000
,
00011000
00011000
00000000
00000000
,
00100000
01000000
10000000
00010000
,
10010000
00010000
00010000
10000000
,
01000000
00100000
00011000
00001000
,
00010000
00000001
00000000
00000001
00000000
00000000
00000000
00000000
,
00001001
00001000
00001000
00000010
,
00010000
00000000
00001000
00000000
00100000
01000000
00000000
10000000
,
00010000
01000000
00001000
00010000
,
00022000
00000000
00000000
00000000
,
00033000
00011000
00011000
00011000
,
00000100
00000010
00000001
00000000
00001000
00000100
00000010
00000000
,
00000001
00000000
00010000
00001000
00000000
00000000
00000000
00000000
,
01000000
00100000
10000000
00000000
00100000
01000000
00010000
00000000
,
10000000
00000000
00010000
00001000
00000000
00000000
00000000
00000000
,
00000110
00000010
00000100
00001000
,
00000100
00000000
00000010
00000000
00000001
00001000
00000001
00000000
,
00011000
00010000
00001000
01000000
,
00100000
01000000
00001000
00010000
,
00011000
00000000
00010100
00000000
,
00000220
00000000
00000000
00000330
,
00001001
00001000
00000001
00001000
,
00000001
00000110
00000110
00001001
,
00000010
00000100
00010000
00001000
,
01000000
00100000
10000000
01000000
,
00010000
01000000
10000000
00100000
,
01000000
00001000
00010000
00011000
,
00010000
00000010
00000001
00000010
,
00010000
00001000
00100000
01000000
,
10000000
01000000
00100000
00010000
,
01000000
10000000
01000000
00001000
,
00011000
00000000
00010000
00000000
00000010
00000100
00000010
00000000
,
00010000
00000000
00001000
00000000
00100000
01000000
00100000
00000000
,
00011000
00000000
00010010
00000000
,
00000220
00000000
00000000
00000330
,
00000100
00000010
00000001
00010000
,
00001000
00011000
00011000
00011000
,
01001000
00000000
01000000
00000000
01000000
00100000
01000000
00000000
,
00010000
10000000
00010000
00000000
01000000
00001000
01000000
00000000
,
00001000
00010000
00000010
00000000
00000000
00000000
00000000
00000100
,
00000000
00000100
00000010
00000000
00001000
00000000
00001000
00000000
,
00001001
00000000
00000001
00000000
00000010
00000100
00000010
00000000
,
00000001
00000100
00000001
00000000
00010000
00000100
00010000
00000000
,
00001000
00100000
01000000
00000000
00000000
00000000
00000000
10000000
,
00000000
10000000
00010000
00000000
00010000
00000000
10010000
00000000
;

//---------------dance-double - ----------------
#NOTES:
     dance-double:
     :
     Hard:
     11:
     0.563,0.543,0.383,0.000,0.000: // measure 1
00000000
00000000
00000000
00000000
,  // measure 2
00000000
00000000
00000000
00000000
,  // measure 3
10010000
00000000
10010000
00000000
00010000
10000000
01000000
10000000
,  // measure 4
00001000
00000000
00001000
00100000
01000000
00100000
00001000
00010000
,  // measure 5
00000100
00000010
00000100
00000000
00001000
00000000
00000001
00000100
,  // measure 6
00000000
00000100
00000001
00000010
00000100
00000000
00010100
00000000
,  // measure 7
00011000
00000000
00011000
00000000
00001000
01000000
00100000
01000000
,  // measure 8
00001000
00000000
00001000
00100000
01000000
10000000
00100000
01000000
,  // measure 9
00001000
00010000
00000010
00000000
00000100
00000000
00000001
00001000
,  // measure 10
00000000
00001000
00000001
00000010
00000100
00000000
00010000
00000000
,  // measure 11
00011000
00000000
00001000
00000000
00001000
00000000
00100000
01000000
,  // measure 12
10000000
01000000
00100000
00001000
00010000
00000000
00001000
00000000
,  // measure 13
00010000
00000010
00000000
00000100
00000000
00000000
00000000
00000000
,  // measure 14
00011000
00000000
00010000
00000000
00010000
00000000
00000010
00000100
,  // measure 15
00000001
00000100
00000010
00001000
00010000
01000000
00000000
00100000
,  // measure 16
10000000
01000000
00100000
00001000
00000000
00010000
00000100
00000010
,  // measure 17
00000001
00001000
00000000
00001000
,  // measure 18
00000000
00001001
00001001
00001001
,  // measure 19
00000010
00000000
00000010
00000100
00000001
00000000
00000001
00000010
,  // measure 20
00000100
00001000
00010000
01000000
00000000
00100000
00100000
00000000
,  // measure 21
10000000
00010000
10000000
00010000
10000000
00100000
01000000
00010000
,  // measure 22
00001000
00000100
00000010
00000001
00000000
00001000
00001000
00000000
,  // measure 23
00000001
00000010
00001000
00000010
00000001
00001000
00010000
00000000
,  // measure 24
00100000
01000000
10000000
01000000
00100000
00001000
00010000
00000000
,  // measure 25
00011000
00000000
00010000
00000000
00000100
00000001
00000100
00010000
,  // measure 26
00001000
00100000
01000000
00000000
10000000
00010000
10000000
01000000
,  // measure 27
00100000
00000000
00100000
00010000
00001000
00000000
00001000
00000100
,  // measure 28
00000010
00000001
00000000
00000001
,  // measure 29
00001001
00001001
00000110
00000110
,  // measure 30
00000000
00011000
00011000
10001000
,  // measure 31
10000000
01000000
00010000
01000000
10000000
00000000
01000000
00100000
,  // measure 32
00001000
00000000
00010000
00000010
00000100
00000010
00010000
00000100
,  // measure 33
00000001
00000100
00010000
00001000
00100000
01000000
00100000
01000000
,  // measure 34
10000000
00100000
01000000
10010000
,  // measure 35
10000000
01000000
00010000
01000000
10000000
00000000
01000000
00100000
,  // measure 36
00001000
00000000
00010000
00000100
00000001
00000100
00010000
00000010
,  // measure 37
00000100
00000000
00000001
00000010
00000100
00001000
00010000
00100000
,  // measure 38
01000000
10000000
00100000
01100000
,  // measure 39
01000000
00100000
01000000
00010000
00100000
01000000
10000000
00001000
,  // measure 40
01000000
00000000
00001000
00010000
00000010
00000100
00000001
00000000
,  // measure 41
00001001
00000000
00000001
00000010
00000100
00000000
00000100
00001000
,  // measure 42
00010000
00001000
00000000
00001000
,  // measure 43
01001000
01001000
01100000
01100000
,  // measure 44
10000000
10010000
10010000
01001000
,  // measure 45
01001000
00000000
00001000
00000000
00001000
00010000
00001000
00010000
,  // measure 46
00000100
00000010
00000001
00010000
00000100
00000010
00000001
00010000
,  // measure 47
00001000
01000000
00100000
00000000
10000000
00000000
00010000
10000000
,  // measure 48
00000000
10000000
01000000
00100000
00001000
00000000
00001000
00000000
,  // measure 49
00011000
00000000
00010000
00000000
00010000
00001000
00010000
00001000
,  // measure 50
01000000
00100000
10000000
00001000
01000000
00100000
10000000
00001000
,  // measure 51
00010000
00000100
00000010
00000000
00000001
00000000
00001000
00000001
,  // measure 52
00000000
00000001
00000010
00000100
00010000
00000000
00011000
00000000
;
