#TITLE:Night Walker;
#SUBTITLE:;
#ARTIST:EBISU;
#TITLETRANSLIT:;
#SUBTITLETRANSLIT:;
#ARTISTTRANSLIT:;
#CREDIT:DigiMindAxel;
#BANNER:Night Walker.png;
#BACKGROUND:Night Walker-bg.png;
#LYRICSPATH:;
#CDTITLE:DigiMindAxel original simfile.png;
#MUSIC:Night Walker.ogg;
#METERTYPE:DDR X;
#OFFSET:-4.068;
#SAMPLESTART:66.040;
#SAMPLELENGTH:12.000;
#SELECTABLE:YES;
#DISPLAYBPM:120.000;
#BPMS:0.000=120.000,76.000=60.000,78.000=120.000;
#STOPS:137.000=0.250
;
#BGCHANGES:;

//---------------dance-single - ----------------
#NOTES:
     dance-single:
     :
     Easy:
     5:
     0.214,0.206,0.078,0.107,0.000:
1000
0000
1000
0000
,
0001
0000
0001
0000
,
0200
0000
0000
0300
,
1001
0001
0000
0001
,
1000
1000
0000
0010
,
0010
0100
0000
0100
,
0010
0010
0000
0010
,
0100
0100
0000
0001
,
0001
1000
0000
1000
,
1000
0001
0000
0010
,
0010
0100
0000
0100
,
0100
1000
0000
1000
,
0010
0010
0000
0010
,
0100
0100
0000
0100
,
0001
0001
0000
0001
,
2002
0000
0000
3003
,
0020
0000
0000
0030
,
0200
0000
0000
0300
,
0020
0000
0000
0030
,
2000
0000
0000
3000
1001
0000
0001
0000
,
0000
0010
0001
0100
,
0000
0010
0100
0001
,
0000
0010
0001
0100
,
0000
0010
0100
0001
,
0001
1000
1000
0100
,
0000
0010
0001
0001
,
1000
1000
0100
0010
,
0100
0000
1000
0001
,
1000
0000
0010
0100
,
0010
0000
0020
0000
,
0000
0030
1001
0001
,
0010
0001
1000
1000
,
0100
1000
0001
0001
,
0010
0001
1000
1000
,
0100
0000
1000
0001
0000
0100
0000
0001
,
0000
0100
0000
0001
0000
1000
0000
0001
,
0000
1000
0000
0010
0000
1000
0000
0010
,
0000
1000
0000
0001
0000
1000
0000
0001
,
0000
0000
0000
1001
0000
0100
0000
0100
,
0000
0000
0000
1001
0000
0010
0000
0010
,
0000
0000
0000
1001
0000
0100
0000
0100
,
0000
0000
0000
1001
0000
0010
0000
0020
,
0000
0000
0000
1030
0000
0100
0000
0010
,
0000
0000
0000
0001
0000
0010
0000
0200
,
0000
0000
0000
1300
0000
0000
0000
1000
,
0000
0000
0000
0001
0000
0000
0000
0001
,
0000
1000
0000
0002
0000
0000
0000
1003
;

//---------------dance-single - ----------------
#NOTES:
     dance-single:
     :
     Medium:
     8:
     0.411,0.388,0.429,0.019,0.112:
0010
0100
0010
0000
0100
0000
0101
0000
,
0100
0010
0100
0000
0010
0000
1010
0000
,
0010
0010
0010
0010
,
1001
0000
1001
0000
0001
1000
0100
0000
,
1001
0000
1001
0000
1000
0001
0010
0000
,
0110
0000
0110
0000
0100
1000
0001
0000
,
0110
0000
0110
0000
0010
0001
1000
0000
,
1100
0000
1001
0000
1000
0001
0010
0000
,
0011
0000
1001
0000
0001
1000
0100
0000
,
1000
0000
0000
1000
0000
0000
1000
0000
0000
0001
0000
0000
0100
0000
0000
0000
,
0110
0000
1001
0000
0001
1000
0001
0000
,
0011
0000
1001
0000
1000
0001
1000
0000
,
1100
0000
1001
0000
1000
0001
0100
0000
,
0001
0000
0000
0001
0000
0000
0001
0000
0000
1000
0000
0000
0010
0000
0000
0000
,
0110
0000
1001
0000
0001
1000
0010
0000
,
1000
0100
0010
0001
1000
0100
0010
0001
,
0110
0000
0000
0010
0000
0000
0000
0000
,
1000
0000
0000
0001
0000
0000
1000
0000
0000
0001
0000
0000
0000
0000
0000
0000
,
0110
0000
0000
0100
0000
0000
0000
0000
,
0001
0000
0000
1000
0000
0000
0001
0000
0000
1000
0000
0000
0000
0000
0000
0000
1001
0000
0000
0000
0000
0000
0000
0000
1000
0000
0000
0000
0000
0000
0000
0000
,
1000
0010
0100
0000
0001
0000
0010
0000
,
1000
0010
1001
0001
,
0001
0100
0010
0000
1000
0000
0100
0000
,
0001
0100
1001
1000
,
0010
0100
0001
0001
0001
0000
0100
0000
,
0100
0010
1000
0000
1000
0001
1000
0001
,
1000
1000
0001
0100
0010
0000
1000
0000
,
1000
0001
1000
0000
0001
0000
1000
0100
,
0010
0001
0100
0000
0100
0000
0010
0100
,
0010
0000
0100
0000
0001
0000
0001
0000
0100
0000
0000
0100
0000
0000
0100
0000
,
0000
0100
0000
0000
0000
0000
0000
0000
1001
0000
0000
0000
1001
0000
0000
0000
,
0100
1000
0010
0100
0001
0000
1001
0000
,
0010
0001
0100
0010
1000
0000
1001
0000
,
0100
1000
0010
0100
0001
0000
1001
0000
,
1000
0001
0101
1010
0000
1001
0000
0010
,
1000
0100
0010
0001
0000
1001
0000
0100
,
0001
0010
0100
1000
0000
1001
0000
0010
,
1000
0100
0010
0001
0000
1001
0000
0100
,
0100
0000
0100
0000
0100
0000
0110
0000
0000
1000
0000
0001
0000
0000
1000
0000
,
0100
0000
1000
0000
0000
0000
0110
0000
0000
0001
0000
1000
0000
0000
0100
0000
,
0010
0000
0001
0000
0000
0000
0110
0000
0000
1000
0000
0001
0000
0000
0010
0000
,
0001
0000
0010
0000
0000
0000
0110
0000
0000
0001
0000
1000
0000
0000
0100
0000
,
0010
0000
0001
0000
1000
0000
0001
0000
0000
1000
0000
0001
0000
0000
0100
0000
,
0010
0000
0100
0000
0000
0000
0110
0000
0000
0001
0000
1000
0000
0000
0100
0000
,
0010
0001
1000
0002
0000
1000
0000
1003
,
0000
0000
0000
2000
0000
0001
0000
3001
,
0010
0001
0100
0000
0000
0000
0001
1001
;

//---------------dance-single - ----------------
#NOTES:
     dance-single:
     :
     Hard:
     13:
     0.614,0.548,0.507,0.078,0.643:
1000
0100
1100
0000
0100
1000
1001
0000
,
0100
0010
0110
0000
0001
1000
1001
0001
,
0100
0100
0100
0100
,
0101
0000
1001
0000
1000
1000
0001
0100
,
0101
0000
1001
0000
0001
0001
1000
0010
,
1010
0000
0011
0000
1000
1000
0001
0100
,
0101
0000
1100
0000
0001
0001
1000
0010
,
0110
0000
0000
0100
0001
0000
1000
0000
0100
0000
0010
0000
0100
1000
0000
0000
,
0110
0000
0000
0100
1000
0000
0001
0000
0100
0000
0010
0000
1000
0010
0000
0000
,
1001
0000
0000
0001
1000
0000
0001
0000
0010
0000
0100
0000
1000
0100
0000
0000
,
1001
0000
0000
0001
1000
0000
0100
0000
1000
0000
0001
0000
0100
0001
0000
0000
,
0110
0000
0000
1000
0001
0000
0100
0000
0001
0000
1000
0000
0100
1000
0000
0000
,
0110
0000
0000
0100
1000
0000
0010
0000
0100
0000
0001
0000
0100
0001
0000
0000
,
1001
0000
0000
1000
0001
0000
1000
0000
0100
0000
0010
0000
0001
0010
0000
0000
,
1001
0000
0000
1000
0001
0000
0100
0000
0001
0000
1000
0000
0100
1000
0000
0000
,
0001
0010
0001
0010
0100
0010
0100
1000
0100
1000
0100
1000
,
1002
0000
0000
0103
0000
0000
0000
0000
,
0001
0000
0000
0001
0000
0000
0010
0000
0000
0100
0000
0000
0000
0000
0000
0000
,
2001
0000
0000
3100
0000
0000
0000
0000
,
1000
0000
0000
1000
0000
0000
0100
0000
0000
0010
0000
0000
0000
0000
0000
0000
1001
0000
0000
0000
0000
0000
1000
0000
0001
0000
0000
0000
0000
0000
0001
0000
,
0100
0010
0100
0010
0100
0000
0000
0000
1001
0000
0000
0001
1000
0000
0000
0100
,
0010
0001
0010
0001
0010
0000
0000
0000
1001
0000
0000
1000
0001
0000
0000
0100
,
0010
1000
0010
1000
0010
0000
0000
0000
1001
0000
0000
0001
1000
0000
0000
0100
,
0010
0001
0010
0001
0010
0000
0000
0000
1001
0000
0000
0001
1000
0000
0010
0100
,
0000
0100
0000
0100
0001
1000
0001
0000
0100
0000
0000
0100
0001
0000
0010
0000
,
0100
1000
0000
0100
0010
0000
0000
0000
1001
0000
0000
1000
0001
0000
0010
0100
,
0000
0100
0000
0100
1000
0001
1000
0000
0001
0000
0000
0001
1000
0001
0000
1000
,
0010
1000
0000
0010
0100
0000
0001
0000
1000
0000
0000
0001
0010
0001
0000
1000
,
0001
1000
0000
0010
0100
0000
0010
0000
1000
0000
0100
0010
0100
0000
1000
0001
,
0100
0001
1000
0100
1000
0100
1000
0000
1001
0000
0000
1001
0000
0000
1001
0000
,
0000
1001
0000
0000
0010
0000
0010
0100
0010
0000
1000
0100
1000
0000
0001
0000
,
1000
0100
0000
0000
1100
0000
0000
0000
1001
0000
0001
0100
0001
0000
0010
0000
,
0100
0010
0000
0000
0011
0000
0000
0000
1001
0000
1000
0010
1000
0000
0100
0000
,
0010
0100
0000
0000
0110
0000
0000
0000
0101
0000
0001
1000
0001
0000
0010
0000
,
0100
0010
0000
0000
0101
0000
1001
0000
1000
0100
1000
0000
0001
0000
0100
0010
,
0100
0000
0001
0100
0000
0000
1001
0000
0001
1000
0001
0000
1000
0000
0100
0010
,
0100
0000
0010
0001
0000
0000
1001
0000
1000
0010
1000
0000
0100
0000
0010
0001
,
0010
0000
0100
0010
0000
0000
0110
0000
0100
0001
0100
0000
0010
0000
1000
0001
,
1000
0001
1000
0001
1000
0001
2000
0000
0000
0100
0000
3100
0000
0000
0010
0100
,
0010
0000
0110
0000
0000
0000
1002
0000
0000
0100
0000
0103
0000
0000
0001
1000
,
0001
1000
0100
0010
0100
0010
0002
0000
0000
0100
0000
0103
0000
0000
0001
0010
,
0001
0000
1001
0000
0000
0000
1020
0000
0000
0100
0000
0130
0000
0000
0001
1000
,
0001
1000
0010
0100
0010
0100
0002
0000
0000
0010
0000
0013
0000
0000
0100
0010
,
0100
0000
1010
0000
0000
0000
2001
0000
0000
0010
0000
3010
0000
0000
1000
0001
,
1000
0001
0010
0100
0010
0100
1000
0000
0000
1000
0000
0000
1000
0000
0001
0000
,
0000
0001
0000
0000
0001
0000
1001
0000
0000
1001
0000
0000
0110
0000
0100
1000
,
0100
1000
0001
0010
0100
0000
0000
0000
0000
0000
0000
0000
1000
1000
0100
0000
;

//---------------dance-single - ----------------
#NOTES:
     dance-single:
     :
     Beginner:
     2:
     0.079,0.091,0.088,0.000,0.000:
0000
0000
0000
0000
,
0000
0000
0000
0000
,
0000
0000
0000
0000
,
1000
0000
0000
0000
,
0001
0000
0000
0000
,
1000
0000
0000
0000
,
1000
0000
0000
0000
,
1001
0000
0000
0000
,
0001
0000
0000
0000
,
1000
0000
0000
0000
,
0001
0000
0000
0000
,
0010
0000
0000
0000
,
0100
0000
0000
0000
,
0010
0000
0000
0000
,
0100
0000
0000
0000
,
1000
0000
0000
0000
,
1000
0000
0000
0000
,
0000
0000
0000
0000
,
0001
0000
0000
0000
,
0000
0000
1001
0000
,
0000
0000
1000
0000
,
0000
0000
0001
0000
,
0000
0000
0010
0000
,
0000
0000
0100
0000
,
0000
0000
1000
0000
,
0000
0000
0001
0000
,
0000
0000
1000
0000
,
0000
0000
0100
0000
,
0000
0000
0010
0000
,
0000
0000
0001
0000
,
0000
0000
1001
0000
,
0001
0000
1000
0000
,
0000
0000
1001
0000
,
1000
0000
0001
0000
,
0000
0000
0000
0001
0000
0000
0000
0010
,
0000
0000
0000
0001
0000
0000
0000
0000
,
0000
0000
0000
1000
0000
0000
0000
0100
,
0000
0000
0000
1000
0000
0000
0000
0000
,
0000
0000
0000
1001
0000
0000
0000
0000
,
0000
0000
0000
0010
0000
0000
0000
0000
,
0000
0000
0000
1001
0000
0000
0000
0000
,
0000
0000
0000
0100
0000
0000
0000
0000
,
0000
0000
0000
1001
0000
0000
0000
0000
,
0000
0000
0000
0010
0000
0000
0000
0000
,
0000
0000
0000
1001
0000
0000
0000
0000
,
0000
0000
0000
0000
0000
0000
0000
0001
,
0000
0000
0000
0001
0000
0000
0000
1001
;

//---------------dance-double - ----------------
#NOTES:
     dance-double:
     :
     Easy:
     6:
     0.223,0.228,0.156,0.078,0.000:
10000000
00000000
01000000
00000000
,
10000000
00000000
00010000
00000000
,
02000000
00000000
00000000
03000000
,
10010000
10000000
00000000
01000000
,
00100000
00010000
00000000
00001000
,
00011000
00010000
00000000
00000010
,
00000100
00000001
00000000
00000100
,
00000110
00000010
00000000
00010000
,
00001000
01000000
00000000
00100000
,
01100000
01000000
00000000
10000000
,
01000000
00100000
00000000
00001000
,
00011000
00010000
00000000
00000010
,
00000100
00000001
00000000
00001000
,
00001001
00000001
00000000
00000010
,
00000100
00010000
00000000
00001000
,
00022000
00000000
00000000
00033000
,
00002000
00000000
00000000
00003000
,
00200000
00000000
00000000
00300000
,
02000000
00000000
00000000
03000000
,
00100000
00000000
10010000
10000000
,
00000000
01000000
00100000
00010000
,
00000000
00001000
00010000
00000100
,
00000000
00000010
00000001
00000100
,
00000000
00000001
00001000
00000010
,
00000010
00010000
00010000
00001000
,
00000000
00100000
01000000
01000000
,
10000000
10000000
00010000
10000000
,
00010000
00000000
01000000
00100000
,
01000000
00000000
00010000
10000000
,
00001000
00001000
00020000
00000000
,
00000000
00030000
00011000
00010000
,
00000100
00000010
00000001
00000001
,
00000010
00000001
00000100
00000100
,
00000010
00001000
00010000
00010000
,
00100000
00000000
01000000
01100000
00000000
00100000
00000000
10000000
,
00000000
01000000
00000000
00100000
00000000
00100000
00000000
00010000
,
00000000
01000000
00000000
00001000
00000000
00001000
00000000
00010000
,
00000000
00000100
00000000
00000010
00000000
00000010
00000000
00000001
,
00000000
00000000
00000000
00001001
00000000
00000100
00000000
00000100
,
00000000
00000000
00000000
00011000
00000000
01000000
00000000
01000000
,
00000000
00000000
00000000
10010000
00000000
00100000
00000000
00100000
,
00000000
00000000
00000000
01100000
00000000
00001000
00000000
00001000
,
00000000
00000000
00000000
00011000
00000000
00000100
00000000
00000100
,
00000000
00000000
00000000
00000110
00000000
00000001
00000000
00000001
,
00000000
00000000
00000000
00000010
00000000
00000000
00000000
00000010
,
00000000
00000000
00000000
00000100
00000000
00000000
00000000
00000100
,
00000000
00010000
00000000
00002000
00000000
00000000
00000000
00013000
;

//---------------dance-double - ----------------
#NOTES:
     dance-double:
     :
     Medium:
     9:
     0.420,0.388,0.292,0.088,0.093:
10000000
11000000
00100000
01100000
,
00001000
00011000
00000010
00000110
,
00000002
00000000
00000000
00000003
,
00001001
00001000
00000100
00000000
00001000
00010000
00100000
00000000
,
01100000
01000000
00100000
00000000
10000000
01000000
00100000
00000000
,
10010000
10000000
00010000
00000000
01000000
00001000
00010000
00000000
,
00000110
00000100
00000010
00000000
00001000
00000100
00000010
00000000
,
00000011
00000001
00000010
00000000
00000001
00000100
00000010
00000000
,
00011000
00010000
00001000
00000000
00100000
01000000
10000000
00000000
,
10100000
00100000
01000000
00000000
00010000
00100000
01000000
00000000
,
00101000
00001000
00010000
00000000
00000100
00000010
00000001
00000000
,
00000110
00000100
00000001
00000000
00000010
00000100
00001000
00000000
,
00011000
00001000
01000000
00000000
00100000
10000000
01000000
00000000
,
01100000
01000000
00001000
00000000
00010000
00000100
00000010
00000000
,
00000011
00000001
00000100
00000000
00000010
00010000
00000100
00000000
,
00010000
00100000
01000000
10000000
00010000
00100000
01000000
10000000
,
10001000
00000000
00000000
00001000
00000000
00000000
00000000
00000000
,
00010000
00000000
00000000
00010000
00000000
00000000
00000100
00000000
00000000
00000010
00000000
00000000
00000000
00000000
00000000
00000000
,
00001001
00000000
00000000
00001000
00000000
00000000
00000000
00000000
,
00000001
00000000
00000000
00000001
00000000
00000000
00000010
00000000
00000000
00000100
00000000
00000000
00000000
00000000
00000000
00000000
00011000
00000000
00000000
00000000
00000000
00000000
00000000
00000000
00010000
00000000
00000000
00000000
00000000
00000000
00000000
00000000
,
00001000
00100000
01000000
00000000
10000000
00000000
00100000
00000000
,
01000000
10010000
11000000
01000000
,
00100000
00010000
00001000
00000000
00000010
00000000
00000100
00000000
,
00000001
00001001
00000110
00000010
,
00001000
00010000
00100000
00100000
00100000
00000000
01000000
00000000
,
00100000
10000000
01000000
00000000
00100000
00001000
00100000
00001000
,
00010000
00010000
00000100
00000010
00000001
00000000
00000100
00000000
,
00000010
00001000
00000001
00000001
00000010
00000000
00000100
00000010
,
00000001
00010000
00001000
00000000
00100000
00000000
01000000
10000000
,
01000000
00000000
10000000
00000000
00100000
00000000
00100000
00000000
01000000
00000000
00000000
01000000
00000000
00000000
01000000
00000000
,
00000000
01000000
00000000
00000000
00000000
00000000
00000000
00000000
00011000
00000000
00010000
00000000
00000100
00000000
00000000
00000000
,
00000010
00000001
00000010
00000100
00010000
00001000
00100000
00000000
,
01000000
10000000
00010000
10000000
01000000
00100000
00001000
00000000
,
00010000
00000100
00000010
00000100
00010000
00000001
00000100
00000000
,
00000001
00001000
00001001
00000101
00000001
00000100
00000000
00000001
,
00000010
00000100
00010000
00001000
01000000
00100000
00000000
10000000
,
01000000
00010000
01000000
10000000
00100000
01000000
00000000
00010000
,
01000000
00001000
00010000
00000100
00000010
00000001
00000000
00000100
,
00000010
00000000
00000100
00000000
00000010
00000000
00000210
00000000
00000000
00000001
00000000
00000301
00000000
00000000
00010000
00000000
,
00000000
00000000
00001000
00000000
00000000
00000000
01200000
00000000
00000000
10000000
00000000
10300000
00000000
00000000
00010000
00000000
,
00100000
00000000
01000000
00000000
10000000
00000000
00002000
00000000
00000000
01000000
00000000
01003000
00000000
00000000
00000100
00000000
,
00000000
00000000
00000010
00000000
00000000
00000000
00002001
00000000
00000000
00000100
00000000
00003100
00000000
00000000
00010000
00000000
,
00001000
00000000
00100000
00000000
01000000
00000000
20000000
00000000
00000000
00100000
00000000
30100000
00000000
00000000
01000000
00000000
,
00000000
00000000
00001000
00000000
00000000
00000000
00021000
00000000
00000000
00000100
00000000
00030100
00000000
00000000
00000010
00000000
,
00000001
00001000
00000100
00002000
00000000
00010000
00000000
00013000
,
00000000
00000000
00000000
02000000
00000000
00100000
00000000
03100000
,
10000000
01000000
00100000
00000000
00000000
00000000
00000100
00000010
;

//---------------dance-double - ----------------
#NOTES:
     dance-double:
     :
     Hard:
     13:
     0.592,0.525,0.312,0.058,0.677: // measure 1
10000000
01000000
00100000
00000000
01000000
10000000
00001000
00000000
,  // measure 2
00010000
00000010
00000100
00000000
00000001
00000010
00000100
00001000
,  // measure 3
00000010
00000010
00000010
00000010
,  // measure 4
00001001
00000000
00000110
00000000
00000100
00000010
00000001
00000010
,  // measure 5
00000110
00000000
00010010
00000000
00010000
01000000
00100000
10000000
,  // measure 6
10100000
00000000
01100000
00000000
00100000
10000000
01000000
00100000
,  // measure 7
00101000
00000000
00011000
00000000
00010000
00000010
00000100
00000001
,  // measure 8
00001001
00000000
00000000
00001000
00000010
00000000
00001000
00000000
00000001
00000000
00000010
00000000
00000100
00010000
00000000
00000000
,  // measure 9
00011000
00000000
00000000
00001000
01000000
00000000
00100000
00000000
10000000
00000000
01000000
00000000
00100000
01000000
00000000
00000000
,  // measure 10
10010000
00000000
00000000
10000000
00010000
00000000
00100000
00000000
00001000
00000000
00010000
00000000
00000100
00000010
00000000
00000000
,  // measure 11
00000110
00000000
00000000
00000100
00000001
00000000
00000010
00000000
00000100
00000000
00010000
00000000
00001000
00100000
00000000
00000000
,  // measure 12
01100000
00000000
00000000
01000000
00100000
00000000
10000000
00000000
01000000
00000000
00100000
00000000
00010000
01000000
00000000
00000000
,  // measure 13
10010000
00000000
00000000
00010000
01000000
00000000
00001000
00000000
00010000
00000000
00000100
00000000
00000010
00000100
00000000
00000000
,  // measure 14
00000110
00000000
00000000
00000010
00000001
00000000
00000100
00000000
00000010
00000000
00000100
00000000
00000001
00001000
00000000
00000000
,  // measure 15
00001001
00000000
00000000
00001000
00000100
00000000
00010000
00000000
00100000
00000000
01000000
00000000
10000000
00010000
00000000
00000000
,  // measure 16
00100000
00010000
00100000
00001000
00010000
00001000
00010000
00000010
00000100
00000010
00000100
00000001
,  // measure 17
00000010
00000000
00000000
00000010
00000000
00000000
00000000
00000000
,  // measure 18
00000100
00000000
00000000
00010000
00000000
00000000
00100000
00000000
00000000
01000000
00000000
00000000
00000000
00000000
00000000
00000000
,  // measure 19
10000000
00000000
00000000
10000000
00000000
00000000
00000000
00000000
,  // measure 20
00100000
00000000
00000000
01000000
00000000
00000000
00001000
00000000
00000000
00010000
00000000
00000000
00000000
00000000
00000000
00000000
00000110
00000000
00000000
00000000
00000000
00000000
00000100
00000000
00000001
00000000
00000000
00000000
00000000
00000000
00000100
00000000
,  // measure 21
00000001
00001000
00000001
00001000
00000001
00000000
00000000
00000000
00000110
00000000
00000000
00000100
00010000
00000000
00000000
00000100
,  // measure 22
00010000
00001000
00010000
00001000
00010000
00000000
00000000
00000000
01100000
00000000
00000000
01000000
00100000
00000000
00000000
01000000
,  // measure 23
00100000
00010000
00100000
00010000
00100000
00000000
00000000
00000000
10010000
00000000
00000000
10000000
01000000
00000000
00000000
10000000
,  // measure 24
01000000
00100000
01000000
00100000
01000000
00000000
00000000
00000000
10001000
00000000
00000000
00001000
01000000
00000000
00001000
00010000
,  // measure 25
00000000
00010000
00000000
00010000
00000100
00000010
00000001
00000000
00000100
00000000
00000000
00000100
00000010
00000000
00000100
00000000
,  // measure 26
00000001
00000010
00000000
00000100
00000010
00000000
00000000
00000000
00001001
00000000
00000000
00001000
00000100
00000000
00010000
00001000
,  // measure 27
00000000
00001000
00000000
00001000
01000000
00100000
01000000
00000000
00010000
00000000
00000000
00010000
10000000
00010000
00000000
10000000
,  // measure 28
01000000
10000000
00000000
00100000
01000000
00000000
00001000
00000000
00010000
00000000
00000000
00000010
00010000
00000010
00000000
00000100
,  // measure 29
00000010
00000100
00000000
00000001
00001000
00000000
00000100
00000000
00000010
00000000
00000000
00000010
00000001
00000000
00000100
00000010
,  // measure 30
00000100
00000010
00010000
00000100
00010000
00000100
00010000
00000000
01001000
00000000
00000000
01001000
00000000
00000000
01001000
00000000
,  // measure 31
00000000
01001000
00000000
00000000
00100000
00000000
00100000
01000000
00100000
00000000
10000000
01000000
10000000
00000000
00100000
00000000
,  // measure 32
01000000
00001000
00000000
00001000
00010000
00000000
00000000
00000000
00000100
00000000
00000010
00000001
00000010
00000000
00000100
00000000
,  // measure 33
00001000
00000010
00000000
00000010
00010000
00000000
00000000
00000000
01000000
00000000
00100000
10000000
00100000
00000000
10000000
00000000
,  // measure 34
01000000
00100000
00000000
00100000
00001000
00000000
00000000
00000000
00010000
00000000
00000001
00000100
00000001
00000000
00000010
00000000
,  // measure 35
00000100
00010000
00000000
00010000
00001000
00000000
01000000
00000000
00100000
01000000
00100000
00000000
10000000
00000000
01000000
10000000
,  // measure 36
00100000
00000000
01000000
00001000
00000000
00001000
00010000
00000000
00000010
00000100
00000010
00000000
00000100
00000000
00000001
00000010
,  // measure 37
00000001
00000000
00000100
00000010
00000000
00000010
00010000
00000000
00001000
00010000
00001000
00000000
00100000
00000000
01000000
00100000
,  // measure 38
01000000
00000000
10000000
00100000
00000000
00100000
01000000
00000000
00001000
00100000
00001000
00000000
00010000
00000000
00000010
00000100
,  // measure 39
00000010
00000100
00000010
00000100
00000010
00000100
00000020
00000000
00000000
00001000
00000000
00001030
00000000
00000000
00000001
00000010
,  // measure 40
00000001
00000000
00000011
00000000
00000000
00000000
00000200
00000000
00000000
00000010
00000000
00000310
00000000
00000000
00010000
00001000
,  // measure 41
00010000
00001000
00100000
01000000
00100000
01000000
20000000
00000000
00000000
00100000
00000000
30100000
00000000
00000000
01000000
00010000
,  // measure 42
01000000
00000000
01010000
00000000
00000000
00000000
00002000
00000000
00000000
00010000
00000000
00013000
00000000
00000000
00000010
00000100
,  // measure 43
00000010
00000100
00000001
00000010
00000001
00000010
00000200
00000000
00000000
00010000
00000000
00010300
00000000
00000000
00001000
00010000
,  // measure 44
00001000
00000000
00011000
00000000
00000000
00000000
02000000
00000000
00000000
00010000
00000000
03010000
00000000
00000000
01000000
00100000
,  // measure 45
01000000
00100000
10000000
00010000
10000000
00010000
01000000
00000000
00000000
01000000
00000000
00000000
01000000
00000000
00001000
00000000
,  // measure 46
00000000
00001000
00000000
00000000
00001000
00000000
00011000
00000000
00000000
00011000
00000000
00000000
00010010
00000000
00010000
00000010
,  // measure 47
00000100
00000001
00000010
00000100
00000010
00000000
00000000
00000000
00000000
00000000
00000000
00000000
00000001
00001000
00000001
00000000
;
