#TITLE:New World;
#SUBTITLE:;
#ARTIST:w-inds.;
#TITLETRANSLIT:;
#SUBTITLETRANSLIT:;
#ARTISTTRANSLIT:;
#CREDIT:DigiMindAxel;
#BANNER:New World.png;
#BACKGROUND:New World-bg.png;
#LYRICSPATH:New World.lrc;
#CDTITLE:DigiMindAxel original simfile.png;
#MUSIC:New World.ogg;
#METERTYPE:DDR X;
#OFFSET:-8.020;
#SAMPLESTART:60.884;
#SAMPLELENGTH:12.000;
#SELECTABLE:YES;
#BPMS:0.000=127.000;
#STOPS:;
#BGCHANGES:-20.000=New World.avi=1.000=1=1=0,
99999=-nosongbg-=1.000=0=0=0 // don't automatically add -songbackground-
;

//---------------dance-single - ----------------
#NOTES:
     dance-single:
     :
     Easy:
     4:
     0.191,0.285,0.062,0.109,0.000:
1000
0000
0000
0000
,
0100
0000
0000
0000
,
0010
0000
0000
0000
,
0001
0000
0000
0000
,
2000
0000
0000
0000
,
3020
0000
0000
0000
,
0230
0000
0000
0000
,
0320
0000
0000
0000
,
2030
0000
0000
0000
,
3002
0000
0000
0000
,
0023
0000
0000
0000
,
0032
0000
0000
0000
,
1003
0000
0001
0000
,
1000
0000
0100
0000
,
0010
0000
0100
0000
,
0010
0000
0100
0000
,
0010
0000
0001
0000
,
0010
0000
0001
0000
,
1000
0000
0010
0000
,
1000
0000
0010
0000
,
0200
0000
0010
0000
,
0010
0000
0310
0110
,
0020
0000
0100
0000
,
0100
0000
0130
0110
,
0002
0000
1003
1001
,
2000
0000
3001
1001
,
0002
0000
1003
1001
,
0110
0110
0010
0100
,
0001
0001
0001
1000
,
0001
0000
1000
0000
,
0100
0100
0100
1000
,
0100
1000
0000
0100
,
0010
0010
0010
0001
,
0100
0000
0001
0000
,
0100
0100
0100
0010
,
0100
0000
0010
0000
,
0110
0100
0010
0000
,
1000
0001
1000
0000
,
0100
1000
0100
0000
,
0010
0001
0010
0000
,
0001
1000
0001
0000
,
0100
0001
0100
0010
,
0100
0010
0100
0010
,
0100
0010
0100
0000
,
0001
1000
0001
0000
,
1000
0001
1000
0000
,
0001
1000
0001
0000
,
1000
0000
0001
0000
,
1000
0001
1000
0000
,
0001
1000
0001
0000
,
1000
0001
1000
0000
,
0001
0000
1000
0000
,
0100
0010
0100
0000
,
0010
0100
0010
0000
,
0001
0100
0001
0000
,
1000
0010
1000
0000
,
0001
0100
0001
0000
,
1000
0010
1000
0000
,
0100
0010
0100
0000
,
1000
1000
1000
1000
,
0020
0000
0000
0000
0000
0000
0000
0030
;

//---------------dance-single - ----------------
#NOTES:
     dance-single:
     :
     Medium:
     7:
     0.332,0.379,0.171,0.148,0.000:
0001
1000
0001
1000
,
0001
1000
0001
1000
,
0001
1000
0001
1000
,
0001
1000
0001
1000
,
0010
0100
0010
0100
,
0010
0100
0010
0100
,
0001
1000
0001
1000
,
0100
0010
0100
0010
,
0001
1000
0001
1000
,
0100
0010
0100
0010
,
0001
1000
0001
1000
,
0010
0100
0010
0100
,
0001
1000
0100
1000
,
0002
1003
0100
1000
,
0002
1003
0010
1000
,
0001
1000
0010
1000
,
0200
0310
0001
0010
,
0200
0310
0001
0100
,
0020
1030
0100
0010
,
0100
0000
1000
0000
0100
1000
0100
0000
,
1001
1001
0001
0100
,
0010
1000
0001
1001
,
0110
0110
0010
0100
,
1000
0010
0100
1001
,
0110
0110
0100
1001
,
0110
0110
0010
1001
,
0110
0110
0100
1001
,
0110
0000
0110
0000
0010
0100
0010
0000
,
0001
1000
0001
0000
0200
0000
0301
0000
,
1000
0100
0010
0000
0100
0000
1000
0000
,
0010
0100
0010
0000
2000
0000
3001
0000
,
0010
0001
0100
0000
0001
0000
1000
0000
,
0100
1000
0100
0000
2000
0000
3001
0000
,
0010
0001
0100
0000
0010
0000
1000
0000
,
0010
0100
0010
0000
2000
0000
3001
0000
,
1000
0100
0010
0000
0100
1000
0010
0000
,
0110
0000
0020
0000
0130
0001
0100
0001
,
0000
0010
0000
0100
0000
1000
0000
0001
,
0000
1000
0002
0000
0000
0000
0000
0000
,
0000
0000
0000
0000
0000
1000
0000
1003
,
0001
0000
0020
0000
0130
1000
0100
1000
,
0000
0010
0000
0100
0000
0001
0000
1001
,
0000
0001
0000
1001
0000
0001
0000
1001
,
0000
0001
0000
1001
0000
1000
1000
0000
,
0020
0100
0100
0130
,
0002
1000
1000
1003
,
0200
1000
1000
1300
,
0001
0000
1000
0000
0001
1000
1000
0000
,
0200
0010
0010
0310
,
0002
0100
0100
0103
,
0020
0100
0100
0130
,
0001
0000
1000
0000
0001
1000
1000
0000
,
0100
1000
0100
1000
,
0010
0100
0010
0100
,
0001
0010
0001
0010
,
0001
1000
0001
1000
,
0100
0010
0100
0010
,
0001
0100
0001
0100
,
0001
1000
0001
1000
,
0001
0100
0010
0000
0100
0001
0010
0100
,
2000
0000
0000
0000
0000
0000
0000
3000
;

//---------------dance-single - ----------------
#NOTES:
     dance-single:
     :
     Hard:
     10:
     0.445,0.427,0.203,0.203,0.109:
0001
0100
0001
0100
,
0010
1000
0010
1000
,
0100
0010
0100
0010
,
0100
1000
0100
1000
,
0010
0100
0001
0020
0000
0000
0000
0000
,
0031
0010
0100
2000
0000
0000
0000
0000
,
3100
1000
0010
0200
0000
0000
0000
0000
,
0301
1000
0100
2000
0000
0000
0000
0000
,
3100
0010
0001
0200
0000
0000
0000
0000
,
0310
0100
0010
2000
0000
0000
0000
0000
,
3100
0010
0001
0200
0000
0000
0000
0000
,
0310
0100
0010
2000
0000
0000
0000
0000
,
3001
1001
0001
1001
,
0001
1000
0100
0000
0001
0100
1000
0100
,
0010
0110
0010
0110
,
1000
0001
0100
0000
1000
0100
0001
0010
,
0100
0110
0100
0110
,
0001
1000
0100
0000
0001
0100
1000
0100
,
0010
0110
0010
0110
,
1000
0000
0100
0000
0001
0100
0010
0001
,
1000
0000
1000
0100
0000
0100
0010
0000
0010
0100
0000
0100
,
1000
0000
1000
0001
0000
0001
0100
0010
0100
0010
0000
0000
,
0100
0000
0100
0001
0000
0001
1000
0000
1000
0010
0000
0010
,
0100
0000
0100
0010
0000
0010
1000
0001
1000
0001
0000
0000
,
0010
0000
0010
0001
0000
0001
1000
0000
0000
1200
0000
0000
,
1300
0000
1000
0001
0000
0001
0100
0000
0000
0120
0000
0000
,
1030
0000
1000
0001
0000
0001
0010
0000
0010
0100
0000
0000
,
1010
1010
0101
0101
,
0001
0001
0001
1000
0001
0000
1000
0100
,
1000
0100
1000
0010
0100
1000
0100
0000
,
0010
0010
0010
0100
0010
0000
0100
0001
,
0100
0001
0010
0100
0010
0001
1000
0000
,
0001
0001
0001
1000
0001
0000
1000
0010
,
1000
0010
1000
0100
0010
1000
0010
0000
,
0100
0100
0100
1000
0100
0000
1000
0100
,
0010
0010
0100
0100
1000
0001
0100
0010
,
0100
0000
0110
0000
0100
0010
0001
2000
,
0000
3200
0000
0302
0000
0203
0000
2300
,
0000
3001
1000
0000
0010
0000
0001
0000
,
0010
0000
1000
0000
0002
0100
0000
0103
,
0010
0000
0110
0000
0010
1000
0100
2000
,
0000
3020
0000
0230
0000
0301
0000
0110
,
0000
1000
0000
0110
0000
0001
0000
0110
,
0000
1000
0000
0110
0000
0001
0001
0000
,
2001
0000
3100
0000
0010
0100
0010
0000
,
1002
0000
0103
0000
0010
0100
0010
0000
,
2001
0000
3100
0000
0010
0100
0010
0000
,
0001
0010
0001
0000
1000
0001
0001
0000
,
2001
0000
3010
0000
0100
0010
0100
0000
,
1002
0000
0013
0000
0100
0010
0100
0000
,
1002
0000
0013
0000
0100
0010
0100
0000
,
1000
0100
1000
0000
0001
1000
1000
0000
,
0001
0010
0001
0010
0001
0010
0001
0010
,
0001
1000
0001
1000
0001
1000
0001
1000
,
0100
0010
0100
0010
0100
0010
0100
0010
,
0001
0100
0001
0100
0001
0100
0001
0100
,
0010
0100
0010
0100
0010
0100
0010
0100
,
0001
1000
0010
1000
0001
1000
0010
1000
,
0001
0010
0100
0010
0001
0010
0100
0010
,
0001
0000
1000
0001
0000
1000
0000
1000
0000
1000
0000
0001
1000
0000
0010
0000
,
0200
0000
0000
0000
0000
0000
0000
0300
;

//---------------dance-single - ----------------
#NOTES:
     dance-single:
     :
     Challenge:
     11:
     0.534,0.640,0.304,0.210,0.249:
1000
0100
1000
0000
1000
0100
1000
0000
,
0010
0100
0010
0000
0010
0100
0010
0000
,
1000
0001
1000
0000
1000
0001
1000
0000
,
0010
0100
0010
0100
0001
0010
0100
0000
,
1000
0010
0100
0002
2000
0000
0000
3003
,
1000
0100
0010
0002
2000
0000
0000
3003
,
1000
0010
0100
0002
2000
0000
0000
3003
,
1000
0100
0010
0002
2000
0000
0000
3003
,
0001
0010
0100
2000
0002
0000
0000
3003
,
0001
0100
0010
2000
0002
0000
0000
3003
,
0001
0010
0100
2000
0002
0000
0000
3003
,
0001
0100
0010
2000
0002
0000
0000
3003
,
0100
1010
0100
1010
,
0100
1000
0010
0000
1000
0100
0010
0001
,
0010
0101
0010
0101
,
0010
0001
0100
0000
0001
0010
0100
1000
,
0100
1010
0100
1010
,
0100
1000
0001
0000
0010
0100
1000
0001
,
0010
0101
0010
0101
,
0010
0100
0001
0000
0010
0100
1000
0100
,
0010
0000
0001
0100
0010
0100
0001
0010
0100
1000
0001
0010
,
0100
1000
0010
1000
0100
1000
0001
0010
0100
2200
0000
3300
,
0100
1000
0001
0100
0001
1000
0100
0010
0100
1000
0000
1000
,
0001
1000
0100
0010
0001
1000
0100
0010
0001
0202
0000
0303
,
1000
0001
0100
1000
0100
0001
0010
0100
1000
2002
0000
3003
,
0001
1000
0100
0001
0100
1000
0010
0100
0001
2002
0000
3003
,
1000
0001
0010
1000
0010
0001
0010
0100
1000
0100
0000
1000
,
0001
0000
0001
0100
0000
0100
0010
0000
0010
1000
0000
0000
,
1001
0001
0001
0001
1000
0100
0001
1000
,
0100
0010
1000
0001
0010
0100
0010
0000
,
1001
1000
1000
1000
0001
0010
1000
0001
,
0010
0100
0001
1000
0100
0010
0100
0000
,
1001
0001
0001
0001
1000
0010
0001
0010
,
0100
0001
1000
0010
0100
0001
1000
0000
,
1001
1000
1000
1000
0001
0100
1000
0100
,
0001
1000
0001
1000
0000
1000
0000
1000
0000
1000
0000
0001
0010
0100
0010
0100
,
0010
0001
0100
0001
0010
1000
0010
0001
,
0000
1001
0000
1100
0000
1001
0000
0012
,
0000
1000
1003
0001
0010
0001
1000
0000
,
0100
0010
0001
0010
0100
1000
1000
0010
,
0010
1000
0100
0001
0100
1000
0001
0100
,
0001
1000
0001
0100
0001
1001
0000
1100
,
0000
1001
0000
1100
0000
1001
0000
1100
,
0000
1001
0000
2100
0000
0001
3001
0000
,
1100
0000
0100
0000
1000
0100
0010
0000
,
0101
0000
0100
0000
0001
0010
0100
0000
,
1100
0000
1000
0000
0100
1000
0010
0000
,
0100
0001
0010
0000
0100
0010
0110
0000
,
1001
0000
0011
0000
0010
0001
0100
0000
,
0110
0000
1010
0000
0010
1000
0100
0000
,
1001
0000
1100
0000
1000
0100
0010
0000
,
0001
1000
0100
0000
1000
0001
1001
0000
,
1000
0010
0100
0010
1000
0010
0100
0010
,
1000
0010
0100
0010
1000
0010
0100
0010
,
1000
0001
0010
0001
1000
0001
0010
0001
,
1000
0100
0010
0100
1000
0100
0010
0100
,
1000
0001
0100
0001
1000
0001
0100
0001
,
1000
0001
0100
0001
1000
0001
0100
0001
,
1000
0100
0010
0100
1000
0100
0010
0100
,
1000
0001
1000
0001
0000
0001
0000
0001
0000
0001
0000
1000
0010
0100
0010
0100
,
0020
0000
0000
0000
0000
0000
0000
0030
;

//---------------dance-double - ----------------
#NOTES:
     dance-double:
     :
     Easy:
     4:
     0.190,0.261,0.055,0.109,0.000: // measure 1
10000000
00000000
00000000
00000000
,  // measure 2
01000000
00000000
00000000
00000000
,  // measure 3
00100000
00000000
00000000
00000000
,  // measure 4
00001000
00000000
00000000
00000000
,  // measure 5
00020000
00000000
00000000
00000000
,  // measure 6
00030200
00000000
00000000
00000000
,  // measure 7
00002300
00000000
00000000
00000000
,  // measure 8
00003002
00000000
00000000
00000000
,  // measure 9
00020003
00000000
00000000
00000000
,  // measure 10
00032000
00000000
00000000
00000000
,  // measure 11
00203000
00000000
00000000
00000000
,  // measure 12
00320000
00000000
00000000
00000000
,  // measure 13
00130000
00000000
00001000
00000000
,  // measure 14
00010000
00000000
00001000
00000000
,  // measure 15
01000000
00000000
00100000
00000000
,  // measure 16
01000000
00000000
00100000
00000000
,  // measure 17
10000000
00000000
00010000
00000000
,  // measure 18
00100000
00000000
00001000
00000000
,  // measure 19
00010000
00000000
00000100
00000000
,  // measure 20
00001000
00000000
00000001
00000000
,  // measure 21
00002000
00000000
00000100
00000000
,  // measure 22
00000100
00000000
00003100
00011000
,  // measure 23
00020000
00000000
01000000
00000000
,  // measure 24
01000000
00000000
01030000
00011000
,  // measure 25
00002000
00000000
00003100
00001001
,  // measure 26
00002000
00000000
00013000
00011000
,  // measure 27
00020000
00000000
10030000
00010000
,  // measure 28
10010000
10010000
10000000
00010000
,  // measure 29
01000000
01000000
01000000
00001000
,  // measure 30
00010000
00000000
00000100
00000000
,  // measure 31
00001000
00001000
00001000
00000010
,  // measure 32
00000100
00000001
00000000
00010000
,  // measure 33
00010000
00010000
00001000
01000000
,  // measure 34
00100000
00000000
01000000
00000000
,  // measure 35
00001000
00001000
00001000
00010000
,  // measure 36
00000100
00000000
00001000
00000000
,  // measure 37
00001001
00000001
00001000
00000000
,  // measure 38
00000100
00010000
00000100
00000000
,  // measure 39
00010000
00001000
00010000
00000000
,  // measure 40
00001000
01000000
00001000
00000000
,  // measure 41
10000000
00010000
10000000
00000000
,  // measure 42
00010000
00100000
00001000
00010000
,  // measure 43
00001000
00010000
00001000
00010000
,  // measure 44
00001000
00010000
00001000
00000000
,  // measure 45
00010000
00000010
00010000
00000000
,  // measure 46
00000010
00000100
00000010
00000000
,  // measure 47
00000100
00000001
00000100
00000000
,  // measure 48
00000001
00000000
00010000
00000000
,  // measure 49
00001000
00010000
00001000
00000000
,  // measure 50
01000000
00100000
01000000
00000000
,  // measure 51
00001000
10000000
00001000
00000000
,  // measure 52
00100000
00000000
00001000
00000000
,  // measure 53
00010000
00001000
00010000
00000000
,  // measure 54
00000010
00000100
00000010
00000000
,  // measure 55
00001000
00000010
00001000
00000000
,  // measure 56
00000001
00001000
00000001
00000000
,  // measure 57
00010000
00001000
00010000
00000000
,  // measure 58
00001000
00100000
00001000
00000000
,  // measure 59
01000000
00100000
01000000
00000000
,  // measure 60
00001000
00001000
00001000
00001000
,  // measure 61
00020000
00000000
00000000
00000000
00000000
00000000
00000000
00030000
;

//---------------dance-double - ----------------
#NOTES:
     dance-double:
     :
     Medium:
     7:
     0.338,0.332,0.249,0.109,0.000: // measure 1
00010000
00001000
00010000
00001000
,  // measure 2
00010000
00001000
00010000
00001000
,  // measure 3
00010000
00001000
00010000
00001000
,  // measure 4
00010000
00001000
00010000
00000010
,  // measure 5
00000100
00000010
00000100
00000010
,  // measure 6
00000100
00000010
00000100
00000010
,  // measure 7
00010000
00001000
00010000
00001000
,  // measure 8
00100000
01000000
00100000
01000000
,  // measure 9
10000000
00001000
10000000
00001000
,  // measure 10
00010000
00001000
00010000
00001000
,  // measure 11
00010000
00000100
00010000
00000100
,  // measure 12
00001000
00000001
00001000
00000001
,  // measure 13
00010000
00011000
00010000
00011000
,  // measure 14
01000000
01100000
01000000
01100000
,  // measure 15
10000000
10010000
10000000
10010000
,  // measure 16
00100000
00101000
00100000
00101000
,  // measure 17
00001000
00011000
00001000
00011000
,  // measure 18
00010000
00010010
00010000
00010010
,  // measure 19
00000100
00000110
00000100
00000110
,  // measure 20
00000100
00000001
00001000
00000000
00000100
00010000
00000100
00000000
,  // measure 21
00011000
00100000
01000000
10000000
,  // measure 22
01000000
00100000
00011000
00010100
,  // measure 23
00011000
00000010
00000100
00000001
,  // measure 24
00000100
00000010
00011000
01001000
,  // measure 25
00011000
01000000
00100000
01001000
,  // measure 26
00011000
00000010
00000100
00010010
,  // measure 27
00011000
00100000
01000000
10000000
,  // measure 28
01100000
00000000
01100000
00000000
00100000
10000000
00010000
00000000
,  // measure 29
00100000
00001000
00100000
00000000
00002000
00000000
00013000
00000000
,  // measure 30
00000010
00000100
00000001
00000000
00000100
00000000
00000010
00000000
,  // measure 31
00010000
00000100
00010000
00000000
00002000
00000000
00013000
00000000
,  // measure 32
00001000
10000000
00100000
00000000
10000000
00000000
00001000
00000000
,  // measure 33
00100000
00001000
00100000
00000000
00002000
00000000
00013000
00000000
,  // measure 34
00000100
00001000
00000010
00000000
00000100
00000000
00000001
00000000
,  // measure 35
00000100
00000010
00000100
00000000
00000002
00000000
00010003
00000000
,  // measure 36
00001000
10000000
00100000
00000000
10000000
01000000
00100000
00000000
,  // measure 37
01100000
00000000
20000000
00000000
31000000
00100000
00001000
00010000
,  // measure 38
00000000
00000010
00000000
00000100
00000000
00000010
00000000
00010000
,  // measure 39
00000000
00001000
00020000
00000000
00000000
00000000
00000000
00000000
,  // measure 40
00000000
00000000
00000000
00000000
00000000
00001000
00000000
00031000
,  // measure 41
00100000
00000000
00020000
00000000
10030000
01000000
00100000
00001000
,  // measure 42
00000000
00010000
00000000
00001000
00000000
00011000
00000000
00000100
,  // measure 43
00000000
00011000
00000000
01000000
00000000
00011000
00000000
00000100
,  // measure 44
00000000
01000000
00000000
00011000
00000000
00000100
00000100
00000000
,  // measure 45
00020000
00001000
00001000
00031000
,  // measure 46
02000000
00100000
00100000
03100000
,  // measure 47
20000000
00010000
00010000
30010000
,  // measure 48
10000000
00000000
00100000
00000000
01000000
00001000
00001000
00000000
,  // measure 49
00020000
00001000
00001000
00031000
,  // measure 50
00020000
00000100
00000100
00030100
,  // measure 51
00002000
00000001
00000001
00003001
,  // measure 52
00001000
00000000
00000100
00000000
00010000
00001000
00001000
00000000
,  // measure 53
00010000
00001000
00010000
00001000
,  // measure 54
00100000
00010000
00100000
00010000
,  // measure 55
01000000
00100000
01000000
00100000
,  // measure 56
01000000
00001000
01000000
00001000
,  // measure 57
00010000
00000010
00010000
00000010
,  // measure 58
00000100
00000010
00000100
00000010
,  // measure 59
00001000
00000001
00001000
00000001
,  // measure 60
00000010
00000100
00010000
00000000
00001000
00010000
00001000
01000000
,  // measure 61
00200000
00000000
00000000
00000000
00000000
00000000
00000000
00300000
;

//---------------dance-double - ----------------
#NOTES:
     dance-double:
     :
     Hard:
     10:
     0.436,0.427,0.203,0.140,0.109: // measure 1
10000000
00100000
10000000
00100000
,  // measure 2
01000000
00001000
01000000
00001000
,  // measure 3
00010000
00001000
00010000
00001000
,  // measure 4
00010000
00000010
00010000
00000010
,  // measure 5
00010000
00000001
00000010
00000200
00000000
00000000
00000000
00000000
,  // measure 6
00010300
00000001
00000100
00000020
00000000
00000000
00000000
00000000
,  // measure 7
00001030
00000100
00010000
00002000
00000000
00000000
00000000
00000000
,  // measure 8
10003000
01000000
00100000
00002000
00000000
00000000
00000000
00000000
,  // measure 9
10003000
00100000
01000000
00002000
00000000
00000000
00000000
00000000
,  // measure 10
00013000
00000010
00000100
00000002
00000000
00000000
00000000
00000000
,  // measure 11
00010003
00001000
00000100
00000002
00000000
00000000
00000000
00000000
,  // measure 12
00000013
00000100
00010000
00002000
00000000
00000000
00000000
00000000
,  // measure 13
00013000
00010100
00000100
00010100
,  // measure 14
00000100
00010000
00001000
00000000
10000000
01000000
00010000
01000000
,  // measure 15
10000000
10010000
00010000
10010000
,  // measure 16
10000000
00001000
00010000
00000000
00001000
00010000
00000010
00000100
,  // measure 17
00000100
00000110
00000100
00000110
,  // measure 18
00000010
00010000
00001000
00000000
10000000
01000000
00010000
01000000
,  // measure 19
10000000
11000000
01000000
11000000
,  // measure 20
10000000
00000000
01000000
00000000
00001000
00000100
00000001
00000100
,  // measure 21
00001000
00000000
00000001
00001000
00000000
00001000
00000100
00000000
00000100
00010000
00000000
00010000
,  // measure 22
00001000
00000000
00001000
01000000
00000000
01000000
00100000
10000000
01000000
00100000
00000000
00000000
,  // measure 23
10000000
00000000
10000000
00100000
00000000
00100000
01000000
00000000
01000000
00001000
00000000
00001000
,  // measure 24
00010000
00000000
00010000
00000100
00000000
00000100
00001000
00000001
00000010
00000100
00000000
00000000
,  // measure 25
00010000
00000000
00010000
00000100
00000000
00000100
00010000
00000000
00000000
00011000
00000000
00000000
,  // measure 26
00001000
00000000
00001000
00100000
00000000
00100000
00001000
00000000
00000000
00011000
00000000
00000000
,  // measure 27
00010000
00000000
00010000
00000001
00000000
00000001
00000010
00000000
00000010
00000100
00000000
00000000
,  // measure 28
00011000
00011000
01100000
01100000
,  // measure 29
10000000
10000000
10000000
00001000
10000000
00000000
01000000
00100000
,  // measure 30
01000000
00100000
00001000
00010000
00001000
00010000
00000010
00000000
,  // measure 31
00010000
00010000
00010000
00000001
00010000
00000000
00000010
00000100
,  // measure 32
00000010
00000100
00000010
00010000
00000010
00010000
00001000
00000000
,  // measure 33
10000000
10000000
10000000
00001000
10000000
00000000
00100000
01000000
,  // measure 34
00100000
01000000
00001000
00010000
00001000
00010000
00000100
00000000
,  // measure 35
00001000
00001000
00001000
00000001
00001000
00000000
00000001
00000100
,  // measure 36
00010000
01000000
10000000
01000000
00010000
10000000
00001000
00010000
,  // measure 37
00001000
00000000
00011000
00000000
00001000
00010000
00001000
02000000
,  // measure 38
00000000
03200000
00000000
00302000
00000000
00203000
00000000
02300000
,  // measure 39
00000000
03001000
00010000
00000000
00001000
00000000
10000000
00000000
,  // measure 40
00100000
00000000
01000000
00000000
00002000
00010000
00000000
00013000
,  // measure 41
00001000
00000000
00011000
00000000
00010000
00001000
00010000
00000200
,  // measure 42
00000000
00000320
00000000
00000230
00000000
00010300
00000000
00010100
,  // measure 43
00000000
00001000
00000000
01001000
00000000
00010000
00000000
00010100
,  // measure 44
00000000
00001000
00000000
01001000
00000000
00010000
00001000
00000000
,  // measure 45
00011000
00000000
00000010
00000000
00000100
00000001
00000100
00000000
,  // measure 46
00000110
00000000
00010000
00000000
00001000
00100000
00001000
00000000
,  // measure 47
01100000
00000000
01000000
00000000
00010000
10000000
00010000
00000000
,  // measure 48
00100000
00001000
00100000
00000000
00001000
00010000
00010000
00000000
,  // measure 49
00011000
00000000
00000010
00000000
00000100
00000010
00000100
00000000
,  // measure 50
00001001
00000000
00000100
00000000
00000010
00010000
00000010
00000000
,  // measure 51
00011000
00000000
00001000
00000000
01000000
00100000
01000000
00000000
,  // measure 52
00001000
00010000
00001000
00000000
10000000
00010000
00010000
00000000
,  // measure 53
01000000
00100000
01000000
00100000
01000000
00100000
01000000
00100000
,  // measure 54
01000000
00001000
01000000
00001000
01000000
00001000
01000000
00001000
,  // measure 55
00010000
00001000
00010000
00001000
00010000
00001000
00010000
00001000
,  // measure 56
00000010
00001000
00000010
00001000
00000010
00001000
00000010
00001000
,  // measure 57
00000010
00000001
00000010
00000001
00000010
00000001
00000010
00000001
,  // measure 58
00010000
00000010
00000100
00000010
00010000
00000010
00000100
00000010
,  // measure 59
00010000
00001000
00100000
01000000
00100000
00001000
00100000
01000000
,  // measure 60
00100000
00000000
00001000
00010000
00000000
00001000
00000000
00001000
00000000
00001000
00000000
00010000
00001000
00000000
00010000
00000000
,  // measure 61
00000200
00000000
00000000
00000000
00000000
00000000
00000000
00000300
;

//---------------dance-double - ----------------
#NOTES:
     dance-double:
     :
     Challenge:
     12:
     0.524,0.569,0.280,0.148,0.253: // measure 1
00001000
00010000
00001000
00000000
00001000
00010000
00001000
00000000
,  // measure 2
00100000
00001000
00100000
00000000
00100000
00001000
00100000
00000000
,  // measure 3
00001000
00010000
00001000
00000000
00001000
00010000
00001000
00000000
,  // measure 4
00010000
00000100
00010000
00000100
00010000
00000010
00000100
00000000
,  // measure 5
00000001
00000010
00000100
00020000
00002000
00000000
00000000
00033000
,  // measure 6
10000000
01000000
00100000
00002000
00020000
00000000
00000000
00033000
,  // measure 7
00000001
00000100
00000010
00020000
00002000
00000000
00000000
00033000
,  // measure 8
10000000
00100000
01000000
00002000
00020000
00000000
00000000
00033000
,  // measure 9
00000001
00000010
00000100
00020000
00002000
00000000
00000000
00033000
,  // measure 10
10000000
01000000
00100000
00002000
00020000
00000000
00000000
00033000
,  // measure 11
00000001
00000100
00000010
00020000
00002000
00000000
00000000
00033000
,  // measure 12
10000000
00100000
01000000
00002000
00020000
00000000
00000000
00033000
,  // measure 13
00000100
00011000
01000000
00011000
,  // measure 14
00000100
00000010
00000001
00000000
00000100
00000010
00010000
00001000
,  // measure 15
01000000
00011000
00000100
00011000
,  // measure 16
00100000
01000000
10000000
00000000
00100000
01000000
00001000
00010000
,  // measure 17
00000100
00011000
01000000
00011000
,  // measure 18
00000010
00000100
00000001
00000000
00000010
00000100
00010000
00001000
,  // measure 19
01000000
00011000
00000100
00011000
,  // measure 20
01000000
00100000
10000000
01000000
00100000
00001000
00010000
00000010
,  // measure 21
00000100
00000000
00000001
00001000
00000100
00001000
00000010
00000100
00000010
00010000
00001000
10000000
,  // measure 22
01000000
00100000
00001000
00010000
00000010
00000100
00000001
00010000
00001000
00011000
00000000
00000000
,  // measure 23
01000000
00010000
10000000
00010000
01000000
00100000
01000000
00001000
00010000
00000010
00000100
00000001
,  // measure 24
00000010
00000100
00010000
00001000
01000000
00100000
10000000
00001000
00010000
00011000
00000000
00000000
,  // measure 25
00001000
00100000
10000000
00100000
00001000
00010000
00000010
00000100
00000010
00000110
00000000
00000000
,  // measure 26
00010000
00000100
00000001
00000100
00010000
00001000
01000000
00100000
01000000
01100000
00000000
00000000
,  // measure 27
10000000
01000000
00100000
01000000
10001000
00010000
00000010
00000100
00000001
00000100
00000000
00000100
,  // measure 28
00000010
00000000
00000010
00010000
00000000
00010000
00001000
00000000
00001000
10000000
00000000
00000000
,  // measure 29
10010000
00010000
00010000
00010000
01000000
00100000
10000000
01000000
,  // measure 30
00100000
00001000
00010000
00000010
00000100
00000001
00001000
00000000
,  // measure 31
00001001
00000001
00000001
00000001
00000010
00000100
00010000
00001000
,  // measure 32
01000000
00100000
10000000
01000000
10000000
00010000
00100000
00000000
,  // measure 33
10010000
00010000
00010000
00010000
10000000
00100000
00010000
00100000
,  // measure 34
01000000
00001000
00010000
00000010
00000100
00000001
00000010
00000000
,  // measure 35
00001001
00000001
00000001
00000001
00010000
00000100
00000001
00000100
,  // measure 36
00010000
00000001
00010000
00000001
00000000
00000001
00000000
00000001
00000000
00000001
00000000
00010000
00001000
00010000
00001000
00010000
,  // measure 37
00001000
01000000
00100000
01000000
00001000
00010000
00000010
00000100
,  // measure 38
00000000
00001001
00000000
00000110
00000000
00011000
00000000
02100000
,  // measure 39
00000000
00100000
03100000
10000000
01000000
10000000
00010000
00000000
,  // measure 40
00100000
00001000
00010000
00001000
00100000
00001000
00001000
00010000
,  // measure 41
00010000
00000100
00000010
00000100
00010000
00001000
00010000
00001000
,  // measure 42
00100000
01000000
10000000
01000000
00100000
00001000
00000000
00011000
,  // measure 43
00000000
00000010
00000000
00000110
00000000
00000001
00000000
00000011
,  // measure 44
00000000
00000100
00000000
00000210
00000000
00000010
00000310
00000000
,  // measure 45
00011000
00000000
00010000
00000000
00001000
01000000
00100000
00000000
,  // measure 46
01100000
00000000
01000000
00000000
00010000
00100000
00001000
00000000
,  // measure 47
00011000
00000000
00001000
00000000
00010000
00001000
00100000
00000000
,  // measure 48
00010000
01000000
00100000
00000000
10000000
00010000
10010000
00000000
,  // measure 49
11000000
00000000
00110000
00000000
00100000
01000000
00001000
00000000
,  // measure 50
00011000
00000000
00010100
00000000
00001000
00000100
00000010
00000000
,  // measure 51
00000110
00000000
00011000
00000000
00001000
00100000
00010000
00000000
,  // measure 52
00100000
01000000
10000000
00000000
00010000
10000000
10010000
00000000
,  // measure 53
00100000
00001000
00010000
00001000
00100000
00001000
00010000
00001000
,  // measure 54
00100000
00001000
00010000
00001000
00100000
00001000
00010000
00001000
,  // measure 55
00100000
00001000
00010000
00000010
00000100
00000010
00010000
00000010
,  // measure 56
00000100
00000010
00001000
00000100
00000010
00000100
00001000
00000100
,  // measure 57
00000010
00000100
00001000
00000010
00010000
00001000
00010000
00000010
,  // measure 58
00010000
00001000
00010000
00000010
00010000
00001000
00010000
00000010
,  // measure 59
00010000
00001000
01000000
00001000
00010000
00001000
01000000
00001000
,  // measure 60
00010000
00001000
00010000
00001000
00000000
00001000
00000000
00001000
00000000
00001000
00000000
01000000
00100000
01000000
00100000
01000000
,  // measure 61
00002000
00000000
00000000
00000000
00000000
00000000
00000000
00003000
;

//---------------dance-single - ----------------
#NOTES:
     dance-single:
     :
     Beginner:
     2:
     0.076,0.140,0.078,0.000,0.000:
0001
0000
0000
0000
,
0000
0000
0000
0000
,
0001
0000
0000
0000
,
0000
0000
0000
0000
,
1000
0000
0000
0000
,
0000
0000
0000
0000
,
1000
0000
0000
0000
,
0000
0000
0000
0000
,
0001
0000
0000
0000
,
0000
0000
0000
0000
,
0001
0000
0000
0000
,
0000
0000
0000
0000
,
1000
0000
0000
0000
,
0100
0000
0000
0000
,
0010
0000
0000
0000
,
0000
0000
0000
0000
,
0001
0000
0000
0000
,
0010
0000
0000
0000
,
0100
0000
0000
0000
,
0000
0000
0000
0000
,
1000
0000
0000
0000
,
0010
0000
0000
0000
,
0100
0000
0000
0000
,
0010
0000
0000
0000
,
1000
0000
0000
0001
,
1000
0000
0000
0001
,
1000
0000
0000
0000
,
0001
0000
0000
0000
,
1001
0000
0001
0000
,
1000
0000
0000
0000
,
1001
0000
0001
0000
,
1000
0000
0000
0000
,
1001
0000
1000
0000
,
0001
0000
0000
0000
,
1001
0000
1000
0000
,
0001
0000
0000
0000
,
0100
0000
0000
0000
,
0010
0000
0000
0000
,
0100
0000
0000
0000
,
0000
0000
0000
0000
,
0010
0000
0000
0000
,
0100
0000
0000
0000
,
0010
0000
0000
0000
,
1000
0000
0000
0000
,
1001
0000
0000
0000
,
1001
0000
0000
0000
,
0110
0000
0000
0000
,
0010
0000
0000
0000
,
0110
0000
0000
0000
,
0110
0000
0000
0000
,
1001
0000
0000
0000
,
0001
0000
0000
0000
,
1000
0000
0000
0000
,
0100
0000
0000
0000
,
0010
0000
0000
0000
,
0001
0000
0000
0000
,
0010
0000
0000
0000
,
0100
0000
0000
0000
,
1000
0000
0000
0000
,
0001
0000
0000
0000
,
0100
0000
0000
0000
;
