#TITLE:Metric;
#SUBTITLE:;
#ARTIST:Hommarju;
#TITLETRANSLIT:;
#SUBTITLETRANSLIT:;
#ARTISTTRANSLIT:;
#CREDIT:DigiMindAxel;
#BANNER:Metric.png;
#BACKGROUND:Metric-bg.png;
#LYRICSPATH:;
#CDTITLE:jubeat.png;
#MUSIC:Metric.ogg;
#METERTYPE:DDR X;
#OFFSET:-8.840;
#SAMPLESTART:32.239;
#SAMPLELENGTH:12.000;
#SELECTABLE:YES;
#BPMS:0.000=123.000;
#STOPS:0.000=0.488
,1.000=0.488
,2.000=0.488
,5.000=0.488
,6.000=0.488
,7.000=0.488
,18.000=0.488
,19.000=0.488
,20.000=0.488
;
#BGCHANGES:;

//---------------dance-single - ----------------
#NOTES:
     dance-single:
     :
     Easy:
     3:
     0.165,0.222,0.248,0.017,0.000:
1001
0001
1001
0000
,
0000
1001
1000
1001
,
0000
0000
1001
0000
,
0001
0000
1001
0000
,
0000
0000
1001
1000
,
1001
0000
0000
0010
,
0000
0010
0000
0010
,
0000
0010
0000
0110
,
0000
0010
0000
0110
,
0000
0000
0000
1001
,
0000
1000
0000
0100
,
0000
1000
1000
1000
,
0000
0001
0000
0010
,
0000
0001
0001
0001
,
0000
0100
0000
0010
,
0000
0100
0100
0100
,
0000
0001
0000
1000
,
0000
0100
0100
1001
,
0000
1000
0000
1000
,
0000
0000
0000
1001
,
0000
0001
0000
0001
,
0000
0000
0000
1001
,
0000
1000
0000
1000
,
0000
0000
0000
1001
,
0000
0001
0000
0001
,
0000
0000
0000
0110
,
0000
0000
0000
0000
,
0000
0000
0000
0010
,
0000
0000
0000
0010
,
0000
0000
0000
0110
,
0000
0000
0000
0100
,
0000
0000
0000
0100
,
0000
0000
0000
0100
,
0000
0000
0000
1001
,
0000
0000
0000
1001
,
0000
0100
0100
0110
,
0000
0000
0000
0110
,
0000
0010
0010
0110
,
0000
0000
0000
1001
,
0000
1000
1000
1001
,
0000
0000
0000
1001
,
0000
0100
0100
0110
,
0000
0010
0000
0100
,
0000
0010
0000
1000
,
1000
1000
0000
2002
,
0000
0000
3003
0001
,
0100
0001
0000
1001
,
0000
1000
1000
0001
,
0010
0001
0000
1000
,
0100
1000
1000
1001
,
0000
0010
0000
0100
,
0001
0100
0001
1000
,
0000
0100
0000
1000
,
0001
1000
0010
0110
;

//---------------dance-single - ----------------
#NOTES:
     dance-single:
     :
     Medium:
     7:
     0.298,0.311,0.471,0.132,0.000:
1001
1001
1001
0000
,
0000
1100
1100
1100
,
0000
0000
0101
0001
,
0101
0001
0101
0000
,
0000
0000
1001
1001
,
1001
0100
0100
0110
,
0010
0010
0010
0010
,
0010
0000
0010
0000
0010
0000
0010
0100
,
0010
0100
0010
0100
0010
0100
0010
0000
,
0000
0000
0000
1001
,
0010
0100
1000
0010
,
0100
0001
1000
0000
1000
0000
1001
0000
,
0001
0010
0100
0000
0010
0000
0001
0000
,
0100
0010
0100
0000
0001
0000
1001
0000
,
1000
0000
0100
1000
0010
0100
0001
0000
,
1000
0100
1000
0000
1001
0000
1001
0000
,
0001
0000
0010
0000
0100
1000
0010
0000
,
0100
0101
0001
1001
,
0000
1100
0000
0011
,
0000
0010
0010
0110
,
0000
1010
0000
0101
,
0000
1000
1000
1001
,
0000
0011
0000
1100
,
0000
0010
0010
0110
,
0000
0101
0000
1010
,
1000
1000
1000
1002
,
0000
0000
0000
0023
,
0000
0000
0000
0230
,
0000
0000
0000
0320
,
0000
0000
0030
1002
,
0000
0000
0000
2003
,
0000
0000
0000
3200
,
0000
0000
0000
0320
,
0000
0000
0030
2002
,
0000
0000
3003
0110
,
0000
0101
0101
2002
,
0000
0000
3003
1100
,
0000
1100
1100
2002
,
0000
0000
3003
1001
,
0000
1010
1010
2002
,
0000
0000
3003
1001
,
0000
0011
0011
1001
,
1000
0001
1000
0001
,
1000
0000
0001
0000
1000
0000
0100
0010
,
0100
0010
0100
0010
0100
0010
0100
0000
,
0000
0000
0110
1010
,
1000
0001
0010
0000
0100
1000
0001
0100
,
0001
1000
1000
1001
,
0001
0010
0100
0000
1000
0010
1000
0000
,
0001
0000
0010
0001
0010
0001
1000
0000
,
0100
0000
0010
0000
0100
1000
0010
0000
,
0100
0001
1000
0000
1000
0000
1001
0000
,
0001
0010
0100
0000
1000
0000
0010
0010
,
0010
0110
1001
0110
;

//---------------dance-single - ----------------
#NOTES:
     dance-single:
     :
     Hard:
     10:
     0.482,0.467,0.752,0.058,0.240:
1010
0000
0101
0000
1001
0001
1000
0100
,
0010
0001
0011
0000
1100
0000
0110
0010
,
1000
0001
0001
1000
1010
0000
0100
0001
,
0101
0000
1000
0001
1001
0000
0100
1000
,
0001
0100
0100
0001
1001
0000
1100
0000
,
0011
0001
1000
0100
0100
1000
1001
0000
,
1001
1001
1001
1001
,
1001
0000
1001
0000
1001
0000
0001
1000
,
0001
0000
1000
0000
0001
1000
0001
1000
0001
1000
0001
1000
0002
0000
0000
0000
,
0000
0000
0000
0000
0013
0000
0001
1000
,
0100
0000
0001
0000
0100
0000
1000
0000
0001
0100
0000
0001
0000
0000
0010
0000
,
0100
1000
1010
0000
1010
0000
1010
1000
,
0001
0000
0010
0000
1000
0000
0010
0000
0001
1000
0000
0100
0000
0000
1000
0000
,
0001
0100
0110
0000
0110
0000
0110
0010
,
1000
0000
0100
0000
0010
0000
0001
0100
0001
0100
0001
0100
0010
0000
1000
0000
,
0001
0010
0110
0000
0110
0000
0110
0010
,
1000
0000
0100
0000
0001
0000
0100
0000
1000
0010
0000
0100
0000
0000
0001
0000
,
1000
0100
1100
0000
0011
0000
1001
1000
,
0010
0000
0000
0000
0011
0000
0001
0000
1000
0010
0000
0100
0000
0000
0001
0000
,
1000
0001
0101
0000
0101
0000
0101
0000
,
1001
0000
0000
1000
0100
0000
1000
0000
0010
0100
0000
0100
0000
0000
0001
0000
,
1000
0001
0011
0000
0011
0000
0011
0000
,
0001
1000
0000
0010
0000
1000
0001
0000
0100
0010
0000
0010
0000
0000
1000
0000
,
1010
1010
1010
1001
,
1000
0001
0000
0010
0000
0001
1000
0000
0010
0100
0000
0100
0001
0000
0000
0001
,
0000
0001
1001
0000
1001
0000
2002
0000
,
0000
0000
0003
0020
,
0000
0000
3000
0200
,
0000
0000
0030
0002
,
0000
0000
0303
1001
,
1000
1000
1000
0001
,
0001
0001
0001
0010
,
0010
0010
0010
0100
,
0100
0100
0100
1001
,
0000
1000
0000
0100
0000
0000
1000
0000
0000
1001
0000
0101
0000
0000
0000
0000
,
0000
0110
0110
0110
,
0000
0100
0000
0001
0000
0000
0100
0000
0000
1001
0000
1100
0000
0000
0000
0000
,
1001
0101
0101
0101
,
0001
1000
0000
0100
0000
0000
1000
0000
0000
1001
0000
0101
0000
0000
0000
0000
,
0100
1100
1100
1100
,
1000
0001
0000
0100
0000
0000
0001
0000
0000
1001
0000
1100
0000
0000
0000
0000
,
1001
1010
1010
1001
,
1001
1001
1001
1001
,
1001
0000
1001
0000
1001
0000
1000
0001
,
1000
0000
0001
0000
1000
0001
1000
0001
1000
0001
1000
0001
2000
0000
0000
0000
,
0000
0000
0000
0000
3100
0000
1001
0001
,
1000
0000
0010
0000
0001
0000
0010
0000
1000
0001
0000
0001
0100
0000
0010
0000
,
1000
0001
0011
0000
0011
0000
0011
0001
,
1000
0000
0100
0000
0010
0000
0100
0000
1000
0001
0000
0001
0100
0000
0010
0000
,
1000
0100
1100
0000
1100
0000
1100
1000
,
0001
0000
0010
0000
1000
0000
0010
0000
0001
1000
0000
1000
0100
0000
0010
0000
,
0100
1000
1001
0000
1001
0000
1001
1000
,
0001
0000
0010
0000
1000
0000
0010
0000
0001
1000
0000
1000
0010
0000
0000
0010
,
0000
0010
1010
0000
0101
0000
1001
0000
;

//---------------dance-double - ----------------
#NOTES:
     dance-double:
     :
     Easy:
     4:
     0.169,0.222,0.265,0.017,0.000:
10010000
10000000
10010000
00000000
,
00000000
01100000
01000000
01100000
,
00000000
00000000
00011000
00000000
,
00001000
00000000
00011000
00000000
,
00000000
00000000
00011000
00010000
,
00011000
00000000
00000000
00000001
,
00000000
00000001
00000000
00000001
,
00000000
00000001
00000000
00001001
,
00000000
00001001
00000000
00001001
,
00000000
00000000
00000000
00000110
,
00000000
00000100
00000000
00000010
,
00000000
00010000
00010000
00010000
,
00000000
00001000
00000000
00010000
,
00000000
00000001
00000001
00001000
,
00000000
00000100
00000000
00010000
,
00000000
00001000
00001000
00001000
,
00000000
01000000
00000000
00100000
,
00000000
10000000
10000000
10010000
,
00000000
00010000
00000000
00010000
,
00000000
00000000
00000000
00011000
,
00000000
00001000
00000000
00001000
,
00000000
00000000
00000000
00001001
,
00000000
00001000
00000000
00001000
,
00000000
00000000
00000000
00000110
,
00000000
00000100
00000000
00000100
,
00000000
00000000
00000000
00001001
,
00000000
00000000
00000000
00000001
,
00000000
00000000
00000000
00010000
,
00000000
00000000
00000000
00001000
,
00000000
00000000
00000000
01100000
,
00000000
00000000
00000000
01000000
,
00000000
00000000
00000000
01000000
,
00000000
00000000
00000000
01000000
,
00000000
00000000
00000000
01100000
,
00000000
00000000
00000000
01100000
,
00000000
00001000
00001000
00011000
,
00000000
00000000
00000000
00011000
,
00000000
00001000
00001000
00001001
,
00000000
00000000
00000000
00001001
,
00000000
00000010
00000010
00000110
,
00000000
00000000
00000000
00011000
,
00000000
00010000
00010000
00011000
,
00000000
00001000
00000000
00010000
,
00000000
00001000
00000000
00010000
,
00010000
00011000
00000000
02200000
,
00000000
00000000
03300000
10000000
,
00100000
10000000
00000000
10010000
,
00000000
10000000
10000000
00001000
,
00010000
00001000
00000000
00010000
,
00000001
00000100
00000100
00000110
,
00000000
00000010
00000000
00001000
,
00000001
00001000
00000001
00010000
,
00000000
00001000
00000000
00100000
,
01000000
10000000
10000000
10010000
;

//---------------dance-double - ----------------
#NOTES:
     dance-double:
     :
     Medium:
     7:
     0.300,0.311,0.422,0.141,0.000:
00011000
00011000
00011000
00000000
,
00000000
11000000
11000000
11000000
,
00000000
00000000
00011000
00010000
,
00011000
00010000
00011000
00000000
,
00000000
00000000
00000110
00000110
,
00000110
00000001
00000001
00001001
,
00001000
00001000
00001000
00001000
,
00001000
00000000
00001000
00000000
00001000
00000000
00001000
00000001
,
00001000
00000001
00001000
00000001
00001000
00000001
00001000
00000000
,
00000000
00000000
00000000
00001001
,
00000010
00000100
00010000
00001000
,
01000000
00100000
10000000
00000000
10000000
00000000
10010000
00000000
,
00010000
00100000
01000000
00000000
00100000
00000000
00001000
00000000
,
00010000
00000010
00000100
00000000
00000001
00000000
00001001
00000000
,
00001000
00000000
00000100
00001000
00000010
00000100
00000001
00000000
,
00010000
00001000
00010000
00000000
00011000
00000000
00011000
00000000
,
00001000
00000000
01000000
00000000
00100000
10000000
00010000
00000000
,
00010000
01010000
01000000
01001000
,
00000000
00011000
00000000
00010010
,
00000000
00000100
00000100
00000110
,
00000010
00000100
00000001
00000010
,
00000100
00010000
00010000
00011000
,
00001000
01000000
00100000
10000000
,
00100000
01000000
01000000
01100000
,
00001000
00010000
00000010
00000110
,
00000100
00000100
00000100
00002001
,
00000000
00000000
00000000
00003020
,
00000000
00000000
00000000
00020030
,
00000000
00000000
00000000
00032000
,
00000000
00000000
00003000
00201000
,
00000000
00000000
00000000
00320000
,
00000000
00000000
00000000
02030000
,
00000000
00000000
00000000
03200000
,
00000000
00000000
00300000
02200000
,
00000000
00000000
03300000
10010000
,
00000000
00011000
00011000
00022000
,
00000000
00000000
00033000
00000110
,
00000000
00000101
00000101
00000202
,
00000000
00000000
00000303
00011000
,
00000000
00101000
00101000
00202000
,
00000000
00000000
00303000
01100000
,
00000000
10010000
10010000
10010000
,
00010000
10000000
00010000
10000000
,
00010000
00000000
10000000
00000000
00010000
00000000
10000000
00010000
,
10000000
00010000
10000000
00010000
10000000
00010000
20000000
00000000
,
00000000
00000000
30010000
10010000
,
00010000
10000000
01000000
00000000
00100000
00010000
10000000
00100000
,
10000000
00001000
00001000
00011000
,
00010000
00000100
00000010
00000000
00000001
00000100
00000001
00000000
,
00001000
00000000
00000100
00001000
00000100
00001000
00000010
00000000
,
00010000
00000000
00001000
00000000
00010000
00001000
01000000
00000000
,
00100000
01000000
00010000
00000000
00010000
00000000
10010000
00000000
,
10000000
01000000
00100000
00000000
00001000
00000000
00010000
00000000
,
00000010
00000110
00001001
00000110
;

//---------------dance-double - ----------------
#NOTES:
     dance-double:
     :
     Hard:
     10:
     0.483,0.467,0.736,0.058,0.252:
11000000
00000000
01100000
00000000
00110000
00010000
10000000
01000000
,
00100000
00001000
00011000
00000000
00010100
00000000
00001001
00000001
,
00000100
00000010
00010000
00001000
00011000
00000000
01000000
00100000
,
01100000
00000000
10000000
00010000
10010000
00000000
01000000
10000000
,
00001000
00010000
00010000
00000010
00001010
00000000
00000101
00000000
,
00000110
00000010
00001000
00000100
00000100
00010000
00011000
00000000
,
00011000
00011000
00011000
01100000
,
01100000
00000000
01100000
00000000
01100000
00000000
10000000
00010000
,
10000000
00000000
00010000
00000000
10000000
00010000
10000000
00010000
10000000
00010000
10000000
00010000
20000000
00000000
00000000
00000000
,
00000000
00000000
00000000
00000000
30001000
00000000
10000000
01000000
,
10000000
00000000
01000000
00000000
00010000
00000000
01000000
00000000
10000000
00100000
00000000
01000000
00000000
00000000
00001000
00000000
,
00010000
00001000
01001000
00000000
01001000
00000000
01001000
00001000
,
00010000
00000000
00000100
00000000
00010000
00000000
00000100
00000000
00000010
00000001
00000000
00001000
00000000
00000000
00000010
00000000
,
00010000
00001000
00011000
00000000
00011000
00000000
00011000
00001000
,
01000000
00000000
00001000
00000000
01000000
00000000
00100000
01000000
00100000
01000000
00100000
01000000
00100000
00000000
10000000
00000000
,
00100000
01000000
01001000
00000000
01001000
00000000
01001000
00001000
,
00010000
00000000
00000100
00000000
00000010
00000000
00000100
00000000
00010000
00000010
00000000
00000100
00000000
00000000
00000001
00000000
,
00001000
00000100
00001100
00000000
00010100
00000000
00011000
00001000
,
00001000
00000000
00000000
00000000
01100000
00000000
01000000
00000000
01000000
00010000
00000000
10000000
00000000
00000000
00001000
00000000
,
00010000
00001000
00010000
00000000
00010100
00000000
00000000
00000000
00010100
00000000
00000000
00000000
00010100
00000000
00000000
00000000
,
00001001
00000000
00000000
00000001
00001000
00000000
00000100
00000000
00010000
00001000
00000000
00001000
00000000
00000000
01000000
00010000
,
01000000
00010000
01000000
00000000
01100000
00000000
00000000
00000000
01100000
00000000
00000000
00000000
01100000
00000000
00000000
00000000
,
10000000
00010000
00000000
00100000
00000000
00010000
10000000
00000000
00001000
00100000
00000000
00100000
00000000
00000000
00001000
00000000
,
00011000
00011000
00011000
00010001
,
00000001
00001000
00000000
00000010
00000000
00001000
00000001
00000000
00010000
00000010
00000000
00000010
00010000
00000000
00000000
00010000
,
00000000
00010000
01001000
00000000
01001000
00000000
02200000
00000000
,
00000000
00000000
00300000
00020000
,
00000000
00000000
03000000
20000000
,
00000000
00000000
00030000
02000000
,
00000000
00000000
33000000
10000000
,
01000000
10000000
01000000
00100000
,
00001000
00100000
00001000
00010000
,
00000010
00010000
00000010
00000100
,
00000001
00000100
00000001
00001001
,
00000000
00000100
00000000
00000010
00000000
00000000
00001000
00000000
00000000
00001100
00000000
00010100
00000000
00000000
00000000
00000000
,
00000000
10001000
10001000
10001000
,
00000000
01000000
00000000
00100000
00000000
00000000
00010000
00000000
00000000
00110000
00000000
00101000
00000000
00000000
00000000
00000000
,
00011000
00010001
00010001
00010001
,
00000001
00000100
00000000
00000010
00000000
00000000
00010000
00000000
00000000
00010010
00000000
00011000
00000000
00000000
00000000
00000000
,
00001000
01100000
01100000
01100000
,
10000000
01000000
00000000
00100000
00000000
00000000
00001000
00000000
00000000
00101000
00000000
00011000
00000000
00000000
00000000
00000000
,
00011000
00010010
00010010
00000110
,
00000110
00000110
00000110
00011000
,
00011000
00000000
00011000
00000000
00011000
00000000
01000000
00100000
,
01000000
00000000
00100000
00000000
01000000
00100000
01000000
00100000
01000000
00100000
01000000
00100000
02000000
00000000
00000000
00000000
,
00000000
00000000
00000000
00000000
03010000
00000000
10000000
00010000
,
10000000
00000000
00100000
00000000
00010000
00000000
00100000
00000000
10000000
00001000
00000000
00001000
10000000
00000000
01000000
00000000
,
00100000
00001000
00011000
00000000
00011000
00000000
00011000
00010000
,
00000001
00000000
00000100
00000000
00001000
00000000
00000100
00000000
00000001
00010000
00000000
00010000
00000001
00000000
00000100
00000000
,
00000010
00010000
00011000
00000000
00011000
00000000
00011000
00001000
,
10000000
00000000
00100000
00000000
00010000
00000000
00100000
00000000
10000000
00001000
00000000
00001000
10000000
00000000
00100000
00000000
,
01000000
00001000
00011000
00000000
00011000
00000000
00011000
00010000
,
00000001
00000000
00000010
00000000
00001000
00000000
00000010
00000000
00000001
00010000
00000000
00010000
00001000
00000000
00000000
00001000
,
00000000
00001000
00011000
00000000
01001000
00000000
01100000
00000000
;

//---------------dance-single - ----------------
#NOTES:
     dance-single:
     :
     Beginner:
     2:
     0.116,0.178,0.198,0.000,0.000: // measure 1
1001
0001
0001
0000
,  // measure 2
0000
1001
1000
1000
,  // measure 3
0000
0000
1001
0000
,  // measure 4
0001
0000
0001
0000
,  // measure 5
0000
0000
1001
1000
,  // measure 6
1000
0000
0000
1001
,  // measure 7
0000
0001
0000
0001
,  // measure 8
0000
0001
0000
0001
,  // measure 9
0000
0001
0000
1001
,  // measure 10
0000
0000
0000
1000
,  // measure 11
0000
0000
0000
0100
,  // measure 12
0000
0010
0000
0010
,  // measure 13
0000
0000
0000
0100
,  // measure 14
0000
0000
0000
1000
,  // measure 15
0000
0000
0000
0001
,  // measure 16
0000
0001
0000
0010
,  // measure 17
0000
0000
0000
0100
,  // measure 18
0000
1000
0000
1001
,  // measure 19
0000
0001
0000
0000
,  // measure 20
0000
0000
0000
1001
,  // measure 21
0000
1000
0000
1000
,  // measure 22
0000
0000
0000
0110
,  // measure 23
0000
0010
0000
0010
,  // measure 24
0000
0110
0000
0110
,  // measure 25
0000
0100
0000
0001
,  // measure 26
0000
0000
0000
1001
,  // measure 27
0000
0000
0000
0000
,  // measure 28
0000
0000
0000
0000
,  // measure 29
0000
0000
0000
0000
,  // measure 30
0000
0000
0000
1001
,  // measure 31
0000
0000
0000
0000
,  // measure 32
0000
0000
0000
0000
,  // measure 33
0000
0000
0000
0000
,  // measure 34
0000
0000
0000
0110
,  // measure 35
0000
0000
0000
0110
,  // measure 36
0000
0000
0000
1001
,  // measure 37
0000
0000
0000
1001
,  // measure 38
0000
0000
0000
0110
,  // measure 39
0000
0000
0000
0110
,  // measure 40
0000
0000
0000
1001
,  // measure 41
0000
0000
0000
1001
,  // measure 42
0000
0000
0000
1001
,  // measure 43
0000
1000
0000
1000
,  // measure 44
0000
1000
0000
1000
,  // measure 45
0000
1000
0000
1001
,  // measure 46
0000
0000
0000
0001
,  // measure 47
0000
0000
0000
0010
,  // measure 48
0000
0100
0000
0100
,  // measure 49
0000
0010
0000
0001
,  // measure 50
0000
0000
0000
1000
,  // measure 51
0000
0010
0000
0100
,  // measure 52
0000
0100
0000
0010
,  // measure 53
0000
1000
0000
0001
,  // measure 54
0000
1000
0000
1001
;
