#TITLE:Magic Gun;
#SUBTITLE:;
#ARTIST:colorfulsoundworld;
#TITLETRANSLIT:;
#SUBTITLETRANSLIT:;
#ARTISTTRANSLIT:;
#CREDIT:DigiMindAxel;
#BANNER:Magic Gun.png;
#BACKGROUND:Magic Gun-bg.png;
#LYRICSPATH:;
#CDTITLE:DigiMindAxel original simfile.png;
#MUSIC:Magic Gun.ogg;
#METERTYPE:DDR X;
#OFFSET:-3.021;
#SAMPLESTART:5.980;
#SAMPLELENGTH:12.000;
#SELECTABLE:YES;
#BPMS:0.000=162.000;
#STOPS:;
#BGCHANGES:;

//---------------dance-single - ----------------
#NOTES:
     dance-single:
     :
     Easy:
     6:
     0.346,0.321,0.101,0.000,0.000:
0001
0001
0001
0001
,
1000
1000
1000
0000
,
1000
1000
1000
1000
,
0001
0001
0001
0000
,
0100
0100
0100
0100
,
0001
0001
0001
0000
,
1000
1000
0010
0010
,
1000
1000
0001
0010
,
0001
0001
0010
0010
,
0001
0001
1000
0010
,
1000
0001
0000
0000
,
0001
1000
0000
0000
,
1000
0010
0000
0000
,
0010
0100
0000
0000
,
0100
0001
0001
0001
,
1000
1000
1000
1000
,
0010
0100
0010
0100
,
0010
1000
0010
1000
,
0001
0001
1000
1000
,
0001
0010
0100
1000
,
0001
0001
1000
1000
,
0001
0001
1000
0100
,
0010
0010
0001
0001
,
1000
1000
0100
0100
,
1000
0100
0010
0001
,
1000
0100
0010
0001
,
0100
0100
0001
0001
,
1000
1000
0010
0010
,
1000
0010
0100
0001
,
1000
0010
0100
0001
,
0010
0100
1000
0001
,
0100
1000
0100
0001
,
1000
0100
0010
0001
,
1000
0100
0001
0100
,
1000
0010
0100
0001
,
0010
1000
0010
0001
,
0100
0010
1000
0100
,
0001
0100
1000
0010
,
0100
0010
0100
0010
,
1000
0100
0010
0001
,
1000
0010
1000
0001
,
0010
0100
1000
0001
,
1000
1000
0001
0000
,
1000
1000
0001
0000
,
0001
0001
1000
0000
,
0001
0001
1000
0000
,
1000
0100
0010
0001
,
1000
1000
0001
0000
,
1001
0000
0110
0000
,
1001
0000
0110
0000
,
1001
0000
1001
0000
,
1001
0000
0110
0000
,
1001
0001
1000
1000
,
0001
0001
1000
1000
,
0100
0100
0010
0010
,
0001
0001
1000
1000
,
0001
0001
0010
0010
,
0100
0100
1000
1000
,
0001
0010
0100
0100
,
1000
1000
0100
0010
,
0001
0001
1000
1000
,
0001
0010
0100
1000
,
0010
0100
0010
0100
,
0001
1000
0001
1000
,
0100
0100
1000
1000
,
0001
0001
0100
0100
,
0110
0000
0010
0000
,
0010
0000
0010
0000
,
1001
0001
1000
1000
,
0001
0001
0010
1000
,
0100
0000
0000
0000
;

//---------------dance-single - ----------------
#NOTES:
     dance-single:
     :
     Challenge:
     17:
     1.000,0.996,0.835,0.073,0.932:
1000
0000
1000
0000
1000
0000
1000
0000
0001
0010
0100
1000
0001
0010
0100
0000
,
1000
0000
1000
0000
1000
0000
1000
0000
0001
0010
0100
1000
0002
0000
0000
0000
,
1003
0000
1000
0000
1000
0000
1000
0000
0001
0010
0100
1000
0001
0010
0100
0000
,
1000
0000
1000
0000
1000
0000
1000
0000
0001
0010
0100
1000
0002
0000
0000
0000
,
0103
0000
0100
0000
0100
0000
0100
0000
0001
1000
0010
0100
0001
1000
0100
0000
,
0010
0000
0010
0000
0010
0000
0010
0000
0001
0100
0001
0010
0200
0000
0000
0000
,
1300
0000
1000
0000
1000
0000
1000
0000
0001
0100
0010
1000
0010
0100
0001
0000
,
0100
0000
0100
0000
0100
0000
0100
0000
0010
0100
0001
0010
0200
0000
0000
0000
,
1300
0000
1000
0000
1000
0000
1000
0000
0001
1000
0100
0010
0001
0010
0100
0000
,
0010
0000
0010
0000
0010
0000
0010
0000
0001
1000
0100
0010
0001
0000
0000
0000
,
1001
0000
1001
0000
0100
0010
0001
1000
,
1001
0000
0000
0000
1001
0000
0000
0000
0010
1000
0010
1000
0001
0000
0000
0000
,
0101
0000
0000
0000
1001
0000
1001
0000
0100
0001
0100
0001
1000
0100
1000
0000
,
1100
0000
0000
0000
1001
0000
1001
0000
0001
1000
0100
0010
0002
0000
0000
0000
,
1003
0000
1000
0000
1000
0000
1001
0000
0001
1000
0000
0010
0000
0100
0010
0000
,
1000
0000
1000
0000
0001
0000
0001
0000
0010
0100
0010
0100
1000
0000
0000
0000
,
0001
0010
0100
1000
0100
0010
0001
1000
,
0001
0010
0100
1000
0100
0010
0001
1000
0001
0010
0100
0010
0001
1000
0001
1000
,
0001
0010
0100
0100
1000
0100
0010
0010
,
0001
0010
0100
0100
1000
0100
0010
0010
,
0001
0001
0100
0001
1000
1000
0100
0010
,
0100
0100
1000
0001
0010
0010
0001
0100
,
0010
0010
1000
0100
0010
0010
0001
1000
,
0100
0100
0010
0001
1000
1000
0010
0100
,
0002
0100
0100
0100
0000
1000
1000
1000
,
0000
0010
0010
0010
0000
1000
1000
1003
,
0200
0010
0010
0010
0000
1000
1000
1000
,
0000
0010
0010
0010
0000
1000
1000
1300
,
0002
0010
0010
0010
0000
0100
0100
0100
,
0000
0010
0010
0010
0000
0100
0100
0103
,
0010
1000
0010
1000
0010
1000
0010
0000
0100
0010
0100
0010
0100
0010
0100
0000
,
0001
0100
0001
0100
0010
1000
0010
1000
0001
0010
0100
1000
0001
0000
0010
0000
,
0100
0010
0100
0010
0100
0010
0100
0000
1000
0010
1000
0010
1000
0010
1000
0000
,
0100
0010
0100
0010
0001
0100
0001
0100
0001
0010
0100
1000
0001
0000
1000
0000
,
0001
0100
0001
0100
0001
0100
0001
0000
1000
0100
1000
0100
1000
0100
1000
0000
,
0010
0100
0010
0100
0001
0010
0001
0010
0100
1000
0010
0100
0001
0000
1000
0000
,
0100
0010
0100
0010
0100
0010
0100
0000
1000
0010
1000
0010
1000
0010
1000
0000
,
0001
0010
0001
0010
0100
0010
0100
1000
0010
0100
0010
0100
0001
0000
1000
0000
,
0001
1000
0001
1000
0001
1000
0001
0000
0100
0010
0100
0010
0100
0010
0100
0000
,
0001
0010
0001
0010
0001
1000
0001
1000
0001
0100
0010
1000
0100
0000
1000
0000
,
0001
0010
0001
0010
0001
0010
0001
0000
0100
0010
0100
0010
0100
0010
0100
0000
,
0001
0100
0001
0100
0010
1000
0100
0010
0001
1000
0100
0010
0001
0000
1000
0000
,
1001
0000
0001
0000
0001
0000
0001
0000
1000
0100
0010
0001
0010
0100
1000
0000
,
1100
0000
0100
0000
0100
0000
0100
0000
0010
0001
0100
0010
1000
0000
0000
0000
,
0101
0000
0001
0000
0001
0000
0001
0000
1000
0100
0010
0001
0010
0100
1000
0000
,
1010
0000
0010
0000
0010
0000
0010
0000
0100
0001
0010
0100
1000
0000
0000
0000
,
1001
0000
0001
0000
0001
0000
0001
0000
0010
0100
1000
0010
0100
0010
0100
0000
,
0101
0000
0001
0000
0001
0000
0001
0000
0100
0001
1000
0100
0010
0000
0000
0000
,
1001
0000
1001
0000
1001
0000
0101
0000
0101
0000
0101
0000
,
0110
0000
0110
0000
0110
0000
1010
0000
1010
0000
1010
0000
,
1001
0000
0100
1000
0000
1000
0001
0000
0100
0000
0001
1000
0000
0100
0010
0000
,
0001
0000
0100
0010
0000
1000
0010
0000
1000
0000
0100
0010
0000
0001
0010
0000
,
1001
0000
0101
0000
0110
0000
1100
0000
1001
0000
0110
0000
,
0011
0000
1100
0000
0110
0000
1001
0000
1001
0000
1001
0000
,
0110
0000
0011
0000
0110
0000
1100
0000
1001
0000
0011
0000
,
1100
0000
1010
0000
0101
0000
1001
0000
1001
0000
1001
0000
,
0011
0000
0000
0000
0000
0000
0000
0000
0110
0000
0000
0000
0000
0000
0000
0000
1010
0000
0000
0000
0000
0000
0000
0000
0001
0000
0000
0010
0000
0000
0100
0000
0000
1000
0000
0000
0001
0000
0000
1000
0000
0000
0001
0000
0000
0000
0000
0000
,
1001
0000
0000
0000
0000
0000
0000
0000
1010
0000
0000
0000
0000
0000
0000
0000
0011
0000
0000
0000
0000
0000
0000
0000
0001
0000
0000
1000
0000
0000
0100
0000
0000
0010
0000
0000
0001
0000
0000
0000
0000
0000
0000
0000
0000
0000
0000
0000
,
1001
0000
0000
0000
0000
0000
0000
0000
0101
0000
0000
0000
0000
0000
0000
0000
1100
0000
0000
0000
0000
0000
0000
0000
0100
0000
0000
0010
0000
0000
0001
0000
0000
1000
0000
0000
0100
0000
0000
0010
0000
0000
0001
0000
0000
0000
0000
0000
,
0110
0000
0000
0000
0000
0000
0000
0000
1100
0000
0000
0000
0000
0000
0000
0000
0101
0000
0000
0000
0000
0000
0000
0000
0001
0000
0000
0010
0000
0000
0100
0000
0000
1000
0000
0000
0001
0000
0000
0000
0000
0000
0000
0000
0000
0000
0000
0000
,
0101
0000
0100
0000
1001
0000
1000
0000
0001
0010
0100
1000
0100
0010
0001
0000
,
1001
0000
0001
0000
0110
0000
0010
0000
0100
0001
1000
0100
0010
0000
0000
0000
,
1001
0000
1000
0000
1100
0000
0100
0000
0010
0001
0010
0001
1000
0100
0010
0000
,
1001
0000
1000
0000
1010
0000
0010
0000
0100
0001
0010
0100
1000
0000
0000
0000
,
1100
0000
0100
0000
0110
0000
0010
0000
0100
0001
0010
0100
1000
0100
0010
0000
,
0101
0000
0100
0000
0110
0000
0010
0000
1000
0100
0010
0001
1000
0000
0000
0000
,
1001
0001
0001
0001
0110
0100
0100
0100
,
1010
0010
0010
0010
1001
1000
1000
1000
,
1010
1010
1001
1001
0110
0110
0011
0011
,
0010
0100
1000
0100
1000
0001
0100
0001
1000
0010
0100
0001
0100
0000
0000
0000
,
0110
0000
0000
0000
;

//---------------dance-single - ----------------
#NOTES:
     dance-single:
     :
     Medium:
     10:
     0.581,0.578,0.404,0.073,0.073:
1001
0010
0100
1000
,
1000
0100
0010
0001
,
1001
1000
0100
0010
,
0001
0010
0100
1000
,
0110
0100
0100
0001
,
1000
1000
0010
0110
,
1000
1000
0010
0100
,
0001
0100
0010
1000
,
0001
0001
0001
0100
,
0010
1000
0010
0100
,
1001
0000
1001
0000
0010
0001
0010
0001
,
0100
0000
0101
0000
0010
1000
0001
0000
,
0011
0000
0011
0000
0100
1000
0100
1000
,
0010
0000
1010
0000
0100
0001
1000
0000
,
0010
1000
0010
1000
0010
0000
1000
0000
,
0001
0010
0001
0010
0001
0000
1001
0000
,
0100
0001
0100
0001
1000
0000
0100
0000
,
0010
0001
0010
0001
1000
0100
1000
0000
,
0100
1000
0001
0000
0001
0000
0001
0000
,
0010
0001
1000
0000
1000
0000
1000
0000
,
0100
1000
0001
0000
0001
0010
0001
0000
,
0010
0001
1000
0000
1000
0010
1000
0000
,
0010
1000
0001
0000
0001
0100
0001
0000
,
0100
0001
1000
0000
1000
0100
1000
0000
,
0100
1000
0001
0000
0001
0100
0001
0000
,
0100
0001
1000
0000
1000
0100
1000
0000
,
0100
1000
0001
0100
0001
0100
0001
0000
,
0100
0001
1000
0100
1000
0100
1000
0000
,
0010
1000
0001
0010
0001
0010
0001
0000
,
0010
0001
1000
0010
1000
0010
1000
0000
,
0100
0010
0001
0000
0001
1000
0001
0000
,
0010
0100
1000
0000
1000
0001
1000
0000
,
0100
0010
0001
1000
0100
0010
0001
0000
,
0010
0100
1000
0001
0010
0100
1000
0000
,
0010
0100
0001
1000
0100
0010
0001
0000
,
0100
0010
1000
0001
0010
0100
1000
0000
,
0010
1000
0001
0010
1000
0010
0001
0000
,
0100
0001
1000
0010
0001
0010
1000
0000
,
0010
0100
0001
0100
1000
0100
0001
0000
,
0100
0010
1000
0100
0001
0100
1000
0000
,
0010
0100
0001
0010
1000
0010
0001
0000
,
0100
0010
1000
0100
0001
0100
1000
0000
,
0001
0100
0001
0100
0101
0000
1001
0000
,
1000
0010
1000
0010
1010
0000
1001
0000
,
1000
0100
1000
0100
1100
0000
1001
0000
,
0001
0010
0001
0010
0011
0000
1001
0000
,
0010
1000
0010
1000
1010
0000
1001
0000
,
0100
0001
0100
0001
0101
0000
1001
0000
,
1100
0000
1100
0000
,
0011
0000
0011
0000
,
0110
0000
0110
0000
,
1001
0000
1001
0000
,
0001
0000
0100
0000
0001
0000
0100
0000
0001
0000
1000
0000
,
0001
0000
1000
0000
0010
0000
1000
0000
0001
0000
1000
0000
,
0001
0000
0010
0000
0001
0000
0010
0000
0100
0000
1000
0000
,
0100
0000
1000
0000
0001
0000
1000
0000
0001
0000
1000
0000
,
1010
0000
0000
0000
0010
1000
0100
0010
,
0011
0000
0010
1001
,
0101
0000
0000
0000
0100
0001
0010
0100
,
1100
0000
0100
1001
,
1000
0010
1000
0010
1000
0001
0010
0000
,
0001
0010
0001
0010
0001
1000
0010
0000
,
1000
0010
1000
0010
1000
0100
0010
0001
,
1000
0010
1000
0010
1000
0001
1001
0000
,
0001
0100
0001
0100
0001
0010
0100
1000
,
0001
0100
0001
0100
0001
1000
1001
0000
,
2200
3300
0220
0330
,
0022
0033
0220
0330
,
1000
0100
0010
0001
1000
0010
1000
0001
,
0010
0100
1000
0001
0100
0001
1000
0000
,
1001
0000
0000
0000
;

//---------------dance-single - ----------------
#NOTES:
     dance-single:
     :
     Hard:
     14:
     0.767,0.739,0.395,0.037,0.450:
1000
1000
1100
0101
,
0001
0001
0101
1001
,
0100
0100
0101
1100
,
1000
1000
1100
1001
,
0010
0010
1010
0101
,
0001
0001
0011
1001
,
1000
0010
1000
0010
1000
0100
0010
0001
,
1000
0010
1000
0010
1000
0100
0010
0000
,
0100
1000
0100
1000
0001
0100
0010
0100
,
0001
1000
0001
1000
0100
0010
1001
0000
,
0011
0000
0011
0000
0100
1000
0001
0010
,
0100
0000
1100
0000
0010
0001
1001
0000
,
1100
0000
0100
0100
0010
0001
1000
0100
,
0010
0000
0010
0010
0001
1000
1001
0000
,
0100
0100
1000
1000
0001
0010
0100
1000
,
0001
0001
0100
0100
0001
1000
0100
0000
,
1000
0100
0010
0001
0100
1000
0100
0001
,
0010
0100
1000
0100
0001
0100
1000
0000
,
0001
0010
0100
0100
1000
0010
0100
0100
,
0001
0010
0100
0100
1000
0010
0100
0100
,
0001
1000
0010
0010
1000
0001
0010
0010
,
0001
1000
0010
0010
1000
0001
0010
0010
,
0001
0010
0100
0100
1000
0100
0010
0010
,
0001
0010
0100
0100
1000
0100
0010
0010
,
0001
0100
0001
1000
0001
0100
0001
1000
,
0001
0100
0001
1000
0001
0100
0001
1000
,
0001
0001
1000
0100
1000
1000
0001
0010
,
0001
0001
1000
0010
1000
1000
0001
0100
,
0001
1000
0001
0010
0001
1000
0001
0010
,
0001
1000
0001
0010
0001
1000
0001
0010
,
0001
1000
0001
1000
0001
1000
0001
0000
0100
0010
0100
0000
0010
0100
0010
0000
,
1000
0010
0001
0010
1000
0010
0001
0010
,
1000
0001
1000
0001
1000
0001
1000
0000
0100
0010
0100
0000
0010
0100
0010
0000
,
0001
0100
1000
0100
0001
0100
1000
0100
,
0001
1000
0001
1000
0001
1000
0001
0000
0100
0010
0100
0000
0010
0100
0010
0000
,
1000
0100
1000
0010
0100
0000
0010
0000
0100
0000
0001
0000
0010
0000
0000
0000
,
0001
1000
0001
1000
0001
1000
0001
0000
1000
0010
1000
0000
0001
0100
0001
0000
,
0010
0100
0010
0100
1000
0000
0001
0000
1000
0000
0100
0000
0010
0000
0000
0000
,
0001
1000
0001
1000
0001
1000
0001
0000
1000
0100
1000
0000
0010
0100
0010
0000
,
1000
0100
1000
0010
0100
0000
0001
0000
1000
0000
0100
0000
0010
0000
0000
0000
,
0001
1000
0001
1000
0001
1000
0001
0000
0100
0001
0100
0000
0001
1000
0001
0000
,
1000
0100
1000
0100
0010
0000
0100
0000
1000
0000
0001
0000
0100
0000
0000
0000
,
0001
0001
1000
1000
0001
0100
1000
0100
,
0001
0000
0001
0000
1000
0000
1000
0000
0100
0010
0100
0010
0100
0000
0000
0000
,
1000
1000
0001
0001
1000
0100
0001
0100
,
1000
0000
1000
0000
0001
0000
0001
0000
0010
0100
0010
0100
0010
0000
0000
0000
,
0001
0001
1000
1000
0001
0010
1000
0010
,
0001
0000
0001
0000
1000
0000
1000
0000
0010
0100
0010
0100
0010
0000
0000
0000
,
1001
0000
1000
0000
1000
0000
0001
0000
0001
0000
0001
0000
,
0100
0000
0100
0000
0100
0000
0010
0000
0010
0000
0010
0000
,
1010
0000
1000
0000
1000
0000
1100
0000
0100
0000
0100
0000
,
0110
0000
0010
0000
0010
0000
0011
0000
0001
0000
0001
0000
,
1001
0000
1000
0000
0010
0000
1000
0000
0001
0000
0010
0000
,
0001
0000
1000
0000
0100
0000
1000
0000
0001
0000
0100
0000
,
0101
0000
0010
0000
1000
0000
0100
0000
0010
0000
0001
0000
,
0110
0000
0010
0000
1000
0000
0001
0000
1000
0000
0010
0000
,
1010
0000
0000
0000
1010
0000
0000
0000
1010
0000
0000
0000
1000
0000
0000
0100
0000
0000
0010
0000
0000
0001
0000
0000
,
0101
0000
0000
0000
0101
0000
0000
0000
0101
0000
0000
0000
0010
0000
0000
1000
0000
0000
1001
0000
0000
0000
0000
0000
,
1100
0000
0000
0000
1100
0000
0000
0000
1100
0000
0000
0000
0010
0000
0000
0001
0000
0000
1000
0000
0000
0010
0000
0000
,
0110
0000
0000
0000
0110
0000
0000
0000
0110
0000
0000
0000
0100
0000
0000
0001
0000
0000
1001
0000
0000
0000
0000
0000
,
0100
0100
0100
0100
0001
1000
0100
0010
,
0001
0000
0001
0000
0001
0000
0001
0000
1000
0010
1000
0010
0100
0000
0000
0000
,
0010
0010
0010
0010
1000
0001
0010
0100
,
1000
0000
1000
0000
1000
0000
1000
0000
0001
0010
0001
0010
0100
0000
0000
0000
,
1000
0000
1000
0000
0001
0000
0001
0000
1000
0010
1000
0000
0100
0010
0100
0000
,
1000
0000
1000
0000
0001
0000
0001
0000
0010
0001
0010
0001
1000
0000
0000
0000
,
1002
0000
2003
0000
,
3002
0000
2003
0000
,
3001
0100
0010
1000
0001
0010
0001
1000
,
0001
0100
0001
0100
0001
1000
0100
1000
0100
0010
0001
1000
0001
0000
0000
0000
,
1001
0000
0000
0000
;

//---------------dance-single - ----------------
#NOTES:
     dance-single:
     :
     Beginner:
     3:
     0.174,0.257,0.174,0.000,0.000:
1000
0000
0001
0000
,
1000
0000
0001
0000
,
0001
0000
1000
0000
,
0001
0000
1000
0000
,
0010
0000
0010
0000
,
0010
0000
0000
0000
,
0100
0000
0100
0000
,
0100
0000
0100
0000
,
0001
0000
0001
0000
,
0001
0000
0001
0000
,
1000
0000
0000
0000
,
1000
0000
0000
0000
,
0001
0000
0000
0000
,
0001
0000
0000
0000
,
1000
0000
0001
0000
,
1000
0000
0001
0000
,
1000
0000
1000
0000
,
0100
0000
0010
0000
,
0001
0000
0000
0000
,
1000
0000
0000
0000
,
0001
0000
0001
0000
,
0001
0000
0001
0000
,
1000
0000
1000
0000
,
1000
0000
1000
0000
,
0001
0000
0100
0000
,
0001
0000
0100
0000
,
0010
0000
1000
0000
,
0010
0000
1000
0000
,
0001
0000
1000
0000
,
0001
0000
1000
0000
,
0100
0000
0010
0000
,
0001
0000
0000
0000
,
1000
0000
0100
0000
,
0010
0000
0000
0000
,
0001
0000
0010
0000
,
0100
0000
0000
0000
,
1000
0000
0100
0000
,
0010
0000
0000
0000
,
0001
0000
1000
0000
,
0001
0000
0000
0000
,
1000
0000
0001
0000
,
1000
0000
0000
0000
,
0010
0000
0000
0000
,
0010
0000
0000
0000
,
0100
0000
0000
0000
,
0100
0000
0000
0000
,
0010
0000
1000
0000
,
0010
0000
1000
0000
,
0001
0000
0000
0000
,
0000
0000
0000
0000
,
1001
0000
0000
0000
,
0000
0000
0000
0000
,
0110
0000
0000
0000
,
1001
0000
0000
0000
,
0110
0000
0000
0000
,
1001
0000
0000
0000
,
0110
0000
0001
0000
,
1001
0000
0001
0000
,
1001
0000
1000
0000
,
0110
0000
0001
0000
,
1001
0000
1000
0000
,
1001
0000
0001
0000
,
0110
0000
1000
0000
,
0110
0000
0001
0000
,
1001
0000
1000
0000
,
1001
0000
0001
0000
,
1001
0000
0010
0000
,
0010
0000
0010
0000
,
0110
0000
1000
0000
,
0110
0000
0001
0000
,
1001
0000
0000
0000
;

//---------------dance-double - ----------------
#NOTES:
     dance-double:
     :
     Easy:
     7:
     0.359,0.353,0.184,0.110,0.000:
10000000
10000000
20000000
00000000
,
31000000
01000000
02000000
00000000
,
13000000
10000000
20000000
00000000
,
30001000
00001000
00002000
00000000
,
00013000
00010000
00020000
00000000
,
00030010
00000010
00000020
00000000
,
00001030
00000100
00001000
00000100
,
00001000
00000001
00001000
00000001
,
00010000
00000100
00010000
00000100
,
00010000
00001000
00010000
00001000
,
01000000
01000000
00000000
00000000
,
00100000
00100000
00000000
00000000
,
10000000
10000000
00000000
00000000
,
00010000
00010000
00000000
00000000
,
10000000
01000000
10000000
01000000
,
00100000
00010000
00100000
00010000
,
01000000
00001000
01000000
00001000
,
00010000
00001000
00010000
00001000
,
00010000
00010000
00000100
00000100
,
00010000
00010000
00000100
00000100
,
00000010
00000010
00000001
00000001
,
00000010
00000010
00000001
00000001
,
00000100
00000100
00000001
00000001
,
00000100
00000100
00000001
00000001
,
00010000
00001000
00100000
01000000
,
10000000
00001000
00100000
01000000
,
10000000
10000000
00100000
00100000
,
01000000
01000000
00001000
00001000
,
00010000
00000010
00000100
00000001
,
00010000
00000010
00000100
00000001
,
00000010
00000010
00000100
00000100
,
00000010
00000010
00000100
00000100
,
00010000
00001000
00100000
01000000
,
10000000
00001000
00100000
01000000
,
10000000
00001000
01000000
00010000
,
10000000
01000000
00100000
00010000
,
10000000
00100000
01000000
00001000
,
00010000
00000010
00000100
00000001
,
00000010
00000100
00010000
00001000
,
00100000
01000000
10000000
00100000
,
01000000
00010000
01000000
00100000
,
10000000
01000000
00100000
00001000
,
00010000
00010000
00011000
00000000
,
00000010
00000010
00000110
00000000
,
00000001
00000001
00001001
00000000
,
00000100
00000100
00000110
00000000
,
00010000
00010000
00001000
00100000
,
01000000
01000000
01100000
00000000
,
10020000
00000000
10000000
00000000
,
10000000
00000000
10030000
00000000
,
01200000
00000000
01000000
00000000
,
01000000
00000000
01300000
00000000
,
01100000
00000000
01100000
00000000
,
10010000
00000000
10010000
00000000
,
10000000
10000000
01000000
01000000
,
00100000
00100000
00001000
00001000
,
00011000
00000000
00010000
00000100
,
00000110
00000000
00000001
00000001
,
00001001
00000000
00001000
00000100
,
00011000
00000000
00100000
00100000
,
01100000
01000000
00010000
00100000
,
01000000
01000000
10000000
10010000
,
00010000
00010000
01000000
00001000
,
00010000
00010000
00000100
00000110
,
00000010
00000010
00000100
00000001
,
00000010
00000010
00000100
00011000
,
00020000
00000000
00032000
00000000
,
00023000
00000000
00032000
00000000
,
00013000
00100000
01000000
01000000
,
10000000
10000000
00010000
01000000
,
00011000
00000000
00000000
00000000
;

//---------------dance-double - ----------------
#NOTES:
     dance-double:
     :
     Medium:
     12:
     0.573,0.578,0.294,0.046,0.073:
10010000
10000000
01000000
00100000
,
00001000
00001000
00010000
00000110
,
00000010
00000010
00001000
00000001
,
00000010
00000010
00000100
00011000
,
00001000
00001000
01000000
00100000
,
10000000
10000000
00010000
10010000
,
01000000
01000000
10000000
00010000
,
00100000
00100000
00010000
00011000
,
00000010
00000010
00000100
00000001
,
00000010
00000010
00000100
00011000
,
01100000
00000000
01100000
00000000
10000000
00100000
10000000
00100000
,
01000000
00000000
01100000
00000000
00100000
01000000
00001000
00000000
,
00011000
00000000
00011000
00000000
00010000
00000010
00010000
00000010
,
00000100
00000000
00000110
00000000
00000010
00000001
00000010
00000000
,
00000100
00000010
00000100
00000010
00000001
00000000
00000100
00000000
,
00000010
00010000
00000010
00010000
00001000
00000000
00011000
00000000
,
00010000
00001000
00100000
01000000
10000000
00000000
00100000
00000000
,
10000000
00100000
10000000
00100000
01000000
00010000
00100000
00000000
,
00001000
00010000
00000010
00000000
00000100
00000000
00000100
00000000
,
00000001
00000010
00000100
00000000
00000010
00000000
00000010
00000000
,
00000001
00000100
00000001
00000000
00010000
00000100
00010000
00000000
,
00001000
00010000
00001000
00000000
10000000
01000000
10000000
00000000
,
00100000
01000000
00010000
00000000
00100000
00010000
00100000
00000000
,
00001000
00010000
00000010
00000000
00000100
00000001
00000100
00000000
,
00000001
00000010
00000100
00000000
00010000
00000100
00010000
00000000
,
00001000
00100000
01000000
00000000
10000000
00100000
10000000
00000000
,
01000000
00100000
01000000
00100000
00001000
00010000
00001000
00000000
,
00010000
00000010
00010000
00000010
00000100
00000010
00000100
00000000
,
00000001
00000010
00000001
00000010
00000100
00001000
00000100
00000000
,
00010000
00001000
00010000
00001000
01000000
00100000
01000000
00000000
,
00010000
10000000
01000000
00100000
00010000
00100000
01000000
00000000
,
10000000
00100000
01000000
00001000
00010000
00000010
00000100
00000000
,
00000001
00001000
00000100
00000010
00000001
00000010
00000100
00000000
,
00000010
00000001
00000010
00000100
00010000
00001000
01000000
00000000
,
00010000
10000000
00100000
01000000
00010000
01000000
00100000
00000000
,
10000000
01000000
10000000
00100000
01000000
00001000
00010000
00000000
,
00000100
00000010
00000001
00001000
00000001
00000010
00000100
00000000
,
00010000
00001000
01000000
00100000
10000000
01000000
00100000
00000000
,
00010000
10000000
01000000
00010000
01000000
10000000
00001000
00000000
,
00010000
00000100
00000010
00000001
00000100
00000010
00001000
00000000
,
00000001
00001000
00000010
00000001
00000010
00001000
00000100
00000000
,
00010000
00001000
00100000
01000000
10000000
00100000
01000000
00000000
,
00001000
00010000
00001000
00010000
00000100
00000010
00000001
00000000
,
00010000
00001000
00010000
00001000
01000000
00100000
10000000
00000000
,
00001000
00010000
00001000
00010000
00000010
00000100
00000001
00000000
,
00010000
00001000
00010000
00001000
00100000
01000000
10000000
00000000
,
00100000
01000000
00100000
01000000
00010000
00100000
01000000
00000000
,
00010000
00001000
00010000
00001000
00000010
00000100
00000001
00000000
,
00001001
00000000
00001001
00000000
,
00010010
00000000
00010010
00000000
,
00011000
00000000
00011000
00000000
,
01010000
00000000
01010000
00000000
,
01000000
00000000
00100000
00000000
01000000
00000000
00100000
00000000
10000000
00000000
01000000
00000000
,
00100000
00000000
01000000
00000000
10000000
00000000
01000000
00000000
00100000
00000000
01000000
00000000
,
00100000
00000000
00001000
00000000
00010000
00000000
00001000
00000000
00010000
00000000
00000010
00000000
,
00000100
00000000
00000001
00000000
00000010
00000000
00000001
00000000
00000010
00000000
00000100
00000000
,
00011000
00000000
00000000
00000000
00001000
00100000
01000000
10000000
,
11000000
00000000
00000000
00000000
10000000
00100000
01100000
00000000
,
00011000
00000000
00000000
00000000
00010000
00000010
00000100
00000001
,
00000101
00000000
00000000
00000000
00000001
00000010
00000110
00000000
,
00010000
00001000
00010000
00001000
01000000
00100000
10000000
00000000
,
01000000
00100000
01000000
00100000
00001000
00010000
00010010
00000000
,
00000100
00000001
00000100
00000001
00000010
00000100
00010000
00000000
,
00001000
00010000
00001000
00010000
01000000
00100000
01100000
00000000
,
01000000
10000000
01000000
10000000
00100000
01000000
00010000
00100000
,
00001000
00010000
00001000
00010000
00000100
00000010
00000011
00000000
,
00000220
00000300
00020000
00000030
,
00002000
00030000
00200000
00303000
,
01000000
10000000
00010000
00100000
10000000
00100000
00010000
01000000
,
00001000
00010000
00000100
00000010
00000001
00000010
00000100
00000000
,
00011000
00000000
00000000
00000000
;

//---------------dance-double - ----------------
#NOTES:
     dance-double:
     :
     Hard:
     14:
     0.759,0.739,0.285,0.037,0.450:
10000000
10000000
01000000
00100000
,
00001000
00001000
00010000
00000100
,
00000010
00000001
00000010
00000001
00000100
00000000
00000110
00000000
,
00001000
00010000
00001000
00010000
01000000
00000000
01100000
00000000
,
10000000
00100000
10000000
00100000
01000000
00000000
01100000
00000000
,
00001000
00100000
00001000
00100000
00010000
00000000
00011000
00000000
,
00000100
00000010
00000100
00000010
00000001
00000100
00000010
00000000
,
00010000
00000100
00010000
00000100
00001000
00010000
00100000
00000000
,
01000000
00100000
01000000
00100000
00010000
10000000
00100000
00000000
,
01000000
00001000
01000000
00001000
00010000
00000100
00000010
00000000
,
00000011
00000000
00000011
00000000
00000001
00001000
00000100
00000010
,
00000001
00000000
00001001
00000000
00001000
00000010
00000110
00000000
,
00010010
00000000
00010000
00010000
00001000
00100000
01000000
10000000
,
00100000
00000000
10000000
10000000
00100000
01000000
01100000
00000000
,
00010000
00010000
01000000
01000000
00100000
10000000
01000000
00100000
,
00001000
00001000
00010000
00010000
00000100
00000010
00000001
00000000
,
00001000
00000010
00000001
00000010
00001000
00000010
00000001
00000010
,
00010000
00001000
01000000
00100000
10000000
01000000
00100000
00000000
,
00010000
10000000
01000000
01000000
00100000
00001000
00010000
00010000
,
00000100
00000010
00000001
00000001
00001000
00000010
00000100
00000100
,
00000001
00000010
00000100
00000100
00001000
00010000
01000000
01000000
,
00100000
10000000
01000000
01000000
00100000
00001000
00010000
00010000
,
00000100
00000010
00000001
00000001
00000010
00000001
00000100
00000100
,
00000001
00000010
00000100
00000100
00001000
00010000
01000000
01000000
,
00010000
10000000
01000000
10000000
00010000
10000000
01000000
10000000
,
00010000
10000000
01000000
10000000
00010000
10000000
00001000
00010000
,
00000100
00000100
00001000
00000010
00000100
00000100
00000001
00000010
,
00000100
00000100
00010000
00000010
00000100
00000100
00000001
00000010
,
00000100
00000010
00000001
00001000
00000100
00000010
00000001
00001000
,
00000100
00000010
00000001
00001000
00000100
00000010
00000001
00010000
,
00001000
00010000
00001000
00010000
00001000
00010000
00001000
00000000
01000000
00010000
01000000
00000000
00010000
10000000
00010000
00000000
,
10000000
00100000
01000000
00010000
10000000
00100000
01000000
00010000
,
01000000
00100000
01000000
00100000
01000000
00100000
01000000
00000000
00010000
10000000
00010000
00000000
00100000
00010000
00100000
00000000
,
00001000
00010000
00000010
00000100
00000001
00010000
00000010
00000100
,
00000001
00001000
00000001
00001000
00000001
00001000
00000001
00000000
00010000
00000100
00010000
00000000
00001000
00010000
00001000
00000000
,
01000000
00100000
01000000
00100000
10000000
00000000
01000000
00000000
00100000
00000000
00010000
00000000
10000000
00000000
00000000
00000000
,
00100000
01000000
00100000
01000000
00100000
01000000
00100000
00000000
10000000
01000000
10000000
00000000
00001000
01000000
00001000
00000000
,
00010000
00001000
00010000
00001000
00000010
00000000
00000100
00000000
00000001
00000000
00000100
00000000
00000010
00000000
00000000
00000000
,
00001000
00000001
00001000
00000001
00001000
00000001
00001000
00000000
00000010
00010000
00000010
00000000
00010000
00001000
00010000
00000000
,
00001000
01000000
00001000
01000000
00100000
00000000
10000000
00000000
01000000
00000000
00100000
00000000
01000000
00000000
00000000
00000000
,
10000000
01000000
10000000
01000000
10000000
01000000
10000000
00000000
00010000
00100000
00010000
00000000
00100000
01000000
00100000
00000000
,
00001000
00010000
00001000
00010000
00000010
00000000
00000100
00000000
00000001
00000000
00000010
00000000
00000100
00000000
00000000
00000000
,
00001000
00001000
00000001
00000001
00000010
00000100
00010000
00100000
,
01000000
00000000
01000000
00000000
10000000
00000000
10000000
00000000
00010000
10000000
00010000
10000000
00010000
00000000
00000000
00000000
,
10000000
10000000
00010000
00010000
01000000
00100000
10000000
00001000
,
00010000
00000000
00010000
00000000
00000010
00000000
00000010
00000000
00001000
00000001
00001000
00000001
00001000
00000000
00000000
00000000
,
00000001
00000001
00000010
00000010
00000100
00010000
01001000
00100000
,
10000000
00000000
10000000
00000000
01000000
00000000
01000000
00000000
10000000
00010000
10000000
00010000
10000000
00000000
00000000
00000000
,
01100000
00000000
01000000
00000000
01000000
00000000
00100000
00000000
00100000
00000000
00100000
00000000
,
00001000
00000000
00001000
00000000
00001000
00000000
00010000
00000000
00010000
00000000
00010000
00000000
,
00010010
00000000
00000010
00000000
00000010
00000000
00000110
00000000
00000100
00000000
00000100
00000000
,
00000101
00000000
00000001
00000000
00000001
00000000
00001001
00000000
00001000
00000000
00001000
00000000
,
00001100
00000000
00000100
00000000
00010000
00000000
00001000
00000000
00100000
00000000
10000000
00000000
,
00100000
00000000
00001000
00000000
00010000
00000000
00000010
00000000
00000001
00000000
00000010
00000000
,
00010000
00000000
00001000
00000000
00100000
00000000
01000000
00000000
00100000
00000000
00001000
00000000
,
00010000
00000000
00000010
00000000
00000100
00000000
00000010
00000000
00010000
00000000
00001000
00000000
,
00011000
00000000
00000000
00000000
00011000
00000000
00000000
00000000
00011000
00000000
00000000
00000000
00010000
00000000
00000000
00100000
00000000
00000000
01000000
00000000
00000000
10000000
00000000
00000000
,
10010000
00000000
00000000
00000000
10010000
00000000
00000000
00000000
10010000
00000000
00000000
00000000
00010000
00000000
00000000
01000000
00000000
00000000
00001000
00000000
00000000
00000000
00000000
00000000
,
00011000
00000000
00000000
00000000
00011000
00000000
00000000
00000000
00011000
00000000
00000000
00000000
00001000
00000000
00000000
00000010
00000000
00000000
00000100
00000000
00000000
00000001
00000000
00000000
,
00001001
00000000
00000000
00000000
00001001
00000000
00000000
00000000
00001001
00000000
00000000
00000000
00001000
00000000
00000000
00000100
00000000
00000000
00010000
00000000
00000000
00000000
00000000
00000000
,
00001000
00001000
00001000
00001000
00100000
01000000
10000000
01000000
,
00100000
00000000
00100000
00000000
00100000
00000000
00100000
00000000
00001000
00010000
00001000
00010000
00000100
00000000
00000000
00000000
,
00001000
00001000
00001000
00001000
00000001
00000010
00000100
00010000
,
00001000
00000000
00001000
00000000
00001000
00000000
00001000
00000000
00100000
01000000
00100000
01000000
10000000
00000000
00000000
00000000
,
01000000
00000000
01000000
00000000
00100000
00000000
00100000
00000000
00001000
00010000
00001000
00000000
00010000
00000010
00010000
00000000
,
00000001
00000000
00000001
00000000
00000010
00000000
00000010
00000000
00000100
00010000
00000100
00010000
00001000
00000000
00000000
00000000
,
01200000
00000000
02300000
00000000
,
03200000
00000000
02300000
00000000
,
03100000
10000000
01000000
00100000
00010000
00001000
00000010
00000100
,
00000001
00000010
00000001
00000010
00000100
00010000
00000100
00010000
00001000
01000000
00100000
01000000
00001000
00000000
00000000
00000000
,
01100000
00000000
00000000
00000000
;

//---------------dance-double - ----------------
#NOTES:
     dance-double:
     :
     Challenge:
     17:
     1.000,0.996,0.789,0.046,0.955: // measure 1
10000000
00000000
10000000
00000000
10000000
00000000
10000000
00000000
01000000
00100000
00010000
00100000
01000000
10000000
00001000
00000000
,  // measure 2
00100000
00000000
00100000
00000000
00100000
00000000
00100000
00000000
00001000
00010000
00000100
00000010
00000002
00000000
00000000
00000000
,  // measure 3
00000103
00000000
00000100
00000000
00000100
00000000
00000100
00000000
00000001
00000010
00000100
00001000
00000001
00000010
00000100
00000000
,  // measure 4
00010000
00000000
00010000
00000000
00010000
00000000
00010000
00000000
00001000
00100000
01000000
10000000
00200000
00000000
00000000
00000000
,  // measure 5
01300000
00000000
01000000
00000000
01000000
00000000
01000000
00000000
00010000
10000000
00100000
01000000
00010000
10000000
01000000
00000000
,  // measure 6
00100000
00000000
00100000
00000000
00100000
00000000
00100000
00000000
00010000
00001000
00000010
00000100
00000002
00000000
00000000
00000000
,  // measure 7
00000103
00000000
00000100
00000000
00000100
00000000
00000100
00000000
00000001
00000010
00000100
00000010
00000001
00000010
00000100
00000000
,  // measure 8
00010000
00000000
00010000
00000000
00010000
00000000
00010000
00000000
00001000
01000000
00010000
00100000
02000000
00000000
00000000
00000000
,  // measure 9
13000000
00000000
10000000
00000000
10000000
00000000
10000000
00000000
00010000
10000000
01000000
00100000
00010000
00100000
01000000
00000000
,  // measure 10
00100000
00000000
00100000
00000000
00100000
00000000
00100000
00000000
00010000
00001000
00000010
00000100
00000001
00000000
00000000
00000000
,  // measure 11
00001001
00000000
00001001
00000000
00000100
00000010
00000001
00010000
,  // measure 12
00010100
00000000
00000000
00000000
00010100
00000000
00000000
00000000
00001000
00100000
01000000
10000000
01000000
00000000
00000000
00000000
,  // measure 13
11000000
00000000
00000000
00000000
10010000
00000000
10010000
00000000
01000000
00010000
01000000
00010000
10000000
01000000
00100000
00000000
,  // measure 14
00101000
00000000
00000000
00000000
00011000
00000000
00011000
00000000
00010000
00000010
00000100
00000001
00000200
00000000
00000000
00000000
,  // measure 15
00000301
00000000
00000001
00000000
00000001
00000000
00001001
00000000
00001000
00000001
00000000
00000010
00000000
00000100
00010000
00000000
,  // measure 16
00001000
00000000
00001000
00000000
01000000
00000000
01000000
00000000
00100000
01000000
00100000
01000000
00010000
00000000
00000000
00000000
,  // measure 17
10010000
00000000
10010000
00000000
01000000
00100000
00010000
01000000
,  // measure 18
00001000
00100000
00001000
00100000
00001000
00010000
00001000
00010000
00000100
00000010
00000001
00000010
00000100
00010000
00000100
00010000
,  // measure 19
00000100
00010000
00001000
00001000
00100000
01000000
10000000
10000000
,  // measure 20
00010000
00100000
01000000
01000000
00100000
00001000
00010000
00010000
,  // measure 21
00000010
00000010
00000100
00000001
00000010
00000010
00000100
00010000
,  // measure 22
00001000
00001000
00100000
01000000
10000000
10000000
00010000
01000000
,  // measure 23
00100000
00100000
10000000
01000000
00100000
00100000
00001000
00010000
,  // measure 24
00000100
00000100
00000010
00000001
00000100
00000100
00000001
00000010
,  // measure 25
00000100
00001000
00000010
00000001
00000010
00001000
00000001
00010000
,  // measure 26
00000100
00000001
00000100
00010000
00001000
00100000
01000000
10000000
,  // measure 27
00010000
10000000
00100000
00010000
00100000
10000000
00010000
10000000
,  // measure 28
01000000
00001000
01000000
10000000
00001000
00010000
00000100
00000010
,  // measure 29
00000001
00001000
00000100
00000001
00000100
00001000
00000001
00010000
,  // measure 30
00000010
00000001
00000010
00010000
00001000
00100000
01000000
10000000
,  // measure 31
00100000
10000000
00100000
10000000
00100000
10000000
00100000
00000000
01000000
00100000
01000000
00100000
01000000
00100000
01000000
00000000
,  // measure 32
00010000
01000000
00010000
01000000
00100000
10000000
00100000
10000000
00010000
00100000
01000000
10000000
00001000
00000000
00010000
00000000
,  // measure 33
00000100
00000010
00000100
00000010
00000100
00000010
00000100
00000000
00001000
00000010
00001000
00000010
00001000
00000010
00001000
00000000
,  // measure 34
00000100
00000010
00000100
00000010
00000001
00000100
00000001
00000100
00000001
00000010
00000100
00010000
00001000
00000000
00100000
00000000
,  // measure 35
01000000
10000000
01000000
10000000
01000000
10000000
01000000
00000000
10000000
00010000
10000000
00010000
10000000
00010000
10000000
00000000
,  // measure 36
00100000
01000000
00100000
01000000
00010000
00100000
00010000
00100000
01000000
10000000
00100000
01000000
00010000
00000000
00001000
00000000
,  // measure 37
00000010
00000100
00000010
00000100
00000010
00000100
00000010
00000000
00000100
00000001
00000100
00000001
00000100
00000001
00000100
00000000
,  // measure 38
00000001
00000010
00000001
00000010
00000100
00000010
00000100
00010000
00001000
00010000
00001000
01000000
00100000
00000000
01000000
00000000
,  // measure 39
00010000
10000000
00010000
10000000
00010000
10000000
00010000
00000000
01000000
00100000
01000000
00100000
01000000
00100000
01000000
00000000
,  // measure 40
00001000
00010000
00001000
00010000
00000010
00000100
00000010
00000100
00000001
00000010
00000100
00001000
00000001
00000000
00000010
00000000
,  // measure 41
00000100
00000010
00000100
00000010
00000100
00000010
00000100
00000000
00010000
00000100
00010000
00000100
00010000
00000100
00010000
00000000
,  // measure 42
00001000
01000000
00001000
01000000
00100000
10000000
01000000
00100000
00010000
10000000
01000000
00100000
00010000
00000000
10000000
00000000
,  // measure 43
10001000
00000000
00001000
00000000
00001000
00000000
00001000
00000000
00100000
01000000
10000000
01000000
00100000
00001000
00010000
00000000
,  // measure 44
00010010
00000000
00000010
00000000
00000010
00000000
00000010
00000000
00000100
00000001
00000010
00000100
00001000
00000000
00000000
00000000
,  // measure 45
00010100
00000000
00010000
00000000
00010000
00000000
00010000
00000000
00001000
00100000
01000000
10000000
01000000
00100000
00001000
00000000
,  // measure 46
00101000
00000000
00100000
00000000
00100000
00000000
00100000
00000000
00010000
10000000
00100000
01000000
00010000
00000000
00000000
00000000
,  // measure 47
01100000
00000000
01000000
00000000
01000000
00000000
01000000
00000000
00100000
01000000
00001000
00010000
00000010
00000100
00000001
00000000
,  // measure 48
00000110
00000000
00000100
00000000
00000100
00000000
00000100
00000000
00000010
00010000
00001000
00100000
01000000
00000000
00000000
00000000
,  // measure 49
11000000
00000000
11000000
00000000
11000000
00000000
01001000
00000000
01001000
00000000
01001000
00000000
,  // measure 50
00011000
00000000
00011000
00000000
00011000
00000000
00010010
00000000
00010010
00000000
00010010
00000000
,  // measure 51
00010001
00000000
00000010
00000001
00000000
00000010
00000001
00000000
00000100
00000000
00000010
00001000
00000000
00000010
00001000
00000000
,  // measure 52
00000100
00000000
00010000
00001000
00000000
00010000
00001000
00000000
01000000
00000000
00100000
10000000
00000000
00100000
10000000
00000000
,  // measure 53
10010000
00000000
11000000
00000000
01100000
00000000
00101000
00000000
00011000
00000000
00010010
00000000
,  // measure 54
00000110
00000000
00000011
00000000
00000110
00000000
00001000
00000001
00000010
00000100
00001000
00000010
,  // measure 55
00010010
00000000
00011000
00000000
01001000
00000000
01100000
00000000
11000000
00000000
10010000
00000000
,  // measure 56
01001000
00000000
00011000
00000000
00010010
00000000
00000010
00000100
00000001
00000010
00000100
00001000
,  // measure 57
00011000
00000000
00000000
00000000
00000000
00000000
00000000
00000000
01001000
00000000
00000000
00000000
00000000
00000000
00000000
00000000
10100000
00000000
00000000
00000000
00000000
00000000
00000000
00000000
10000000
00000000
00000000
01000000
00000000
00000000
00100000
00000000
00000000
00001000
00000000
00000000
00010000
00000000
00000000
00000010
00000000
00000000
00000100
00000000
00000000
00000001
00000000
00000000
,  // measure 58
00000010
00000000
00000000
00000000
00000000
00000000
00000000
00000000
00000011
00000000
00000000
00000000
00000000
00000000
00000000
00000000
00000110
00000000
00000000
00000000
00000000
00000000
00000000
00000000
00000100
00000000
00000000
00000010
00000000
00000000
00010000
00000000
00000000
00001000
00000000
00000000
00010000
00000000
00000000
00000000
00000000
00000000
00000000
00000000
00000000
00000000
00000000
00000000
,  // measure 59
00011000
00000000
00000000
00000000
00000000
00000000
00000000
00000000
01001000
00000000
00000000
00000000
00000000
00000000
00000000
00000000
01100000
00000000
00000000
00000000
00000000
00000000
00000000
00000000
01000000
00000000
00000000
00100000
00000000
00000000
00010000
00000000
00000000
10000000
00000000
00000000
01000000
00000000
00000000
00100000
00000000
00000000
00010000
00000000
00000000
00000000
00000000
00000000
,  // measure 60
00011000
00000000
00000000
00000000
00000000
00000000
00000000
00000000
00010010
00000000
00000000
00000000
00000000
00000000
00000000
00000000
00000110
00000000
00000000
00000000
00000000
00000000
00000000
00000000
00000100
00000000
00000000
00000010
00000000
00000000
00000001
00000000
00000000
00000010
00000000
00000000
00000100
00000000
00000000
00000000
00000000
00000000
00000000
00000000
00000000
00000000
00000000
00000000
,  // measure 61
00001001
00000000
00001000
00000000
00010100
00000000
00010000
00000000
00001000
00100000
01000000
10000000
01000000
00100000
00001000
00000000
,  // measure 62
00011000
00000000
00010000
00000000
00000110
00000000
00000010
00000000
00000100
00000001
00000010
00000100
00001000
00000000
00000000
00000000
,  // measure 63
00011000
00000000
00001000
00000000
01100000
00000000
01000000
00000000
00100000
10000000
00100000
10000000
00010000
00100000
01000000
00000000
,  // measure 64
00101000
00000000
00001000
00000000
00011000
00000000
00010000
00000000
00000010
00000100
00000001
00000100
00000010
00000000
00000000
00000000
,  // measure 65
00001001
00000000
00001000
00000000
00001010
00000000
00000010
00000000
00000100
00000001
00000010
00000100
00010000
00001000
00100000
00000000
,  // measure 66
01100000
00000000
01000000
00000000
11000000
00000000
10000000
00000000
00100000
01000000
00001000
00010000
00000100
00000000
00000000
00000000
,  // measure 67
00000110
00000010
00000010
00000010
00001001
00000001
00000001
00000001
,  // measure 68
00001100
00001000
00001000
00001000
00010100
00010000
00010000
00010000
,  // measure 69
10001000
10001000
11000000
11000000
01001000
01001000
00011000
00011000
,  // measure 70
00010000
00000010
00010000
00000010
00000100
00000001
00000100
00000001
00000010
00000100
00001000
00100000
01000000
00000000
00000000
00000000
,  // measure 71
01100000
00000000
00000000
00000000
;
