#TITLE:MARS WAR 3;
#SUBTITLE:(FROM NONSTOP MEGAMIX);
#ARTIST:JET GIRL SPIN;
#TITLETRANSLIT:;
#SUBTITLETRANSLIT:;
#ARTISTTRANSLIT:;
#CREDIT:DigiMindAxel;
#BANNER:MARS WAR 3 (FROM NONSTOP MEGAMIX).png;
#BACKGROUND:MARS WAR 3 (FROM NONSTOP MEGAMIX)-bg.png;
#LYRICSPATH:;
#CDTITLE:Konami original REMIX.png;
#MUSIC:MARS WAR 3 (FROM NONSTOP MEGAMIX).ogg;
#METERTYPE:DDR X;
#OFFSET:-5.304;
#SAMPLESTART:29.268;
#SAMPLELENGTH:12.000;
#SELECTABLE:YES;
#BPMS:0.000=100.000,40.000=200.000,104.000=100.000,120.000=200.000,152.000=100.000,160.000=200.000,192.000=100.000;
#STOPS:;
#BGCHANGES:;

//---------------dance-single - ----------------
#NOTES:
     dance-single:
     :
     Easy:
     6:
     0.269,0.393,0.266,0.266,0.000:
1001
0010
1001
0100
,
1001
0001
1000
0001
,
0200
0320
0000
0000
,
0000
0000
0030
0000
,
2000
3002
0000
0000
,
0000
0000
0003
0000
,
0020
0230
0000
0000
,
0000
0000
0300
0000
,
2000
3020
0000
0000
,
0000
0000
2030
0001
,
3001
1000
0001
1000
,
0010
0100
0010
0000
,
1000
0010
1000
0010
,
0100
0001
0100
0000
,
0001
0100
0001
0100
,
0010
1000
0010
0000
,
1000
0100
1000
0100
,
0010
0001
0010
0000
,
0001
0010
0001
0010
,
0100
1000
0100
0000
,
1000
0001
1000
0001
,
0100
0000
0100
0000
,
0220
0000
0000
0330
,
2002
0000
0000
3003
,
0001
0000
1000
0000
,
0020
0000
0000
0000
,
1030
0100
0010
1001
,
0001
0010
0100
1001
,
1000
0001
0100
0100
,
0110
0001
0010
0100
,
2002
0000
0000
3003
,
2002
0000
0000
3003
,
0220
0000
0000
0330
,
0220
0000
0000
0330
,
0001
0000
0010
0000
,
0100
0000
1000
0000
,
0010
0000
0100
0000
,
0001
0000
0010
0000
,
1002
0000
0000
0000
,
2003
0000
0000
3001
,
0100
0010
0100
0000
,
0001
0000
1000
0000
,
0001
1000
0001
0000
,
0100
0000
0010
0000
,
1000
0010
1000
0000
,
0001
0000
1000
0000
,
1001
0000
1001
0000
,
2002
0000
0000
3003
,
1000
0100
0010
0001
,
0010
0100
1000
1001
,
0001
0010
0100
1000
,
0100
0010
0001
1001
,
0100
0110
0100
0110
,
1001
1001
1001
1001
,
0010
0110
0010
0110
,
1001
0001
2000
0000
,
3001
1000
0100
0010
,
1001
0100
1001
0010
,
1002
0000
0000
0000
,
2003
0000
0000
0000
0000
0000
3001
0001
,
2002
0000
0000
0000
,
3003
0000
0000
0000
;

//---------------dance-single - ----------------
#NOTES:
     dance-single:
     :
     Challenge:
     15:
     0.738,0.838,0.386,0.163,0.541: // measure 1
1000
0001
1000
0000
0010
0000
0010
0000
1000
0001
1000
0000
0010
0000
0010
0000
,  // measure 2
1000
0001
1000
0001
0010
0100
0010
0100
1000
0001
1000
0001
1000
0010
1000
0010
,  // measure 3
1000
0000
0000
0100
0000
0000
0010
0000
0000
0100
0000
0000
1000
0000
0000
0100
0000
0000
0010
0000
0000
0000
0000
0000
0002
0000
0000
0000
0000
0000
1000
0000
0000
0000
0000
0000
1003
0000
0000
0000
0000
0000
0001
0000
0000
0000
0001
0000
,  // measure 4
0010
0000
0100
0010
0000
0100
1000
0000
0010
0100
0000
0000
0002
0000
0000
1000
0000
0000
1003
0000
0000
0000
0000
0000
,  // measure 5
0001
0000
0000
1000
0000
0000
0100
0000
0000
1000
0000
0000
0001
0000
0000
1000
0000
0000
0100
0000
0000
0000
0000
0000
2000
0000
0000
0000
0000
0000
0001
0000
0000
0000
0000
0000
3001
0000
0000
0000
0000
0000
1000
0000
0000
0000
1000
0000
,  // measure 6
0010
0000
0100
0010
0000
0100
0001
0000
0010
0100
0000
0000
2000
0000
0000
0001
0000
0000
3001
0000
0000
0000
0000
0000
,  // measure 7
1000
0000
0000
0100
0000
0000
0010
0000
0000
0100
0000
0000
1000
0000
0000
0100
0000
0000
0010
0000
0000
0000
0000
0000
0002
0000
0000
0000
0000
0000
1000
0000
0000
0000
0000
0000
1003
0000
0000
0000
0000
0000
0001
0000
0000
0000
0001
0000
,  // measure 8
0010
0000
0100
0010
0000
0001
1000
0000
0010
1000
0000
0000
0010
0000
0000
0100
0000
0000
0001
0000
0000
0010
0000
0000
,  // measure 9
0100
1000
0001
0100
0001
1000
0100
0000
0020
0000
0001
0000
0031
0000
1000
0100
,  // measure 10
1000
0100
1000
0001
1000
0001
1000
0000
0010
0000
0100
0000
1001
0000
1001
0000
,  // measure 11
0001
0100
0001
0100
0001
1000
0001
1000
,  // measure 12
0100
0001
0100
1000
0001
0000
1001
0000
,  // measure 13
1000
0100
1000
0100
1000
0001
1000
0001
,  // measure 14
1000
0010
0001
0010
1000
0100
0010
0000
,  // measure 15
0001
1000
0001
1000
0100
1000
0100
1000
,  // measure 16
0010
0001
0010
1000
0001
0000
1001
0000
,  // measure 17
1000
0010
1000
0010
1000
0001
1000
0001
,  // measure 18
0100
0010
2000
0000
3100
0010
0100
0000
,  // measure 19
1000
0001
0200
0000
0301
1000
0001
1000
,  // measure 20
0200
0010
0000
0320
0001
0000
0031
1000
,  // measure 21
0010
0100
0010
0000
0010
1000
0100
0010
,  // measure 22
0200
0000
2300
0010
0000
3020
0100
0000
,  // measure 23
0130
0000
0101
0000
0001
1000
0100
0000
,  // measure 24
1100
0000
1001
0000
0001
0100
0010
0000
,  // measure 25
0110
1010
0110
1010
,  // measure 26
1002
1000
2003
0000
,  // measure 27
3001
0000
0000
0100
0000
0000
0010
0000
0000
0100
0000
0000
0001
0000
0000
0000
0000
0000
1000
0000
0000
0000
0000
0000
0100
0000
0000
0000
0000
0000
0100
0000
0000
0000
0000
0000
1100
0000
0000
0000
0000
0000
1000
0000
0000
0000
1000
0000
,  // measure 28
0100
0000
0000
0000
0010
0000
0100
0000
0000
0000
0010
0000
0001
0000
0000
0000
0000
0000
0100
0000
0000
0000
0000
0000
0100
0000
0000
0010
0000
0000
1000
0000
0000
0000
0000
0000
1010
0000
0000
0000
0000
0000
0000
0000
0000
0000
0000
0000
,  // measure 29
1000
0100
0010
0100
1000
0100
0010
0000
0001
0000
0001
0000
1000
0000
1000
0000
,  // measure 30
0001
1000
0001
1000
0001
1000
0100
0001
0100
1000
0010
0001
0010
0000
1000
0001
,  // measure 31
2000
0000
3001
0000
0100
0001
1000
0100
,  // measure 32
0001
1000
0100
0010
1000
0001
0100
1000
,  // measure 33
0100
0010
1000
0001
0010
1000
0010
0001
,  // measure 34
1000
0001
0010
0100
1000
0000
1001
0000
,  // measure 35
1000
0001
0010
0100
1000
0001
0010
0001
,  // measure 36
1000
0010
1000
0001
0010
0100
0010
0000
,  // measure 37
0001
1000
0010
1000
0001
0010
0100
0000
,  // measure 38
0100
0000
1000
0000
0001
0000
0010
0000
0100
0000
0000
1100
0000
0000
1001
0000
,  // measure 39
1000
0001
0100
0001
0100
0001
0100
0010
0000
1000
0100
0010
0001
0010
0100
0000
,  // measure 40
1000
0001
0100
0001
0100
0001
0100
0010
0000
1000
0100
0010
0002
0000
0000
0000
,  // measure 41
1003
0100
0001
0100
1000
0100
0010
0000
,  // measure 42
0101
0000
0000
0110
0000
0000
1001
0000
0000
0001
0000
0001
,  // measure 43
0100
0000
0010
1000
0000
0100
0010
0000
0001
1000
0000
0000
,  // measure 44
1100
0101
1001
0000
,  // measure 45
0100
0001
1000
0100
0010
0100
1000
0000
,  // measure 46
1010
0000
0110
0000
1001
0000
0010
0100
,  // measure 47
0001
0100
1000
0100
0001
0010
0100
1000
,  // measure 48
0001
0101
1001
0000
,  // measure 49
1000
0000
1000
0000
1000
0001
0100
0000
0001
0010
0100
0000
1000
0001
1000
0000
,  // measure 50
0001
0000
0001
0000
0001
0010
0100
0000
1000
0010
0100
0010
0100
0010
1000
0000
,  // measure 51
1001
0000
0001
0000
1000
0000
1000
0000
0100
0010
0001
0010
0100
0000
1000
0000
,  // measure 52
0001
0000
0001
0000
0100
0010
1000
0000
0100
1000
0100
1000
0001
0100
0001
0000
,  // measure 53
1001
0000
1000
0100
1100
0000
0010
0001
0011
0000
0100
0010
0110
0000
1000
0001
,  // measure 54
1000
0000
1000
0100
1000
0000
1000
0001
1000
0000
1000
0010
1000
0000
1000
0001
,  // measure 55
1001
0000
0001
0100
0010
0000
0100
0010
0110
0000
1000
0010
0100
0000
0001
1000
,  // measure 56
1001
0000
1001
0000
0110
0000
0110
0000
1000
0100
0010
0001
0010
0100
1000
0001
,  // measure 57
1001
0000
1000
0000
0010
0000
0010
0000
1000
0010
0001
0010
0100
0001
1000
0100
,  // measure 58
0010
0000
1000
0000
0010
0000
0001
0000
1000
0000
0100
0000
0010
0000
0001
0000
0010
0000
0100
0000
1000
0000
0001
0000
0100
0000
0000
0101
0000
0000
1001
0000
,  // measure 59
1000
0001
0010
0001
0010
0001
0010
0100
0000
1000
0010
0001
0010
1000
0001
0000
,  // measure 60
1000
0001
0100
0001
0100
0001
0100
0010
0000
1000
0100
0010
0011
0000
1010
0000
,  // measure 61
0220
0000
0000
0000
,  // measure 62
0330
0000
0000
0000
;

//---------------dance-single - ----------------
#NOTES:
     dance-single:
     :
     Hard:
     12:
     0.569,0.733,0.489,0.369,0.116:
1001
0100
0100
0000
1001
0100
0100
0000
,
1001
0000
0001
0000
0010
0000
0100
0000
1000
0000
0001
0000
1000
0001
1000
0001
,
2000
0000
3002
0000
0100
0100
0100
0000
,
1000
0000
1000
0000
1003
0001
0010
0000
,
0002
0000
2003
0000
0010
0010
0010
0000
,
0100
0000
0100
0000
3100
0010
0001
0000
,
2000
0000
3002
0000
1000
1000
1000
0000
,
0100
0100
0103
0001
,
2000
0000
3200
0000
1000
1000
1000
0000
,
0010
0000
0010
0000
0310
0001
1000
1001
,
0001
0000
0100
0001
0100
0010
0100
0001
,
1000
0001
0010
0100
1000
0000
1001
0000
,
0001
0000
1000
0100
1000
0010
0100
0001
,
1000
0010
0100
0010
1000
0001
0010
0000
,
0001
0000
0100
0010
1000
0100
0010
0100
,
1000
0001
0010
0100
1000
0000
1001
0000
,
0001
0000
0010
0001
1000
0010
0100
0010
,
1000
0001
0100
0010
1000
0000
1001
0000
,
0101
0000
0200
0000
0301
0100
0001
1000
,
0001
0010
0000
0100
0010
0000
0100
0010
,
0100
0001
1000
0000
0100
1000
0001
0100
,
0001
0000
0100
0010
0000
1000
0100
0000
,
1100
2002
0000
3003
,
0011
2002
0000
3003
,
0202
0303
2020
3030
,
0220
0330
2002
3003
,
0001
0100
0001
0100
0001
0000
0000
0000
0100
0000
0100
0000
0110
0000
1000
0000
,
0100
0010
0100
0000
1000
1000
1001
0000
,
0100
0010
0100
0010
0100
0000
0000
0000
0001
0000
1000
0000
0001
0000
0001
0000
,
1000
0010
1000
0000
0001
0010
0001
0010
0100
1000
0100
0000
1000
0000
0000
0000
,
1001
0000
1001
0000
1000
0100
1000
0000
,
0010
0100
0001
0010
0001
0010
0001
0000
,
0101
0100
0110
0010
,
1000
0010
1000
0001
1000
0000
1001
0000
,
0001
0010
0100
1000
0001
0010
0100
0000
,
1000
0010
0100
0001
1000
0010
0100
0000
,
0001
1000
0100
0000
0100
0010
0001
0000
,
1000
0000
0010
0000
0100
0000
0000
0000
0100
0000
0000
0001
0000
0000
1000
0000
,
1001
0001
0001
0000
0100
0010
1000
0010
,
0100
0100
0100
0000
0001
0010
0100
0000
,
1001
0000
0001
0100
0000
0010
0100
0000
,
0001
0010
0100
1000
0001
0000
1001
0000
,
1000
0000
0100
1000
0000
0010
0100
0000
,
0001
0100
0010
1000
0001
0000
1001
0000
,
1100
0000
1100
0000
0010
0100
0010
0000
,
0101
0000
0101
0000
0010
0100
0010
0000
,
2002
3003
0022
0033
,
2200
3300
0220
0330
,
0201
0000
0320
0000
1000
1000
2030
0000
,
3002
0000
0023
0000
0001
0001
0031
0000
,
2001
0000
3020
0000
0100
0100
0230
0000
,
0302
0000
2003
0000
0001
0001
3001
0000
,
1001
1000
1010
0010
0110
0100
0101
0001
,
1001
1001
0110
0110
,
0011
0001
1001
1000
1100
0100
0110
0010
,
0011
0011
1001
1001
2020
0000
0000
3030
,
0110
0100
0010
0001
1000
0010
0100
0001
,
1000
0000
0100
0000
1000
0000
0000
0000
0001
0000
0100
0000
0001
0000
0000
0000
1000
0000
0001
0000
1000
0000
0000
0000
0001
0000
0000
0010
0000
0000
0100
0000
,
1000
0000
0001
0100
0001
0100
0001
0100
0000
0001
1000
0001
1000
0001
0010
0000
,
0001
0000
1000
0010
1000
0010
1000
0010
0000
1000
0001
1000
0001
0000
0011
0000
,
0220
0000
0000
0000
,
0330
0000
0000
0000
;

//---------------dance-single - ----------------
#NOTES:
     dance-single:
     :
     Medium:
     9:
     0.359,0.497,0.326,0.103,0.000:
0100
1100
0010
0011
,
0100
0110
0010
0110
,
1002
0100
0000
0000
,
2003
0000
3001
0000
,
0200
0010
0000
0000
,
0320
0000
0130
0000
,
1002
0010
0000
0000
,
2003
0000
3001
0000
,
0020
0100
0000
0000
,
2030
0000
0000
0000
3001
0000
0100
0010
,
0100
0010
0100
0010
,
0100
0000
0010
0000
1000
0001
1000
0000
,
0001
1000
0001
1000
,
0010
0000
0100
0000
0001
1000
0001
0000
,
0100
0001
0100
0010
,
1000
0000
0010
0000
1000
0001
1000
0000
,
0100
1000
0100
0010
,
0001
0010
0001
0000
,
1000
0100
0010
0001
,
0100
0010
1000
0100
,
1000
0010
0100
0001
,
0010
0000
0001
1000
0000
0001
1000
0000
,
1001
1001
0000
0000
,
0011
0011
0000
0000
,
1100
0000
0110
0000
,
1001
0000
0000
0000
,
0001
0000
1000
0000
0001
1000
0001
0000
,
0100
0000
0010
0000
0100
0010
0100
0000
,
0010
0000
0100
0000
0001
0100
0001
0000
,
1000
0100
1000
0100
1000
0001
1000
0000
,
1001
1000
0001
0100
,
0010
1000
0010
1000
,
0001
0010
0001
0010
,
0100
1000
0100
1000
,
1001
0000
0100
0000
,
0010
0000
0001
0000
,
1000
0100
0010
0001
,
0010
0100
1000
0001
,
1001
1000
1000
0000
0010
0100
0001
0100
,
0010
0010
0010
0000
1000
0100
0010
0000
,
1001
1000
0001
1000
,
0100
0000
0010
0000
0001
1000
0001
0000
,
1000
0100
1000
0100
,
1000
0001
1000
0000
0100
0010
0100
0000
,
1001
1001
0001
1000
,
1100
1100
0100
0010
,
1001
0000
0110
0000
,
1001
0000
0000
0000
,
0010
0000
0100
0000
0001
0100
1000
0000
,
0100
0000
0001
0000
1000
0010
0100
0000
,
1001
0000
0001
0000
1000
0010
0001
0000
,
0010
0000
1000
0000
0001
0100
0010
0000
,
1001
0010
0100
1000
,
1100
0110
0011
1001
,
0011
0110
1100
1001
,
1001
0010
0100
0010
0200
0000
0000
0000
,
0301
1000
0100
0000
0010
0001
0100
0000
,
0010
0100
0010
0100
0010
0100
0002
0000
,
1003
0100
0010
0001
0100
0100
0100
0000
,
0001
0100
0010
1000
0010
0010
0110
0110
,
2002
0000
0000
0000
,
3003
0000
0000
0000
;

//---------------dance-single - ----------------
#NOTES:
     dance-single:
     :
     Beginner:
     3:
     0.109,0.206,0.129,0.000,0.000:
1000
0000
0000
0000
,
0000
0000
0000
0000
,
0001
0000
0000
0000
,
0000
0000
0000
0000
,
1000
0000
0000
0000
,
0000
0000
0000
0000
,
0001
0000
0000
0000
,
0000
0000
0000
0000
,
1000
0000
0000
0000
,
0000
0000
0000
0001
,
1001
0000
0100
0000
,
0010
0000
0100
0000
,
0010
0000
0100
0000
,
0010
0000
1000
0000
,
0001
0000
0010
0000
,
0001
0000
1000
0000
,
0100
0000
1000
0000
,
0001
0000
0000
0000
,
1000
0000
0001
0000
,
1000
0000
0001
0000
,
0100
0000
0010
0000
,
0100
0000
0010
0000
,
1001
0000
0000
0000
,
1001
0000
0000
0000
,
1001
0000
0000
0000
,
0000
0000
0000
0000
,
0100
0000
0000
0000
,
0010
0000
0000
0000
,
1001
0000
0000
0000
,
0010
0000
0000
0000
,
1001
0000
0100
0000
,
0010
0000
1000
0000
,
0100
0000
1000
0000
,
0001
0000
0010
0000
,
1001
0000
0000
0000
,
0000
0000
0000
0000
,
0100
0000
0000
0000
,
0000
0000
0000
0000
,
0010
0000
0000
0000
,
0000
0000
0000
0000
,
0100
0000
0000
0000
,
0000
0000
0000
0000
,
0010
0000
0000
0000
,
0000
0000
0000
0000
,
0100
0000
0010
0000
,
1000
0000
0001
0000
,
1000
0000
0001
0000
,
1001
0000
0000
0000
,
0010
0000
0000
0000
,
0001
0000
0000
0000
,
1000
0000
0000
0000
,
0100
0000
0000
0000
,
1001
0000
0000
0000
,
0110
0000
0000
0000
,
1001
0000
0000
0000
,
1001
0000
0000
0000
,
0010
0010
0010
0000
,
0100
0100
0100
0000
,
1001
0000
0000
0000
,
0100
0000
0000
1001
,
1001
0000
0000
0000
;

//---------------dance-double - ----------------
#NOTES:
     dance-double:
     :
     Easy:
     6:
     0.267,0.340,0.257,0.266,0.000:
00011000
00001000
00011000
00001000
,
00011000
00100000
01000000
10000000
,
02000000
03200000
00000000
00000000
,
00000000
00000000
00300000
00000000
,
00002000
00023000
00000000
00000000
,
00000000
00000000
00030000
00000000
,
00000200
00000320
00000000
00000000
,
00000000
00000000
00000030
00000000
,
00000002
00002003
00000000
00000000
,
00000000
00000000
00003020
00000100
,
00000130
00000001
00000010
00000001
,
00010000
00000100
00010000
00000000
,
00001000
00010000
00001000
01000000
,
00100000
01000000
00100000
00000000
,
10000000
01000000
10000000
01000000
,
00100000
00001000
00100000
00000000
,
00001000
00010000
00001000
00000010
,
00000100
00000001
00000010
00000000
,
00000001
00000100
00000001
00000100
,
00000010
00010000
00001000
00000000
,
00010000
00001000
00100000
01000000
,
10000000
00000000
10000000
00000000
,
20020000
00000000
00000000
30030000
,
20020000
00000000
00000000
30030000
,
01100000
00000000
01100000
00000000
,
02200000
00000000
00000000
03300000
,
01000000
00100000
00001000
00010000
,
00000100
00000010
00000001
00000010
,
00000100
00001000
00010000
00010000
,
00011000
01000000
00100000
10000000
,
20020000
00000000
00000000
30030000
,
20020000
00000000
00000000
30030000
,
02200000
00000000
00000000
03300000
,
02200000
00000000
00000000
03300000
,
00010000
00000000
00100000
00000000
,
01000000
00000000
10000000
00000000
,
00010000
00000000
00100000
00000000
,
00001000
00000000
00010000
00000000
,
00012000
00000000
00000000
00000000
,
00023000
00000000
00000000
00031000
,
00010000
00000100
00010000
00000000
,
00000001
00000000
00000010
00000000
,
00000100
00010000
00000100
00000000
,
00010000
00000000
00001000
00000000
,
00100000
00001000
00100000
00000000
,
00010000
00000000
10000000
00000000
,
10010000
00000000
10010000
00000000
,
20020000
00000000
00000000
30030000
,
10000000
00100000
01000000
00001000
,
00010000
00000010
00000100
00000110
,
00000001
00000010
00000100
00010000
,
00001000
00100000
01000000
10010000
,
10000000
10010000
10000000
10010000
,
00100000
01100000
00100000
01100000
,
00001000
00011000
00001000
00011000
,
00010001
00010001
00000110
00000000
,
00000100
00000001
00000010
00000100
,
00010000
00001000
01000000
00100000
,
02100000
00000000
00000000
00000000
,
03200000
00000000
00000000
00000000
00000000
00000000
01300000
01000000
,
20020000
00000000
00000000
00000000
,
30030000
00000000
00000000
00000000
;

//---------------dance-double - ----------------
#NOTES:
     dance-double:
     :
     Medium:
     9:
     0.400,0.524,0.455,0.120,0.000:
10000000
10010000
00010000
10010000
,
01000000
00100000
01000000
00100000
01000000
00100000
10000000
10000000
,
10020000
01000000
00000000
00000000
,
02030000
00000000
03001000
00000000
,
00020000
00001000
00000000
00000000
,
00030200
00000000
00000310
00000000
,
00002001
00000100
00000000
00000000
,
00003200
00000000
00010300
00000000
,
00002000
00010000
00000000
00000000
,
02003000
00000000
00000000
00000000
03100000
00000000
10000000
00010000
,
10000000
01000000
10000000
01000000
,
00100000
00000000
00001000
00000000
00100000
00001000
00010000
00000000
,
00000010
00010000
00000010
00010000
,
00000100
00001000
00000100
00000000
00001000
00000001
00000010
00000000
,
00000100
00010000
00000100
00010000
,
00001000
00000000
01000000
00000000
00100000
01000000
00100000
00000000
,
10000000
01000000
10000000
01000000
,
00100000
00001000
00011000
00011000
,
00010000
00000100
00000010
00000001
,
00000100
00000010
00010000
00001000
,
01000000
00100000
10000000
00001000
,
01000000
00000000
00001000
00010000
00000000
00001000
00010000
00000000
,
00010010
00010010
00000000
00000000
,
00000110
00000110
00000000
00000000
,
00001001
00000000
00000110
00000000
,
00002002
00000000
00000000
00003003
,
00000101
00000000
00000001
00000000
00000010
00000100
00010000
00001000
,
00010000
00000000
00001000
00000000
01000000
00100000
10000000
00010000
,
10000000
00000000
01000000
00000000
00100000
00001000
00010000
00000000
,
00001000
00010000
00001000
00010000
00000010
00000100
00000010
00000000
,
00000110
00000100
00000101
00000100
,
00000110
00000100
00000101
00000100
,
00001001
00000001
00000011
00000001
,
00001001
00000001
00000011
00000001
,
00001001
00001000
00000010
00010000
,
00001000
00100000
01000000
10000000
,
01000000
00100000
00010000
00001000
,
00010000
00100000
01000000
10000000
,
01100000
01000000
01000000
01000000
00010000
10000000
01000000
10000000
,
00001000
00001000
00001000
00001000
00010000
00000010
00000100
00000000
,
00000110
00000100
00000001
00010000
,
00000100
00000000
00000010
00000000
00000001
00000100
00000001
00000000
,
00000010
00000100
00010000
00001000
,
00010000
00001000
01000000
00000000
00100000
01000000
00100000
00000000
,
01100000
01100000
10000000
00010000
,
10010000
10010000
00010000
00100000
,
00101000
00000000
00011000
00000000
,
00010010
00000000
00000110
00000000
,
00000010
00000000
00000100
00000000
00000001
00000100
00001000
00000000
,
00000100
00000000
00000001
00000000
00000010
00000100
00010000
00000000
,
00011000
00000000
01001000
00000000
01000000
00100000
10000000
00000000
,
10010000
00000000
11000000
00000000
01000000
00100000
00010000
00000000
,
00011000
00000110
00000011
00000110
,
00011000
00011000
00011000
00011000
,
01100000
10100000
01100000
00011000
,
00011000
00010000
00001000
00010000
00002000
00000000
00000000
00000000
,
00013000
00000010
00000100
00000000
00000001
00000100
00000010
00000000
,
00001000
00000100
00001000
00000100
00010000
00001000
00020000
00000000
,
00031000
00100000
01000000
10000000
00010000
00010000
00010000
00010000
,
10000000
00100000
01000000
00001000
00010000
00010000
00011000
00011000
,
00000220
00000000
00000000
00000000
,
00000330
00000000
00000000
00000000
;

//---------------dance-double - ----------------
#NOTES:
     dance-double:
     :
     Hard:
     12:
     0.595,0.785,0.515,0.378,0.133:
01100000
01000000
00001000
00000000
01100000
01000000
00001000
00000000
,
01100000
00000000
01000000
00000000
00001000
00000000
00010000
00000000
00000100
00000000
00000010
00000000
00000001
00001000
00000001
00001000
,
00000002
00000000
00000023
00000000
00000100
00000100
00000100
00000000
,
00010000
00000000
00010000
00000000
00010030
00001000
00100000
00000000
,
02000000
00000000
23000000
00000000
01000000
01000000
01000000
00000000
,
00010000
00000000
00010000
00000000
30010000
00100000
00001000
00000000
,
00020000
00000000
00030020
00000000
00000100
00000100
00000100
00000000
,
00001000
00001000
00001030
00000001
,
00000020
00000000
00000230
00000000
00000010
00000010
00000010
00000000
,
00001000
00000000
00001000
00000000
00001300
00000100
01000000
01000000
,
00100000
00000000
10000000
00010000
00100000
00010000
10000000
01000000
,
00100000
00001000
00010000
00000100
00000010
00000000
00000110
00000000
,
00000010
00000100
00000001
00000010
00000001
00000100
00000010
00010000
,
00001000
01000000
00100000
10000000
00100000
01000000
00010000
00000000
,
10000000
00010000
01000000
00010000
10000000
01000000
00100000
00001000
,
00010000
00000100
00000010
00000001
00001000
00000000
00001001
00000000
,
00000001
00001000
00000010
00001000
00000001
00000010
00000100
00000010
,
00000001
00010000
00000100
00010000
00001000
00000000
00011000
00000000
,
01001000
00000000
02000000
00000000
03010000
00100000
10000000
00100000
,
00010000
10000000
00000000
01000000
00100000
00000000
00001000
00010000
,
00000010
00000100
00000010
00000000
00001000
00000001
00000010
00001000
,
00000010
00000000
00000001
00000100
00000000
00000010
00010000
00000000
,
00011000
02002000
00000000
03003000
,
00011000
00020020
00000000
00030030
,
00022000
00033000
02200000
03300000
,
20020000
30030000
02200000
03300000
,
10000000
00010000
10000000
00010000
10000000
00000000
00000000
00000000
01000000
00000000
01000000
00000000
11000000
00000000
00100000
00000000
,
00001000
00010000
00000010
00000100
00000001
00000001
00000001
00000000
,
00000100
00000010
00000100
00000010
00000100
00000000
00000000
00000000
00000011
00000000
00000100
00000000
00010000
00000000
00001000
00000000
,
01000000
00010000
01000000
00000000
00010000
10000000
00010000
10000000
00100000
01000000
00100000
00000000
01000000
00000000
00000000
00000000
,
10010000
00000000
10010000
00000000
10000000
00010000
10000000
00000000
,
00100000
01000000
00001000
00010000
00001000
00010000
00001000
00000000
,
00011000
00010000
00010010
00000010
,
00000100
00000001
00000010
00000100
00010000
00000000
00011000
00000000
,
00001000
00100000
01000000
10000000
00001000
00100000
01000000
00000000
,
10000000
00100000
01000000
00001000
10000000
00100000
01000000
00000000
,
00001000
00010000
00000010
00000000
00000010
00000100
00000001
00000000
,
00000001
00000000
00000010
00000000
00000100
00000000
00000000
00000000
00000100
00000000
00000000
00010000
00000000
00000000
00001000
00000000
,
00011000
00001000
00001000
00100000
10000000
00100000
00010000
10000000
,
00100000
00100000
00100000
10000000
00100000
00010000
00100000
00000000
,
01100000
00000000
00100000
01000000
00000000
00001000
00010000
00000000
,
00000100
00001000
00000010
00000100
00000001
00000000
00001000
00000000
,
00001001
00000000
00000100
00000010
00000000
00001000
00000100
00000000
,
00010000
00001000
00100000
01000000
10000000
01000000
00100000
00000000
,
10010000
00000000
10010000
00000000
01000000
00100000
01000000
00000000
,
00011000
00000000
00011000
00000000
00010000
00001000
00010000
00000000
,
00022000
00033000
00000220
00000330
,
00000022
00000033
00002200
00003300
,
00000201
00000000
00000320
00000000
00001000
00001000
00002030
00000000
,
00003200
00000000
00020300
00000000
00001000
00001000
00031000
00000000
,
02102001
00000000
03203000
00000000
10000000
10000000
20300000
00000000
,
30020000
00000000
00230000
00000000
00001000
00001000
00301000
00000000
,
00011000
00011000
00010100
00010100
00000110
00000110
00001001
00001001
,
00000110
00000000
00000100
00000010
00000100
00000000
00000001
00001000
00000001
00000000
00000100
00000010
00000100
00000000
00000001
00001000
,
00000001
00001001
00010010
00010010
00011000
00011000
01001000
01001000
,
10010000
01100000
10010000
01100000
20020000
00000000
00000000
30030000
,
01010000
00010000
10000000
01000000
00100000
00001000
00010000
00000010
,
00000100
00000000
00000001
00000000
00000010
00000000
00000000
00000000
00000001
00000000
00000010
00000000
00000100
00000000
00000000
00000000
00010000
00000000
00000100
00000000
00010000
00000000
00000000
00000000
00001000
00000000
00000000
01000000
00000000
00000000
00100000
00000000
,
01100000
00000000
10000000
01000000
10000000
01000000
10000000
01000000
00000000
10000000
00010000
00100000
01000000
10000000
00010000
00000000
,
00100000
00000000
00001000
00010000
00001000
00010000
00001000
00010000
00000000
00000010
00000100
00000001
00000010
00000000
00000011
00000000
,
00000220
00000000
00000000
00000000
,
00000330
00000000
00000000
00000000
;

//---------------dance-double - ----------------
#NOTES:
     dance-double:
     :
     Challenge:
     15:
     0.737,0.811,0.386,0.163,0.541:
00010000
00001000
00010000
00000000
00000010
00000000
00000010
00000000
00010000
00001000
00010000
00000000
00000010
00000000
00000010
00000000
,
00010000
00000100
00010000
00000100
00000010
00000001
00000010
00000001
00001000
00000001
00001000
00000001
00001000
00000010
00001000
00000010
,
00010000
00000000
00000000
00000100
00000000
00000000
00000010
00000000
00000000
00000100
00000000
00000000
00010000
00000000
00000000
00000100
00000000
00000000
00000010
00000000
00000000
00000000
00000000
00000000
00000002
00000000
00000000
00000000
00000000
00000000
00001000
00000000
00000000
00000000
00000000
00000000
00001003
00000000
00000000
00000000
00000000
00000000
00000001
00000000
00000000
00000000
00000001
00000000
,
00000010
00000000
00000100
00000010
00000000
00000100
00001000
00000000
00000010
00000100
00000000
00000000
00000020
00000000
00000000
00010000
00000000
00000000
00010030
00000000
00000000
00000000
00000000
00000000
,
00001000
00000000
00000000
00100000
00000000
00000000
01000000
00000000
00000000
00100000
00000000
00000000
00001000
00000000
00000000
00100000
00000000
00000000
01000000
00000000
00000000
00000000
00000000
00000000
20000000
00000000
00000000
00000000
00000000
00000000
00010000
00000000
00000000
00000000
00000000
00000000
30010000
00000000
00000000
00000000
00000000
00000000
00100000
00000000
00000000
00000000
00100000
00000000
,
10000000
00000000
01000000
10000000
00000000
01000000
00100000
00000000
00010000
01000000
00000000
00000000
00200000
00000000
00000000
01000000
00000000
00000000
01300000
00000000
00000000
00000000
00000000
00000000
,
00001000
00000000
00000000
01000000
00000000
00000000
00100000
00000000
00000000
01000000
00000000
00000000
00001000
00000000
00000000
01000000
00000000
00000000
00100000
00000000
00000000
00000000
00000000
00000000
20000000
00000000
00000000
00000000
00000000
00000000
00010000
00000000
00000000
00000000
00000000
00000000
30010000
00000000
00000000
00000000
00000000
00000000
10000000
00000000
00000000
00000000
10000000
00000000
,
01000000
00000000
00100000
00010000
00000000
01000000
00001000
00000000
00010000
00001000
00000000
00000000
00010000
00000000
00000000
00000010
00000000
00000000
00000100
00000000
00000000
00000001
00000000
00000000
,
00001000
00000100
00000010
00000100
00001000
00000100
00000010
00000000
00000002
00000000
00000100
00000000
00000103
00000000
00000001
00001000
,
00000001
00001000
00000100
00010000
00000100
00010000
00000100
00000000
00010000
00000000
00001000
00000000
01100000
00000000
01100000
00000000
,
10000000
01000000
10000000
01000000
00100000
01000000
00100000
01000000
,
10000000
00100000
00010000
00100000
10000000
00000000
10010000
00000000
,
00010000
00100000
00010000
00100000
00001000
01000000
00001000
01000000
,
00001000
00010010
00000100
00000010
00000000
00010000
00000010
00000000
,
00000100
00000001
00000100
00000001
00001000
00000100
00001000
00000100
,
00001000
00000010
00000001
00000010
00001000
00000000
00001001
00000000
,
00000001
00000100
00000001
00000100
00000001
00010000
00000100
00010000
,
00000100
00001000
00020000
00000000
00130000
01000000
00100000
00000000
,
10000000
01000000
00020000
00000000
01030000
10000000
00100000
01000000
,
00020000
00100000
00000000
00230000
00001000
00000000
00301000
00010000
,
00000010
00000100
00000010
00000000
00000100
00000001
00000010
00000100
,
00002000
00000000
00003002
00000010
00000000
00020003
00001000
00000000
,
00031000
00000000
00011000
00000000
00100000
01000000
10000000
00000000
,
10010000
00000000
00110000
00000000
01000000
10000000
00001000
00000000
,
00011000
00010010
00000110
00000101
,
00001002
00001000
00002003
00000000
,
00003010
00000000
00000000
00000100
00000000
00000000
00000001
00000000
00000000
00000100
00000000
00000000
00000010
00000000
00000000
00000000
00000000
00000000
00010000
00000000
00000000
00000000
00000000
00000000
00001000
00000000
00000000
00000000
00000000
00000000
00001000
00000000
00000000
00000000
00000000
00000000
00011000
00000000
00000000
00000000
00000000
00000000
01000000
00000000
00000000
00000000
01000000
00000000
,
00100000
00000000
00000000
00000000
10000000
00000000
01000000
00000000
00000000
00000000
00100000
00000000
00010000
00000000
00000000
00000000
00000000
00000000
10000000
00000000
00000000
00000000
00000000
00000000
10000000
00000000
00000000
00100000
00000000
00000000
01000000
00000000
00000000
00000000
00000000
00000000
01100000
00000000
00000000
00000000
00000000
00000000
00000000
00000000
00000000
00000000
00000000
00000000
,
00100000
01000000
10000000
01000000
00100000
01000000
10000000
00000000
00010000
00000000
00010000
00000000
00001000
00000000
00001000
00000000
,
00000010
00000100
00000010
00000100
00000001
00000010
00000001
00000010
00000100
00010000
00000100
00010000
00001000
00000000
01000000
00100000
,
02000000
00000000
03100000
00000000
01000000
00010000
00100000
01000000
,
10000000
00010000
00100000
01000000
00100000
00001000
00010000
00000010
,
00000100
00000001
00010000
00000001
00000010
00001000
00000010
00000001
,
00010000
00000100
00000010
00000001
00010000
00000000
00011000
00000000
,
00001000
01000000
10000000
01000000
00001000
00100000
01000000
10000000
,
00010000
01000000
00010000
10000000
01000000
00100000
01000000
00000000
,
10000000
00100000
00010000
00100000
10000000
00001000
00010000
00000000
,
00000010
00000000
00000100
00000000
00000001
00000000
00001000
00000000
00000100
00000000
00000000
00001100
00000000
00000000
00001001
00000000
,
00000001
00010000
00000100
00010000
00000100
00010000
00000100
00010000
00000000
00010000
00001000
01000000
10000000
01000000
00100000
00000000
,
00001000
00010000
00000100
00010000
00000100
00010000
00000100
00010000
00000000
00010000
00000010
00000100
00000002
00000000
00000000
00000000
,
00010003
00000100
00010000
00000001
00010000
00000100
00010000
00000000
,
00011000
00000000
00000000
01001000
00000000
00000000
01100000
00000000
00000000
10000000
00000000
10000000
,
00100000
00000000
01000000
00010000
00000000
00100000
01000000
00000000
10000000
00010000
00000000
00000000
,
10010000
01001000
00011000
00000000
,
00000010
00000100
00000001
00000010
00000001
00000100
00000010
00000000
,
00000110
00000000
00010010
00000000
00011000
00000000
00100000
01000000
,
00100000
00010000
01000000
00010000
10000000
01000000
00100000
01000000
,
10000000
10010000
00110000
00000000
,
10000000
00000000
10000000
00000000
10000000
00010000
01000000
00000000
00010000
00100000
01000000
00000000
10000000
00010000
10000000
00000000
,
00001000
00000000
00001000
00000000
00001000
00010000
00000010
00000000
00000100
00000001
00001000
00000001
00001000
00000001
00000100
00000000
,
00011000
00000000
00010000
00000000
00011000
00000000
00001000
00000000
00100000
01000000
10000000
01000000
00100000
00000000
00001000
00000000
,
00010000
00000000
00010000
00000000
00000010
00000100
00000001
00000000
00000100
00000001
00000100
00000001
00010000
00000100
00010000
00000000
,
00011000
00000000
01000000
00010000
01000000
00000000
00010000
10000000
10010000
00000000
00001000
00010000
00011000
00000000
00000010
00000100
,
00000001
00000000
00000100
00000010
00001000
00000000
00000100
00010000
00001000
00000000
00010000
00001000
01000000
00000000
00010000
10000000
,
10010000
00000000
01000000
00100000
00010000
00000000
00001000
00010000
00011000
00000000
00000010
00000100
00000001
00000000
00001000
00000001
,
00001001
00000000
00001001
00000000
00010010
00000000
00010010
00000000
00010000
00001000
00010000
00001000
01000000
00100000
01000000
00100000
,
10000000
00000000
10000000
00000000
00010000
00000000
00010000
00000000
10000000
00010000
00100000
10000000
00100000
00010000
10000000
00100000
,
10000000
00000000
00001000
00000000
00010000
00000000
00000010
00000000
00000100
00000000
00000001
00000000
00001000
00000000
00000010
00000000
00000001
00000000
00000010
00000000
00001000
00000000
00000100
00000000
00000010
00000000
00000000
00000011
00000000
00000000
00010001
00000000
,
00010000
00001000
01000000
00001000
01000000
00001000
01000000
00001000
00000000
00001000
10000000
00100000
01000000
00001000
00100000
00000000
,
00001000
00010000
00000010
00010000
00000010
00010000
00000010
00010000
00000000
00010000
00000001
00000100
00000110
00000000
00010010
00000000
,
00022000
00000000
00000000
00000000
,
00033000
00000000
00000000
00000000
;
