#TITLE:真夏の花・真夏の夢;
#SUBTITLE:;
#ARTIST:Sana;
#TITLETRANSLIT:MANATSU NO HANA MANATSU NO YUME;
#SUBTITLETRANSLIT:;
#ARTISTTRANSLIT:;
#CREDIT:DigiMindAxel;
#BANNER:MANATSU NO HANA MANATSU NO YUME.png;
#BACKGROUND:MANATSU NO HANA MANATSU NO YUME-bg.png;
#LYRICSPATH:MANATSU NO HANA MANATSU NO YUME.lrc;
#CDTITLE:beatmania IIDX.png;
#MUSIC:MANATSU NO HANA MANATSU NO YUME.ogg;
#METERTYPE:DDR X;
#OFFSET:-15.606;
#SAMPLESTART:74.174;
#SAMPLELENGTH:12.000;
#SELECTABLE:YES;
#BPMS:0.000=130.000;
#STOPS:;
#BGCHANGES:;

//---------------dance-single - ----------------
#NOTES:
     dance-single:
     :
     Easy:
     3:
     0.168,0.223,0.039,0.227,0.000:
2000
0000
0000
0000
,
3002
0000
0000
0000
,
2003
0000
0000
0000
,
3002
0000
0000
0000
,
2003
0000
0000
0000
,
3002
0000
1000
0000
,
2003
0000
0001
0000
,
3001
1000
0000
0000
,
1001
0000
0001
0000
,
1000
0001
1000
0001
,
1000
0000
1000
0000
,
0010
0100
0010
0100
,
0010
0000
0010
0000
,
0100
0001
0100
0001
,
0100
0000
0100
0000
,
0001
1000
0001
0000
,
1001
0000
1000
0000
,
1000
0000
0001
0000
,
0001
0000
1000
0000
,
1000
0000
0001
0000
,
0001
1000
0001
0000
,
1000
0100
1000
0000
,
0001
0010
0001
0000
,
2000
0000
0000
0000
,
3010
1000
0010
0000
,
0100
0001
0100
0000
,
0010
0100
0010
0000
,
1000
0100
1000
0000
,
0001
0010
0001
0000
,
0010
0000
0100
0000
0010
0000
0000
0002
,
0000
1000
0000
1003
,
0001
1000
0001
1000
,
0002
0000
0103
0000
,
0020
0000
1030
0000
,
0002
0000
1003
0000
,
0002
0000
0013
0000
,
0200
0000
1300
0000
,
0020
0000
0130
0000
,
0002
0000
0103
0000
,
0020
0000
0130
0000
,
0020
0000
1030
0001
,
0200
0000
0301
1000
,
0200
0000
1300
0001
,
0200
0000
0301
1000
,
0220
0000
0000
0000
,
0000
0000
0330
0000
,
2002
0000
0000
0000
,
0000
0000
3003
0000
,
1001
0000
0000
0000
,
0001
0000
0000
0000
,
1000
0000
0000
0000
,
0001
0000
0000
0000
,
1000
0000
0000
0000
,
0002
0000
0000
0000
,
2003
0000
0000
0000
,
3002
0000
0000
0000
,
2000
0000
0000
0000
,
3003
0000
0000
0000
;

//---------------dance-single - ----------------
#NOTES:
     dance-single:
     :
     Medium:
     5:
     0.241,0.290,0.063,0.211,0.008:
2000
0000
0000
0000
,
3002
0000
0000
0000
,
2003
0000
0000
0000
,
3200
0000
0000
0000
,
0320
0000
0000
0000
,
0031
1000
0001
1000
,
0100
0010
0100
0010
,
0001
0100
0000
0000
,
1001
1000
0001
1000
,
0010
1000
0010
1000
,
0001
1000
0001
1000
,
0001
0010
0001
0010
,
1001
1000
0001
1000
,
0100
1000
0100
1000
,
0001
0100
0001
0100
,
0001
0001
1000
1000
,
1001
1000
0000
0001
,
0000
0100
0000
0001
,
0000
1000
0000
0010
,
0000
0100
0001
1000
,
0001
0010
0000
0100
,
0000
0010
0000
0001
,
0000
1000
0000
0001
,
2000
0000
0000
3000
,
0110
0010
1000
0010
,
0100
0001
0100
0001
,
0010
0100
0010
0100
,
1000
0001
1000
0001
,
0100
0010
0100
0010
,
1000
0000
0100
0000
1000
0000
0010
0200
,
0000
0010
0310
1000
,
0010
0100
0010
0000
1000
0001
1000
0000
,
2001
0100
0001
0100
,
3002
0100
1000
0100
,
2003
0100
0001
0100
,
3002
0100
1000
0100
,
2003
0010
0100
0010
,
3002
0100
0010
0103
,
2000
0010
0100
3010
,
1000
0001
1000
0000
0010
0100
0010
0000
,
1002
0010
1000
0010
,
2003
0010
0001
0010
,
3002
0010
1000
0010
,
2003
0010
0001
3010
,
0220
0000
0000
0000
,
0000
0000
0000
0330
,
2002
0000
0000
0000
,
3000
0000
0000
0000
0000
0000
1003
0000
1000
0000
1000
0000
,
0001
0100
1000
0100
,
0001
0100
0010
1000
,
0100
0001
0100
1000
,
0100
0010
0001
1000
,
0020
0100
0000
0100
,
2030
0001
0000
0001
,
3020
0100
0000
0100
,
2030
0000
0000
0000
,
0002
0000
0000
0000
,
3003
0000
0000
0000
;

//---------------dance-single - ----------------
#NOTES:
     dance-single:
     :
     Beginner:
     1:
     0.058,0.110,0.070,0.000,0.000:
1000
0000
0000
0000
,
0000
0000
0000
0000
,
1000
0000
0000
0000
,
0000
0000
0000
0000
,
0001
0000
0000
0000
,
0000
0000
0000
0000
,
0001
0000
0000
0000
,
1000
0000
0000
0000
,
1001
0000
0000
0000
,
0000
0000
0000
0000
,
0001
0000
0000
0000
,
0000
0000
0000
0000
,
1000
0000
0000
0000
,
0000
0000
0000
0000
,
0001
0000
0000
0000
,
0000
0000
0000
0000
,
1001
0000
0000
0000
,
0000
0000
0000
0000
,
0100
0000
0000
0000
,
0000
0000
0000
0000
,
0100
0000
0000
0000
,
0000
0000
0000
0000
,
0100
0000
0000
0000
,
0000
0000
0000
0000
,
0110
0000
0000
0000
,
0100
0000
0000
0000
,
0010
0000
0000
0000
,
0100
0000
0000
0000
,
0010
0000
0000
0000
,
1000
0000
0000
0000
0000
0000
0000
0110
,
0000
0000
0000
0000
,
0001
0000
0000
0000
,
1001
0000
0000
0000
,
1000
0000
0000
0000
,
1000
0000
0000
0000
,
0001
0000
0000
0000
,
0001
0000
0000
0000
,
1000
0000
0000
0000
,
0001
0000
0000
0000
,
0100
0000
0100
0000
,
1001
0000
0000
0000
,
0001
0000
0000
0000
,
0001
0000
0000
0000
,
1000
0000
0000
0000
,
1001
0000
0000
0000
,
0000
0000
0000
0000
,
0001
0000
0000
0000
,
0000
0000
1001
0000
,
1001
0000
0000
0000
,
0000
0000
0000
0000
,
0000
0000
0000
0000
,
0000
0000
0000
0000
,
1000
0000
0000
0000
,
1000
0000
0000
0000
,
0001
0000
0000
0000
,
0001
0000
0000
0000
,
0010
0000
0000
0000
;

//---------------dance-single - ----------------
#NOTES:
     dance-single:
     :
     Hard:
     8:
     0.366,0.379,0.110,0.196,0.086:
2000
0000
0100
3100
,
0020
0000
0001
0031
,
0200
0000
0010
0310
,
2000
0000
0010
3010
,
1000
0000
0001
0000
1000
0100
0010
0100
,
1000
0000
0010
0000
0100
0001
0010
0001
,
0100
0000
0001
0000
0010
0100
1000
0100
,
0010
0001
0000
0000
,
1001
0000
0000
0001
1000
0000
0000
0000
0100
0000
0000
0000
1100
0000
0000
0000
,
0001
0000
0000
0010
0100
0000
0000
0000
1000
0000
0000
0000
1100
0000
0000
0000
,
0010
0000
0000
0001
0100
0000
0000
0000
0010
0000
0100
0000
0010
0000
0000
0000
,
0100
0000
0000
0001
1000
0000
0000
0000
0100
0000
0010
0000
0100
0000
0000
0000
,
1001
0000
0000
1000
0100
0000
0000
0000
1000
0000
0001
0000
1000
0000
0100
0000
,
0010
0000
0000
0001
0100
0000
0000
0000
0010
0000
0100
0000
0001
0000
0100
0000
,
0010
0000
0000
1000
0001
0000
0000
0000
0100
0000
0001
0000
1000
0000
0100
0000
,
0010
0000
0001
0100
0000
0000
0001
0100
0000
0000
0001
0100
0000
0000
0001
0100
,
0001
1000
0000
0100
0000
0010
0000
0001
,
1000
0001
0000
0100
0000
0010
0000
1000
,
0001
1000
0000
0100
0000
0010
0000
0100
,
1000
0100
0000
0010
0000
0001
1000
1000
,
0001
0010
0000
0100
0000
0010
0000
0001
,
0100
0001
0000
0010
0000
0100
0000
1000
,
0001
1000
0000
0100
0000
1000
0000
0001
,
0020
0000
0000
0000
0000
0000
0031
1000
,
0001
0000
0100
0001
0100
0001
1000
0100
,
0010
0101
0110
1010
,
1001
0000
0100
1000
0100
1000
0010
1000
,
0001
0010
1000
0010
,
0001
0000
1000
0100
1000
0100
0010
0100
,
0010
0000
0101
0000
1001
0000
1000
1200
,
0000
1000
1300
0001
,
0010
0100
1000
0001
0010
0100
1000
1000
,
0002
0000
1000
0000
0103
0001
0010
0100
,
2000
0000
0010
0000
3100
1000
0010
0100
,
0002
0000
0100
0000
1003
0001
0010
0100
,
0020
0000
0001
0000
0130
1000
0010
0100
,
0002
0000
0010
0000
1003
0001
0010
0100
,
0020
0000
0001
0000
0130
1000
0010
0100
,
0020
0000
0100
0000
0031
1000
0100
0010
,
0001
0000
1000
0010
0000
0000
1000
0010
0000
0000
1000
0010
0000
0000
1000
0010
,
2000
0000
0001
0000
3100
1000
0010
0100
,
0002
0000
0100
0000
1003
0001
1000
0100
,
0020
0000
0001
0000
0130
1000
0010
0100
,
0002
0000
1000
0000
0103
0001
0010
0100
,
2200
0000
0000
0000
,
0000
0000
3300
1001
,
0200
0000
0000
0000
,
0010
0000
0000
0010
0000
0000
0310
0000
0010
0000
0010
0000
,
1001
0000
0000
1000
0001
0000
0000
0000
0100
0000
0010
0000
0100
0000
0000
0000
,
0001
0000
0000
0001
1000
0000
0000
0000
0010
0000
0100
0000
0010
0000
0000
0000
,
1000
0000
0000
1000
0010
0000
0000
0000
0100
0000
0000
0100
0001
0000
0000
0000
,
0001
0000
0000
0001
0010
0000
0000
0000
0100
0000
0100
0000
0100
0000
0000
0000
,
2000
0000
0100
3100
,
0020
0000
0100
0130
,
0002
0000
0100
0103
,
0002
0000
1000
1003
,
0200
0000
0000
0000
,
0300
0000
0000
0000
;

//---------------dance-single - ----------------
#NOTES:
     dance-single:
     :
     Challenge:
     11:
     0.457,0.491,0.047,0.094,0.219:
0000
0000
1000
0000
0000
1000
0000
0000
0010
0000
0000
0000
0010
0000
0000
0000
,
0000
0000
1000
0000
0000
1000
0000
0000
0001
0000
0000
0000
0001
0000
0000
0000
,
0000
0000
0010
0000
0000
0010
0000
0000
0100
0000
0000
0000
0100
0000
0000
0000
,
0000
0000
1000
0000
0000
1000
0000
0000
0010
0000
0000
0000
0010
0000
0000
0000
,
1000
0100
0010
0000
0001
0001
1000
1000
,
0001
0010
0100
0000
0010
0010
0001
0001
,
1000
0010
0100
0000
0010
0010
1000
1000
,
0001
0010
0100
2000
0000
0000
0000
0000
,
3001
0000
1000
0100
1000
0000
0001
0000
1000
0000
0100
0000
0010
0000
0000
0000
,
0001
0000
0100
0010
0100
0000
0001
0000
1000
0000
0100
0000
0010
0000
0000
0000
,
0100
0000
1000
0010
1000
0000
0100
0000
0010
0000
0001
0000
0100
0000
0000
0000
,
0010
0000
1000
0001
1000
0000
0010
0000
0100
0000
0000
0001
1000
0000
1000
0000
,
0001
0000
0100
0001
0100
0000
0001
0000
0010
0000
0100
0000
1000
0000
0000
0000
,
0010
0000
1000
0001
1000
0000
0010
0000
0100
0000
0001
0000
1000
0000
0000
0000
,
0100
0000
1000
0001
1000
0000
0100
0000
0010
0000
0001
0000
0100
0000
0000
0000
,
0001
0000
1000
0100
1000
0000
0001
0010
0001
0000
1000
0001
1000
0001
1000
0001
,
1000
0100
1000
0100
0010
0001
0010
0000
,
0100
0010
0100
0010
0100
1000
0010
0000
,
0100
0010
0100
0010
1000
0010
0100
0000
,
0001
0000
0010
0000
0001
0000
0010
0000
0100
0000
0000
1000
0001
0000
0001
0000
,
1000
0010
1000
0010
0100
0001
0010
0000
,
0100
1000
0100
1000
0010
0100
0001
0000
,
0010
0100
0010
0100
1000
0010
0100
0001
,
0020
0000
0000
0000
0000
0000
0000
0000
0000
0000
0031
1000
0001
1000
0001
1000
,
0001
0010
0100
0010
0001
1000
0001
0010
,
0100
2000
0000
0001
0000
3010
0000
2000
,
0000
3100
0010
0100
1000
0001
0010
1000
,
0010
0000
0001
0000
1000
0000
0000
0000
0001
0000
0000
1000
0001
0000
0001
0000
,
1000
0100
0010
0100
1000
0001
1000
0100
,
0010
0002
0000
0010
0000
1003
0000
1001
,
0000
1000
0100
1000
0100
0010
0001
0010
,
0001
0000
1000
0010
1000
0000
0001
0100
0001
0000
1000
0001
1000
0000
0001
1000
,
0001
0000
0000
1000
0010
0000
0100
0000
0010
0000
0100
0000
0001
0000
0010
0000
,
0100
0000
0000
0100
1000
0000
0010
0000
0100
0000
0010
0000
1000
0000
0000
0000
,
0001
0000
0000
0001
0100
0000
0010
0000
0100
0000
0010
0000
1000
0000
0100
0000
,
0010
0000
0000
0010
0001
0000
0100
0000
0010
0000
0100
0000
0001
0000
0000
0000
,
0100
0000
0000
0100
0001
0000
1000
0000
0100
0000
1000
0000
0001
0000
0010
0000
,
0100
0000
0000
0100
0010
0000
0001
0000
0100
0000
0010
0000
0100
0000
0000
0000
,
0010
0000
0000
0010
1000
0000
0001
0000
0010
0000
0001
0000
1000
0000
0100
0000
,
0010
0000
0001
1000
0001
0000
1000
0001
1000
0000
0010
0100
0010
0000
0100
0010
,
0100
0000
0000
0010
1000
0000
0100
0000
0010
0000
0000
0010
0100
0000
1000
0000
,
0001
0000
0000
0001
0100
0000
0010
0000
0100
0000
0000
0100
0001
0000
1000
0000
,
0010
0000
0000
0010
0100
0000
0001
0000
0010
0000
0000
0010
0100
0000
1000
0000
,
0001
0000
0000
0001
1000
0000
0100
0000
0010
0000
0000
0010
0001
0000
0100
0000
,
0020
0100
0000
0100
,
0000
0100
0030
0110
,
2000
0001
0000
0001
,
0000
0000
0000
3001
0000
0000
0101
0000
0101
0000
0101
0000
,
1001
0000
0000
1000
0020
0000
0000
0000
0130
0000
0100
0000
0001
0000
0001
0000
,
1000
0000
0000
1000
0200
0000
0000
0000
0310
0000
0010
0000
0001
0000
0001
0000
,
1000
0000
0000
1000
0002
0000
0000
0000
0013
0000
0010
0000
0100
0000
0100
0000
,
0010
0000
0000
0010
0002
0000
0000
0000
1003
0001
1000
0000
0001
0000
0001
0000
,
0000
0000
0100
0000
0000
0100
0000
0000
0001
0000
0001
0000
1000
0000
1000
0000
,
0000
0000
0100
0000
0000
0100
0000
0000
1000
0000
1000
0000
0010
0000
0010
0000
,
0000
0000
0100
0000
0000
0100
0000
0000
0001
0000
0001
0000
0010
0000
0010
0000
,
0000
0000
0100
0000
0000
0100
0000
0000
1000
0000
1000
0000
0001
0000
0001
0000
,
0200
0000
0000
0000
,
0300
0000
0000
0000
;

//---------------dance-double - ----------------
#NOTES:
     dance-double:
     :
     Easy:
     4:
     0.174,0.223,0.031,0.235,0.000:
20000000
00000000
00000000
00000000
,
30020000
00000000
00000000
00000000
,
20030000
00000000
00000000
00000000
,
30020000
00000000
00000000
00000000
,
10030000
00000000
01000000
00000000
,
00100000
00000000
00001000
00000000
,
00010000
00000000
00001000
00000000
,
00010000
00010000
00000000
00000000
,
00000010
00000000
00000100
00000000
,
00000001
00001000
00000001
00001000
,
00000001
00000000
00000010
00000000
,
00000100
00010000
00000100
00010000
,
00001000
00000000
00010000
00000000
,
00001000
10000000
00001000
10000000
,
00001000
00000000
01000000
00000000
,
00100000
10000000
00100000
10000000
,
10010000
00000000
00010000
00000000
,
01000000
00000000
00001000
00000000
,
00010000
00000000
00000010
00000000
,
00000100
00000000
00000001
00000000
,
00000010
00000100
00001000
00000000
,
00010000
00001000
00010000
00000000
,
00100000
01000000
10000000
00000000
,
00020000
00000000
00000000
00000000
,
10030000
00100000
01000000
00001000
,
00010000
00001000
00010000
00000000
,
00000100
00000010
00000001
00001000
,
00000100
00001000
00000100
00000000
,
00010000
00001000
01000000
00000000
,
00100000
00000000
01000000
00000000
00100000
00000000
00000000
20000000
,
00000000
00010000
00000000
30010000
,
10000000
01000000
10000000
01000000
,
00200000
00000000
00310000
00000000
,
00002000
00000000
00013000
00000000
,
00000020
00000000
00000130
00000000
,
00000002
00000000
00000103
00000000
,
00000020
00000000
00000130
00000000
,
00000002
00000000
00001003
00000000
,
00000200
00000000
00010300
00000000
,
00001000
00010000
00001000
00010000
,
02000000
00000000
03100000
10000000
,
02000000
00000000
13000000
00100000
,
02000000
00000000
03100000
10000000
,
00002000
00000000
00013000
00000010
,
00000220
00000000
00000000
00000000
,
00000000
00000000
00000330
00000000
,
00002002
00000000
00000000
00000000
,
00000000
00000000
00003003
00000000
,
00001002
00000000
00000000
00000000
,
00000023
00000000
00000000
00000000
,
00000230
00000000
00000000
00000000
,
00020300
00000000
00000000
00000000
,
00032000
00000000
00000000
00000000
,
02003000
00000000
00000000
00000000
,
03200000
00000000
00000000
00000000
,
20300000
00000000
00000000
00000000
,
30002000
00000000
00000000
00000000
,
00003000
00000000
00000000
00000000
;

//---------------dance-double - ----------------
#NOTES:
     dance-double:
     :
     Medium:
     6:
     0.260,0.335,0.102,0.211,0.008:
20000000
00000000
00000000
00000000
,
30020000
00000000
00000000
00000000
,
20030000
00000000
00000000
00000000
,
32000000
00000000
00000000
00000000
,
03200000
00000000
00000000
00000000
,
00301000
00010000
00001000
00010000
,
00000100
00000010
00000100
00000010
,
00000001
00001000
00000000
00000000
,
00000110
00000000
00000010
00000000
00001000
00000100
00001000
00000000
,
00000100
00000000
00010000
00000000
00001000
01000000
00001000
00000000
,
00100000
00000000
01000000
00000000
10000000
00010000
10000000
00000000
,
00001000
00000000
01000000
00000000
00001000
00010000
00001000
00000000
,
00011000
00000000
00010000
00000000
00000010
00000100
00000010
00000000
,
00001000
00000000
00000001
00000000
00000010
00000100
00000010
00000000
,
00000001
00000000
00010000
00000000
00001000
00010000
00001000
00000000
,
01100000
01100000
01100000
01100000
,
10010000
00010000
00000000
10000000
,
00000000
00001000
00000000
00010000
,
00000000
00000100
00000000
00000010
,
00000000
00000100
00001000
00000100
,
00010000
00001000
00000000
00100000
,
00000000
01000000
00000000
10000000
,
00000000
00010000
00000000
01000000
,
00200000
00000000
00000000
00300000
,
01100000
01000000
00100000
01000000
,
00001000
00010000
00001000
00010000
,
00000100
00000010
00000100
00000010
,
00000001
00000100
00000001
00000100
,
00000001
00010000
00000100
00010000
,
00000001
00000000
00001000
00000000
00010000
00000000
01000000
00200000
,
00000000
01000000
01300000
00010000
,
10000000
00100000
10000000
00100000
01000000
00100000
01000000
00000000
,
20010000
01000000
00010000
01000000
,
30020000
01000000
10000000
01030000
,
00002000
00100000
00010000
00103000
,
00000020
00000100
00010000
00000130
,
00000002
00000010
00000100
00000013
,
00000200
00001000
00000010
00001300
,
00020000
00100000
01000000
00130000
,
00010000
10000000
00010000
10000000
00010000
00100000
00010000
00000000
,
10020000
00100000
10000000
00130000
,
00002000
01000000
00100000
01003000
,
00000020
00000100
00010000
00000130
,
00000002
00001000
00000100
00001003
,
00002002
00000000
00000000
00000000
,
00000000
00000000
00003003
00000101
,
00000220
00000000
00000000
00000000
,
00000030
00000000
00000000
00000000
00000000
00000000
00000310
00000000
00000010
00000000
00000010
00000000
,
00001000
00000100
00000001
00000100
,
00001000
00000100
00000010
00000100
,
00010000
00001000
00100000
10000000
,
00100000
00000000
00001000
00000000
00010000
00001000
00010000
00000000
,
00000020
00001000
00000000
00001000
,
00002030
00000001
00000000
00000001
,
00003200
00010000
00000000
00010000
,
00020300
00000000
00001000
00000000
,
00032000
00000000
00000000
00000000
,
00003000
00000000
00000000
00000000
;

//---------------dance-double - ----------------
#NOTES:
     dance-double:
     :
     Hard:
     8:
     0.370,0.379,0.117,0.164,0.082:
20000000
00000000
00010000
30010000
,
00200000
00000000
00001000
00301000
,
00020000
00000000
00001000
00031000
,
00000020
00000000
00000100
00000130
,
00000001
00000000
00000100
00000000
00000001
00000010
00000100
00000010
,
00000001
00000000
00010000
00000000
00001000
10000000
00100000
01000000
,
00001000
00000000
00010000
00000000
00000100
00000010
00000001
00000010
,
00000100
00001000
00000000
00000000
,
01100000
00000000
00000000
01000000
00100000
00000000
00000000
00000000
10000000
00000000
00000000
00000000
11000000
00000000
00000000
00000000
,
00001000
00000000
00000000
00001000
00010000
00000000
00000000
00000000
00000010
00000000
00000000
00000000
00000110
00000000
00000000
00000000
,
00001000
00000000
00000000
00001000
00000001
00000000
00000000
00000000
00000010
00000000
00000001
00000000
00000010
00000000
00000000
00000000
,
00000100
00000000
00000000
00000100
00010000
00000000
00000000
00000000
00001000
00000000
00010000
00000000
00001000
00000000
00000000
00000000
,
01100000
00000000
00000000
00100000
01000000
00000000
00000000
00000000
00010000
00000000
10000000
00000000
00001000
00000000
00010000
00000000
,
00001000
00000000
00000000
00010000
00000010
00000000
00000000
00000000
00000100
00000000
00000001
00000000
00000010
00000000
00000100
00000000
,
00000010
00000000
00000000
00000001
00000100
00000000
00000000
00000000
00000010
00000000
00010000
00000000
00001000
00000000
01000000
00000000
,
00100000
00000000
01000000
00010000
00000000
00000000
01000000
00010000
00000000
00000000
01000000
00010000
00000000
00000000
01000000
00010000
,
01000000
00001000
00000000
00010000
00000000
00000100
00000000
00000010
,
00000001
00000010
00000000
00000001
00000000
00000100
00000000
00000010
,
00001000
00000010
00000000
00001000
00000000
00010000
00000000
00100000
,
01000000
00100000
00000000
00010000
00000000
10000000
00001000
00001000
,
00010000
00000010
00000000
00000100
00000000
00000001
00000000
00000010
,
00000100
00000010
00000000
00000001
00000000
00010000
00000000
00001000
,
00010000
00001000
00000000
00100000
00000000
01000000
00000000
10000000
,
00020000
00000000
00000000
00000000
00000000
00000000
10030000
00010000
,
10010000
00000000
10000000
00100000
10000000
00100000
10000000
01000000
,
00100000
00011000
00010010
00000110
,
00000100
00000000
00000001
00000010
00000001
00000010
00000100
00010000
,
00001000
01000000
00100000
01000000
,
00001000
00000000
01000000
00100000
01000000
00100000
10000000
01000000
,
00100000
00000000
00011000
00000000
00010010
00000000
00000010
00000110
,
00000000
00000000
00000100
00000010
00000100
00000000
00000001
00001000
,
00000001
00000010
00000100
00001000
00010000
00100000
01000000
10000000
,
00020000
00000000
10000000
00000000
01030000
00010000
00100000
01000000
,
20000000
00000000
00100000
00000000
31000000
10000000
00100000
01000000
,
00002000
00000000
00010000
00000000
00013000
00000010
00000100
00000001
,
00000200
00000000
00000001
00000000
00000310
00001000
00000100
00000010
,
00020001
00000000
00001000
00000000
00031000
01000000
00100000
01000000
,
00020000
00000000
10000000
00000000
00130000
00001000
00010000
00000010
,
00000200
00000000
00000010
00000000
00000301
00001000
00000100
00000010
,
00000001
00000000
00010000
00001000
00000000
00000000
00010000
00001000
00000000
00000000
00010000
00001000
00000000
00000000
00010000
00001000
,
00020000
00000000
00001000
00000000
00030010
00010000
00001000
00100000
,
02000000
00000000
10000000
00000000
03100000
00010000
10000000
00010000
,
20000000
00000000
01000000
00000000
30010000
10000000
01000000
00100000
,
00002000
00000000
00010000
00000000
00013000
00000010
00000100
00000001
,
00001001
00001000
00000000
00001000
,
00000000
00000010
00000000
00000110
,
00010000
00001000
00000000
00001000
,
01000000
00000000
00000000
00001000
00000000
00000000
10000000
00000000
10000000
00000000
10000000
00000000
,
10001000
00000000
00000000
00001000
00010000
00000000
00000000
00000000
00000100
00000000
00000010
00000000
00000100
00000000
00000000
00000000
,
00001000
00000000
00000000
00001000
00000001
00000000
00000000
00000000
00010000
00000000
00000100
00000000
00010000
00000000
00000000
00000000
,
00001000
00000000
00000000
00001000
00010000
00000000
00000000
00000000
01000000
00000000
00100000
00000000
01000000
00000000
00000000
00000000
,
00010000
00000000
00000000
00010000
10000000
00000000
00000000
00000000
00001000
00000000
00001000
00000000
00001000
00000000
00000000
00000000
,
00020000
00000000
00000010
00030010
,
00000200
00000000
00000010
00000310
,
00020000
00000000
00001000
00031000
,
02000000
00000000
00100000
03100000
,
20000000
00000000
00000000
00000000
,
30000000
00000000
00000000
00000000
;

//---------------dance-double - ----------------
#NOTES:
     dance-double:
     :
     Challenge:
     11:
     0.459,0.491,0.086,0.070,0.219: // measure 1
00000000
00000000
10000000
00000000
00000000
10000000
00000000
00000000
00010000
00000000
00000000
00000000
00010000
00000000
00000000
00000000
,  // measure 2
00000000
00000000
10000000
00000000
00000000
10000000
00000000
00000000
00001000
00000000
00000000
00000000
00001000
00000000
00000000
00000000
,  // measure 3
00000000
00000000
00010000
00000000
00000000
00010000
00000000
00000000
00000100
00000000
00000000
00000000
00000100
00000000
00000000
00000000
,  // measure 4
00000000
00000000
00000010
00000000
00000000
00000010
00000000
00000000
00000001
00000000
00000000
00000000
00000001
00000000
00000000
00000000
,  // measure 5
00000010
00000100
00001000
00000000
00000001
00000001
00001000
00001000
,  // measure 6
00010000
00100000
01000000
00000000
10000000
10000000
00010000
00010000
,  // measure 7
10000000
00100000
01000000
00000000
00010000
00010000
00001000
00001000
,  // measure 8
00000010
00000100
00000001
00002000
00000000
00000000
00000000
00000000
,  // measure 9
00003001
00000000
00010000
00000100
00010000
00000000
00000100
00000000
00001000
00000000
00010000
00000000
00100000
00000000
00000000
00000000
,  // measure 10
10000000
00000000
01000000
00100000
01000000
00000000
10000000
00000000
00100000
00000000
01000000
00000000
00010000
00000000
00000000
00000000
,  // measure 11
00001000
00000000
00000010
00000100
00000010
00000000
00001000
00000000
00000100
00000000
00000010
00000000
00000001
00000000
00000000
00000000
,  // measure 12
00000100
00000000
00000001
00001000
00000001
00000000
00000100
00000000
00000010
00000000
00000000
00010000
00001000
00000000
00001000
00000000
,  // measure 13
00100000
00000000
01000000
10000000
01000000
00000000
10000000
00000000
00100000
00000000
01000000
00000000
00010000
00000000
00000000
00000000
,  // measure 14
10000000
00000000
00001000
00100000
00001000
00000000
00100000
00000000
01000000
00000000
10000000
00000000
00010000
00000000
00000000
00000000
,  // measure 15
00001000
00000000
00000010
00000100
00000010
00000000
00001000
00000000
00000100
00000000
00000010
00000000
00000100
00000000
00000000
00000000
,  // measure 16
00010000
00000000
00000001
00000010
00000001
00000000
00010000
00000100
00010000
00000000
00000010
00000100
00000010
00000100
00000010
00000100
,  // measure 17
00000010
00001000
00000001
00000010
00000100
00001000
00000100
00000000
,  // measure 18
00010000
00001000
00010000
00001000
00100000
01000000
10000000
00000000
,  // measure 19
00100000
01000000
00100000
01000000
00010000
10000000
01000000
00000000
,  // measure 20
00100000
00000000
00001000
00000000
00100000
00000000
00001000
00000000
00010000
00000000
00000000
00000010
00000100
00000000
00000100
00000000
,  // measure 21
00000001
00000100
00000001
00000100
00000010
00010000
00001000
00000000
,  // measure 22
00100000
01000000
00100000
01000000
10000000
00100000
01000000
00000000
,  // measure 23
00001000
00100000
00001000
00100000
00010000
00001000
00000010
00000100
,  // measure 24
00000020
00000000
00000000
00000000
00000000
00000000
00000000
00000000
00000000
00000000
00001030
00000001
00001000
00000001
00001000
00000001
,  // measure 25
00001000
00000100
00000010
00000100
00001000
00000001
00010000
00001000
,  // measure 26
00100000
01000000
00000000
11000000
00000000
11000000
00000000
10010000
,  // measure 27
00000000
00010000
01000000
00001000
00010000
00000010
00000100
00000001
,  // measure 28
00000010
00000000
00000100
00000000
00000010
00000000
00000000
00000000
00000001
00000000
00000000
00010000
00001000
00000000
00001000
00000000
,  // measure 29
00100000
01000000
10000000
01000000
00100000
00001000
00010000
00000010
,  // measure 30
00000100
00000010
00000000
00000110
00000000
00000101
00000000
00001001
,  // measure 31
00000000
00000001
00000010
00000001
00000010
00000100
00010000
00000100
,  // measure 32
00010000
00000000
00001000
00010000
00001000
00000000
01000000
00100000
01000000
00000000
00001000
00010000
00001000
00000000
01000000
00100000
,  // measure 33
01000000
00000000
00000000
00010000
10000000
00000000
01000000
00000000
10000000
00000000
01000000
00000000
00100000
00000000
00001000
00000000
,  // measure 34
00010000
00000000
00000000
00000010
00000100
00000000
00000001
00000000
00000010
00000000
00000100
00000000
00000010
00000000
00000000
00000000
,  // measure 35
00000001
00000000
00000000
00000001
00010000
00000000
00000010
00000000
00010000
00000000
00000010
00000000
00001000
00000000
00010000
00000000
,  // measure 36
00100000
00000000
00000000
00100000
01000000
00000000
10000000
00000000
00100000
00000000
01000000
00000000
00100000
00000000
00000000
00000000
,  // measure 37
01000000
00000000
00000000
01000000
00010000
00000000
10000000
00000000
01000000
00000000
10000000
00000000
00010000
00000000
00100000
00000000
,  // measure 38
01000000
00000000
00000000
01000000
10000000
00000000
00010000
00000000
00001000
00000000
00000100
00000000
00000010
00000000
00000000
00000000
,  // measure 39
00000001
00000000
00000000
00000001
00001000
00000000
00000010
00000000
00000100
00000000
00000010
00000000
00001000
00000000
00010000
00000000
,  // measure 40
01000000
00000000
00100000
01000000
00100000
00000000
10000000
00100000
10000000
00000000
00001000
01000000
00001000
00000000
00100000
01000000
,  // measure 41
00100000
00000000
00000000
10000000
00010000
00000000
00100000
00000000
01000000
00000000
00000000
01000000
10000000
00000000
00100000
00000000
,  // measure 42
01000000
00000000
00000000
01000000
00010000
00000000
00001000
00000000
00000010
00000000
00000000
00000010
00000100
00000000
00000001
00000000
,  // measure 43
00001000
00000000
00000000
00001000
00000010
00000000
00001000
00000000
00010000
00000000
00000000
00010000
01000000
00000000
00100000
00000000
,  // measure 44
10000000
00000000
00000000
10000000
01000000
00000000
00100000
00000000
01000000
00000000
00000000
01000000
10000000
00000000
00010000
00000000
,  // measure 45
00002000
00010000
00000000
00010000
,  // measure 46
00000000
00010000
00003000
00011000
,  // measure 47
00000020
00000100
00000000
00000100
,  // measure 48
00000000
00000000
00000000
00000130
00000000
00000000
00000011
00000000
00000011
00000000
00000011
00000000
,  // measure 49
00001001
00000000
00000000
00000001
00000200
00000000
00000000
00000000
00000310
00000000
00000010
00000000
00001000
00000000
00001000
00000000
,  // measure 50
00000001
00000000
00000000
00000001
00020000
00000000
00000000
00000000
00031000
00000000
00001000
00000000
01000000
00000000
01000000
00000000
,  // measure 51
00100000
00000000
00000000
00100000
20000000
00000000
00000000
00000000
31000000
00000000
01000000
00000000
00100000
00000000
00100000
00000000
,  // measure 52
00001000
00000000
00000000
00001000
00020000
00000000
00000000
00000000
00030010
00000100
00000010
00000000
00001000
00000000
00001000
00000000
,  // measure 53
00000000
00000000
00000010
00000000
00000000
00000010
00000000
00000000
00001000
00000000
00001000
00000000
00000001
00000000
00000001
00000000
,  // measure 54
00000000
00000000
00010000
00000000
00000000
00010000
00000000
00000000
00001000
00000000
00001000
00000000
00100000
00000000
00100000
00000000
,  // measure 55
00000000
00000000
01000000
00000000
00000000
01000000
00000000
00000000
10000000
00000000
10000000
00000000
00100000
00000000
00100000
00000000
,  // measure 56
00000000
00000000
01000000
00000000
00000000
01000000
00000000
00000000
00010000
00000000
00010000
00000000
00001000
00000000
00001000
00000000
,  // measure 57
00000020
00000000
00000000
00000000
,  // measure 58
00000030
00000000
00000000
00000000
;
