#TITLE:MANA;
#SUBTITLE:;
#ARTIST:DJ YOSHITAKA;
#TITLETRANSLIT:;
#SUBTITLETRANSLIT:;
#ARTISTTRANSLIT:;
#CREDIT:DigiMindAxel;
#BANNER:MANA.png;
#BACKGROUND:MANA-bg.png;
#LYRICSPATH:MANA.lrc;
#CDTITLE:pop'n music.png;
#MUSIC:MANA.ogg;
#METERTYPE:DDR X;
#OFFSET:-10.790;
#SAMPLESTART:70.208;
#SAMPLELENGTH:12.000;
#SELECTABLE:YES;
#BPMS:0.000=195.000;
#STOPS:191.000=0.615
;
#BGCHANGES:;

//---------------dance-single - ----------------
#NOTES:
     dance-single:
     :
     Easy:
     5:
     0.200,0.308,0.076,0.127,0.000:
1000
0000
0100
0000
,
1000
0000
0100
0000
,
1000
0000
0001
0000
,
1000
0000
0001
0000
,
0200
0000
0000
0000
,
0310
0000
0000
0000
,
2000
0000
0000
0000
0000
0000
0000
3001
,
0000
0000
0000
1001
0000
0000
0000
0000
,
1001
0000
0000
0000
,
0000
0000
0000
0000
,
0010
0000
0000
0000
,
0000
0000
0000
0000
,
0100
0000
0000
0000
,
0000
0000
0000
0000
,
0010
0000
0000
0000
,
0000
0000
0000
0000
,
0110
0000
0100
0000
,
0010
0000
0100
0000
,
0001
0000
0100
0000
,
0001
0000
0100
0000
,
0010
0000
1000
0000
,
0010
0000
1000
0000
,
0001
0000
0010
0000
,
0001
0000
0010
0000
,
0002
0000
0000
0000
,
1003
0000
0000
0000
,
0200
0000
0000
0000
,
1300
0000
0000
0000
,
0020
0000
0000
0000
,
0130
0000
0000
0000
,
0002
0000
0000
0000
,
0013
0000
0000
0000
,
0200
0000
0000
0000
,
0310
0000
0000
0000
,
0002
0000
0000
0000
,
0103
0000
0000
0000
,
0020
0000
0000
0000
,
0130
0000
0000
0000
,
0002
0000
0000
0000
,
1003
0000
0000
0000
,
1001
0000
0000
0001
0000
0001
0000
0001
,
0000
0000
0000
0000
,
1001
0000
0000
1000
0000
1000
0000
1000
,
0000
0000
0000
0000
,
1001
0000
0000
0001
0000
0001
0000
0001
,
0000
0000
0000
0000
,
1001
0000
0000
0000
0000
0000
0000
0110
,
0000
0000
0000
0000
,
0010
0000
0100
0000
,
0001
0000
0010
0000
,
0001
0000
0001
0000
,
1000
0000
1000
0000
,
0100
0000
1000
0000
,
0010
0000
0010
0000
,
0100
0000
0001
0000
,
1000
0000
0000
0000
,
0001
0000
0001
0000
,
0010
0000
0001
0000
,
0100
0000
0100
0000
,
0010
0000
0100
0000
,
0001
0000
0001
0000
,
1000
0000
0100
0000
,
0010
0000
0000
0000
0001
0000
0000
1000
,
0000
1000
0000
1000
0000
0000
0000
0000
,
0000
0000
1002
0000
,
0000
0000
0203
0000
,
0000
0000
0301
0000
,
1000
0000
0100
1000
,
0100
0000
0010
0000
,
0001
0000
0100
0010
,
0100
0000
0001
1000
,
0001
1000
0100
1000
,
0100
0000
2000
0000
,
3001
0000
0200
0000
,
0310
0000
1000
0100
,
1000
0100
0010
0001
,
0010
0001
1000
0010
,
1000
0010
0100
0001
,
0100
0000
0001
1000
,
0001
1000
0100
0010
,
0001
2000
0000
3000
;

//---------------dance-single - ----------------
#NOTES:
     dance-single:
     :
     Medium:
     9:
     0.400,0.513,0.178,0.127,0.000:
0001
1000
0001
1000
0001
0000
0000
0000
,
0010
0100
1000
0010
,
0100
0010
0100
0010
0100
0000
0000
0000
,
0001
0100
0010
1000
,
1002
0000
0200
0000
,
0003
0000
0301
1000
,
0200
0000
0000
0000
0000
0000
0000
1300
,
0000
1000
0000
1001
0000
0000
0000
0000
,
0011
0000
0010
0000
,
0010
0000
0010
0000
,
0001
0000
0001
0000
,
0001
0000
0001
0000
,
0100
0000
0100
0000
,
0100
0000
0100
0000
,
0010
0000
0010
0000
,
0010
0000
0010
0000
,
1001
0000
1000
0000
1000
0000
0000
0001
,
0000
0001
0000
0001
0000
0100
0000
0010
,
1000
0000
1000
0000
1000
0000
0000
0100
,
0000
0100
0000
0100
0000
1000
0001
0000
,
0101
0000
0100
0000
0100
0000
0000
0001
,
0000
0001
0000
0001
0000
0010
0000
0100
,
1000
1000
1000
0001
,
0100
0010
0010
0010
,
1001
0000
0000
0000
0000
1000
0000
0000
,
0001
0000
0000
0000
0000
0010
0000
0000
,
0100
0000
0000
0000
0000
1000
0000
0000
,
0001
0000
0000
0100
0000
0100
0000
0000
,
0001
0000
0000
0000
0000
0010
0000
0000
,
0100
0000
0000
0000
0000
1000
0000
0000
,
0001
0000
0000
0000
0000
0100
0000
0000
,
0001
0000
0000
1000
0000
1000
0000
0000
,
0001
0000
0000
0000
0000
0010
0000
0000
,
0100
0000
0000
0000
0000
1000
0000
0000
,
0001
0000
0000
0000
0000
0100
0000
0000
,
0001
0000
0000
1000
0000
1000
0000
0000
,
0001
0000
0000
0000
0000
0010
0000
0000
,
0100
0000
0000
0000
0000
1000
0000
0000
,
0010
0000
0000
0000
0000
1000
0000
0000
,
0001
0000
0000
1000
0000
1000
0000
0000
,
1002
0000
0000
0010
0000
0013
0000
0011
,
0000
0100
1000
0010
,
0210
0000
0000
0001
0000
0301
0000
0101
,
0000
0001
1000
0100
,
2100
0000
0000
0001
0000
3001
0000
1001
,
0000
0000
1000
0000
0010
0000
0100
0002
,
0000
0000
0000
0000
1003
0000
0000
2001
,
0000
0001
0001
3001
,
2100
0000
0000
0001
0000
0001
0000
3001
,
0000
0000
1000
0100
,
0010
0001
1000
0100
,
1000
0001
1000
0000
0001
0100
0001
0000
,
0102
0000
0000
1000
0000
1000
0000
1003
,
0000
0000
0001
1000
,
0010
0100
0010
0000
1000
0000
0100
0000
,
0010
0001
0100
0000
0001
1000
0001
0000
,
2001
0000
0000
0100
0000
0100
0000
3100
,
0000
0000
1000
0010
,
0100
0000
0001
0000
1000
0100
1000
0000
,
0100
0010
0100
0000
1000
0001
1000
0000
,
2100
0000
0000
0001
0000
0001
0000
3001
,
0000
0000
0000
0000
1000
0000
0001
0100
,
0001
0000
0010
0000
0100
0000
1000
0001
,
0000
0001
0000
1001
0000
0000
2200
0000
,
0000
3300
0110
0100
,
0001
1000
0000
0001
0000
0010
0000
0001
,
0000
1000
0100
0000
0010
0001
0010
0000
,
0100
0010
0000
0001
0000
0100
0000
0001
,
0000
0100
0010
0000
1000
0001
1000
0000
,
0010
0100
0000
0001
0000
1000
0000
0100
,
0000
0010
0100
0000
1000
0010
1000
0000
,
0010
0100
0000
0001
0000
0010
0000
0100
,
0000
0010
0001
0000
1001
0000
1000
0000
,
0010
1000
0001
0010
0001
0000
0010
0000
,
0100
1000
0001
0000
0100
0001
0100
0001
,
0100
0001
1000
0000
0100
1000
0100
1000
,
0100
1000
0001
0000
0100
0010
0100
0010
,
0100
0010
1000
0000
0100
0010
0100
0010
,
0100
0010
0001
0000
0010
0001
0010
0001
,
0010
0001
1000
0000
0010
1000
0010
1000
,
0010
1000
0002
0000
0000
0000
0003
0000
;

//---------------dance-single - ----------------
#NOTES:
     dance-single:
     :
     Hard:
     12:
     0.611,0.582,0.347,0.246,0.000:
1000
0100
0010
0001
0200
0000
0301
1000
,
0000
1000
0100
0000
0100
0010
0001
1000
,
0010
0100
0001
1000
0200
0000
1300
0010
,
0000
0010
0100
0001
0100
0010
1000
0001
,
1001
0000
1000
0001
1000
0000
0010
0100
,
0002
1000
0000
1003
,
0001
1000
0001
0000
0010
0100
1000
0001
,
0000
0101
0000
0110
0000
0010
1000
0001
,
2001
0000
3200
0000
,
2300
0000
3002
0000
,
0023
0000
0032
0000
,
0203
0000
0320
0000
,
2030
0000
3020
0000
,
0230
0000
0302
0000
,
2003
0000
3200
0000
,
0320
0000
0000
0000
0031
1000
0001
0000
,
1001
0000
1000
0010
1000
0000
0001
1000
,
0000
0100
0000
0001
0000
0100
1000
0001
,
0100
0000
0001
1000
0001
0000
1000
0100
,
0000
0001
0000
0100
0000
1000
0010
0100
,
0110
0000
0100
0010
0001
0000
1000
0010
,
0000
0001
0000
0010
0000
1000
0001
0010
,
0100
0000
1000
0010
1000
0010
1000
0001
,
0010
0100
1000
0100
0010
0001
1000
0000
,
1001
0000
0001
0000
1000
0100
0010
0000
,
0100
0000
1000
0000
0001
1000
0100
0000
,
0010
0000
0001
0000
1000
0010
0100
0000
,
0010
0000
1000
0000
0001
1000
0010
0000
,
1000
0000
0001
0000
0010
0100
1000
0000
,
0100
0000
0010
0000
0001
1000
0010
0000
,
1000
0000
0010
0000
0001
0010
1000
0000
,
0100
0000
0001
0000
0100
1000
0001
0000
,
1000
0000
0010
0000
0001
0010
1000
0000
,
0001
0000
0100
0000
1000
0100
0001
0000
,
1000
0000
0010
0000
0001
0010
1000
0000
,
0001
0000
0100
0000
1000
0100
0001
0010
,
0100
0000
1000
0000
0001
0010
1000
0010
,
0001
0000
1000
0000
0001
0100
1000
0100
,
0001
0000
1000
0000
0001
0100
1000
0000
,
0100
0000
0001
1000
0010
0001
0010
1000
,
1001
0000
0000
1001
0000
1010
0000
1001
,
0000
0000
0001
0010
0001
1000
0001
1000
,
1001
0000
0000
1001
0000
1100
0000
1001
,
0000
0000
1000
0001
1000
0001
0100
0001
,
1001
0000
0000
1001
0000
0011
0000
1001
,
0000
0000
0001
0010
0001
1000
0001
1001
,
0000
0000
1000
0100
1000
0010
0100
0110
,
0000
0110
0110
0101
,
1001
0000
1000
0100
0001
0010
0001
0200
,
1000
0000
1300
1100
,
1001
0000
0001
0010
0001
0010
0001
1000
,
0100
0010
0100
0000
1000
0001
0100
0000
,
1001
0000
0001
0100
1000
0010
1000
0200
,
0001
0000
0301
0101
,
1001
0000
1000
0100
1000
0001
0010
0100
,
0000
0010
0001
1000
0010
0100
0010
0000
,
1001
0000
1000
0100
0001
0010
0001
0200
,
1000
0000
1300
1100
,
1001
0000
0001
1000
0010
0000
1000
0010
,
1000
0001
0010
0000
0100
1000
0001
0000
,
1001
0000
1000
0010
0001
0100
0001
0020
,
1000
0000
0000
0000
1030
0000
0001
0010
,
0100
0000
1000
0100
1000
0001
1000
1001
,
0000
1100
0000
1001
0000
0000
2002
0000
,
0000
0000
3003
0000
0101
0000
0100
0001
,
0010
0100
0000
1000
0010
1000
0010
1000
,
0001
0100
0001
1000
0100
0000
0010
0001
,
1000
0010
0000
1000
0001
0010
0001
0010
,
0001
1000
0001
1000
1010
0000
1000
0001
,
0100
1000
0000
0100
0001
1000
0100
1000
,
0002
0000
1003
0000
0001
0100
0010
1000
,
0001
0100
0010
2000
0000
3001
1000
0200
,
0000
0310
0102
0000
,
0103
0000
0001
1000
0100
0001
0100
1000
,
0001
0010
0100
0000
1000
0001
0010
0010
,
0100
0100
1000
1000
0001
0001
0100
0100
,
0001
1000
0100
0010
0001
0100
1000
0100
,
0010
1000
0001
0100
0001
0010
1000
0001
,
0010
0100
0001
0000
1000
0100
0010
0100
,
1000
0001
0100
1000
0100
0001
1000
0010
,
0100
0001
0020
0000
0000
0000
0030
0000
;

//---------------dance-double - ----------------
#NOTES:
     dance-double:
     :
     Easy:
     6:
     0.205,0.308,0.076,0.127,0.000:
10000000
00000000
00010000
00000000
,
10000000
00000000
00010000
00000000
,
00100000
00000000
01000000
00000000
,
00100000
00000000
01000000
00000000
,
20000000
00000000
00000000
00000000
,
30100000
00000000
00000000
00000000
,
20000000
00000000
00000000
00000000
00000000
00000000
00000000
30010000
,
00000000
00000000
00000000
10010000
00000000
00000000
00000000
00000000
,
00001000
00000000
00000000
00000000
,
00001000
00000000
00000000
00000000
,
00010000
00000000
00000000
00000000
,
00010000
00000000
00000000
00000000
,
00000100
00000000
00000000
00000000
,
00000100
00000000
00000000
00000000
,
00000010
00000000
00000000
00000000
,
00000010
00000000
00000000
00000000
,
00001001
00000000
00000001
00000000
,
00001000
00000000
00000001
00000000
,
00000010
00000000
00000001
00000000
,
00000010
00000000
00000001
00000000
,
00000001
00000000
00010000
00000000
,
00000010
00000000
00010000
00000000
,
00001000
00000000
00010000
00000000
,
00001000
00000000
01000000
00000000
,
00200000
00000000
00000000
00000000
,
01300000
00000000
00000000
00000000
,
00020000
00000000
00000000
00000000
,
10030000
00000000
00000000
00000000
,
00200000
00000000
00000000
00000000
,
01300000
00000000
00000000
00000000
,
00002000
00000000
00000000
00000000
,
00013000
00000000
00000000
00000000
,
00000020
00000000
00000000
00000000
,
00010030
00000000
00000000
00000000
,
00000002
00000000
00000000
00000000
,
00001003
00000000
00000000
00000000
,
00000200
00000000
00000000
00000000
,
00000310
00000000
00000000
00000000
,
00020000
00000000
00000000
00000000
,
00031000
00000000
00000000
00000000
,
00011000
00000000
00000000
00001000
00000000
00001000
00000000
00001000
,
00000000
00000000
00000000
00000000
,
01100000
00000000
00000000
01000000
00000000
01000000
00000000
01000000
,
00000000
00000000
00000000
00000000
,
10010000
00000000
00000000
10000000
00000000
10000000
00000000
10000000
,
00000000
00000000
00000000
00000000
,
01100000
00000000
00000000
00000000
00000000
00000000
00000000
01100000
,
00000000
00000000
00000000
00000000
,
00001000
00000000
00010000
00000000
,
00000010
00000000
00001000
00000000
,
00000001
00000000
00000001
00000000
,
00000010
00000000
00000100
00000000
,
00000010
00000000
00000100
00000000
,
00010000
00000000
00010000
00000000
,
00001000
00000000
01000000
00000000
,
00100000
00000000
00000000
00000000
,
10010000
00000000
10000000
00000000
,
00001000
00000000
01000000
00000000
,
00100000
00000000
00100000
00000000
,
10000000
00000000
01000000
00000000
,
00100000
00000000
00001000
00000000
,
00010000
00000000
00000100
00000000
,
00000010
00000000
00000000
00000000
00000100
00000000
00000000
00000001
,
00000000
00000001
00000000
00000001
00000000
00000000
00000000
00000000
,
00000000
00000000
00002001
00000000
,
00000000
00000000
00003002
00000000
,
00000000
00000000
00001003
00000000
,
00000100
00000000
00010000
00001000
,
00010000
00000000
00001000
00000000
,
01000000
00000000
00100000
01000000
,
00100000
00000000
10000000
01000000
,
10000000
01000000
00100000
00010000
,
00100000
00000000
00002000
00000000
,
00013000
00000000
00000020
00000000
,
00000130
00000000
00000001
00000100
,
00000001
00000100
00000010
00001000
,
00000010
00001000
00000001
00010000
,
00000001
00010000
00001000
00010000
,
00001000
00000000
01000000
00100000
,
01000000
00100000
10000000
01000000
,
10000000
00020000
00000000
00030000
;

//---------------dance-double - ----------------
#NOTES:
     dance-double:
     :
     Medium:
     9:
     0.402,0.513,0.169,0.136,0.000:
10000000
01000000
10000000
01000000
10000000
00000000
00000000
00000000
,
00001000
00100000
10000000
00100000
,
00001000
00010000
00001000
00010000
00001000
00000000
00000000
00000000
,
00010000
00000010
00000001
00000010
,
00020010
00000000
00032000
00000000
,
00000000
00000000
00013000
00001000
,
02000000
00000000
00000000
00000000
00000000
00000000
00000000
03100000
,
00000000
00100000
00000000
01100000
00000000
00000000
00000000
00000000
,
10010000
00000000
10000000
00000000
,
10000000
00000000
10000000
00000000
,
00100000
00000000
00100000
00000000
,
00100000
00000000
00100000
00000000
,
01000000
00000000
01000000
00000000
,
01000000
00000000
01000000
00000000
,
00001000
00000000
00001000
00000000
,
00001000
00000000
00001000
00000000
,
00011000
00000000
00010000
00000000
00010000
00000000
00000000
00000010
,
00000000
00000010
00000000
00000010
00000000
00001000
00000000
00000001
,
00000010
00000000
00000010
00000000
00000010
00000000
00000000
00000001
,
00000000
00000001
00000000
00000001
00000000
00010000
00000010
00000000
,
00010010
00000000
00010000
00000000
00010000
00000000
00000000
00001000
,
00000000
00001000
00000000
00001000
00000000
00100000
00000000
01000000
,
00100000
00100000
00100000
00001000
,
01000000
00100000
00100000
00100000
,
10000000
00000000
00000000
00000000
00000000
10000000
00000000
00000000
,
00100000
00000000
00000000
00000000
00000000
01000000
00000000
00000000
,
00001000
00000000
00000000
00000000
00000000
00010000
00000000
00000000
,
00000001
00000000
00000000
00000010
00000000
00000010
00000000
00000000
,
00000100
00000000
00000000
00000000
00000000
00010000
00000000
00000000
,
00001000
00000000
00000000
00000000
00000000
00100000
00000000
00000000
,
01000000
00000000
00000000
00000000
00000000
10000000
00000000
00000000
,
00010000
00000000
00000000
00100000
00000000
00100000
00000000
00000000
,
00001000
00000000
00000000
00000000
00000000
00010000
00000000
00000000
,
00000010
00000000
00000000
00000000
00000000
00001000
00000000
00000000
,
00000001
00000000
00000000
00000000
00000000
00000010
00000000
00000000
,
00000100
00000000
00000000
00010000
00000000
00010000
00000000
00000000
,
00001000
00000000
00000000
00000000
00000000
00100000
00000000
00000000
,
01000000
00000000
00000000
00000000
00000000
10000000
00000000
00000000
,
00100000
00000000
00000000
00000000
00000000
10000000
00000000
00000000
,
00001000
00000000
00000000
00010000
00000000
00010000
00000000
00000000
,
00010020
00000000
00000000
00000100
00000000
00000130
00000000
00000101
,
00000000
00000001
00000010
00000100
,
00021000
00000000
00000000
00001000
00000000
00031000
00000000
01001000
,
00000000
01000000
00100000
01000000
,
10020000
00000000
00000000
01000000
00000000
01030000
00000000
01010000
,
00000000
00000000
00010000
00000000
00100000
00000000
00001000
00020000
,
00000000
00000000
00000000
00000000
00031000
00000000
00000000
00000120
,
00000000
00000100
00000100
00000130
,
00001002
00000000
00000000
00000010
00000000
00000010
00000000
00000013
,
00000000
00000000
00000001
00000010
,
00001000
00000010
00000001
00010000
,
00001000
00010000
00001000
00000000
00100000
01000000
00100000
00000000
,
20010000
00000000
00000000
00010000
00000000
00010000
00000000
30010000
,
00000000
00000000
10000000
00100000
,
00010000
10000000
00010000
00000000
00100000
00000000
10000000
00000000
,
01000000
00100000
00001000
00000000
00010000
00001000
00010000
00000000
,
00000120
00000000
00000000
00000100
00000000
00000100
00000000
00000130
,
00000000
00000000
00000001
00000100
,
00010000
00000000
00000100
00000000
00000001
00001000
00000100
00000000
,
00010000
00001000
00010000
00000000
00001000
00100000
01000000
00000000
,
10020000
00000000
00000000
10000000
00000000
10000000
00000000
10030000
,
00000000
00000000
00000000
00000000
00010000
00000000
00100000
01000000
,
10000000
00000000
00010000
00000000
01000000
00000000
00001000
00010000
,
00000000
00010000
00000000
00011000
00000000
00000000
00022000
00000000
,
00000000
00033000
00010001
00000001
,
00001000
00000001
00000000
00000010
00000000
00000100
00000000
00010000
,
00000000
00001000
01000000
00000000
00100000
01000000
00100000
00000000
,
10000000
00010000
00000000
00100000
00000000
01000000
00000000
10000000
,
00000000
00010000
10000000
00000000
00001000
01000000
00001000
00000000
,
10000000
00010000
00000000
00100000
00000000
00001000
00000000
00010000
,
00000000
00000010
00000100
00000000
00000001
00000010
00000001
00000000
,
00001000
00000010
00001000
00000010
00010000
00001000
00010000
00002000
,
00000000
01003000
01100000
00100000
,
10000000
01000000
00010000
01000000
10000000
00000000
00010000
00000000
,
01000000
00001000
00010000
00000000
00000010
00000100
00000010
00000100
,
00000010
00000100
00000001
00000000
00001000
00000100
00001000
00000100
,
00010000
00001000
01000000
00000000
00100000
10000000
00100000
10000000
,
00100000
10000000
00010000
00000000
00100000
00001000
00100000
00001000
,
00100000
00001000
00010000
00000000
00000100
00000010
00000100
00000010
,
00000100
00000010
00000001
00000000
00000100
00000001
00000100
00000001
,
00010000
00001000
02000000
00000000
00000000
00000000
03000000
00000000
;

//---------------dance-double - ----------------
#NOTES:
     dance-double:
     :
     Hard:
     12:
     0.620,0.582,0.331,0.161,0.000:
00000001
00001000
00000100
00001000
00000002
00000000
00000013
00000100
,
00000000
00000100
00010000
00000000
00010000
00001000
01000000
00100000
,
10000000
00010000
00100000
00010000
20000000
00000000
30010000
00100000
,
00000000
00100000
00001000
00010000
00000100
00000010
00000001
00001000
,
00001001
00000000
00000001
00000100
00000010
00000000
00001000
00000100
,
00010000
00000000
00000001
00000010
00000100
00000000
00001000
00000100
,
00010000
00000000
00001000
00010000
00001000
01000000
00100000
01100000
,
00000000
01010000
00000000
10010000
00000000
10000000
01000000
00100000
,
00001000
00000000
00000000
00010000
00001000
00000000
00000000
00000000
,
00010000
00000001
00000000
00000010
00000000
00000100
00000000
00001000
,
00000010
00000000
00000100
00000000
00000100
00000000
00000001
00001000
,
00000000
00000100
00000000
00010000
00000000
00001000
01000000
00000000
,
00000000
00000000
00010000
00000000
00010000
00000000
10000000
00100000
,
00000000
01000000
00000000
00001000
00000000
00010000
00000000
00000100
,
00000010
00000000
00000001
00000000
00000001
00000000
00000100
00000001
,
00000000
00010000
00000000
00001000
01000000
00100000
01000000
00000000
,
10010000
00000000
00010000
01000000
00010000
00000000
10000000
00010000
,
00000000
00100000
00000000
01000000
00000000
10000000
00001000
01000000
,
00001000
00000000
00010000
00001000
00010000
00000000
00000010
00000100
,
00000000
00000001
00000000
00000010
00000000
00000100
00000010
00000001
,
00001001
00000000
00001000
00000100
00010000
00000000
00001000
00100000
,
00000000
01000000
00000000
00100000
00000000
00001000
01000000
00100000
,
10000000
00000000
00001000
00100000
00001000
00100000
00001000
10000000
,
01000000
00100000
00001000
00100000
01000000
10000000
00001000
00000000
,
00011000
00020000
00030200
00000320
,
00000031
00001000
00000000
00000010
00000000
00001000
00000100
00010000
,
00001000
00000000
00100000
00000000
00010000
00000000
10000000
00010000
,
10000000
00000000
00100000
01000000
00001000
00010000
00001000
00000000
,
00010000
00000000
00000010
00000000
00000100
00000000
00000001
00001000
,
00000001
00000000
00001000
00000100
00010000
00001000
00010000
00000000
,
00001000
00000000
00100000
00000000
01000000
10000000
00010000
00000000
,
10000000
00000000
01000000
00000000
00100000
00010000
10000000
00000000
,
00010000
02000000
03002000
00023000
,
00030010
00000100
00000000
00000001
00000000
00001000
00000010
00010000
,
00001000
00000000
01000000
00000000
00100000
00000000
10000000
00010000
,
10000000
00000000
01000000
00100000
00010000
00000000
01000000
00000000
,
00010000
00000000
00100000
00000000
00001000
00010000
00000100
00000010
,
00000100
00000000
00010000
00000000
00000010
00000100
00000010
00000100
,
00000001
00000000
00000010
00000000
00000100
00001000
00000001
00000000
,
00000010
00000000
00000100
00001000
00000001
00000000
00001000
00000000
,
00001001
00000000
00000000
00010100
00000000
00010001
00000000
00010100
,
00000000
00000000
00001000
00100000
01000000
10000000
01000000
00100000
,
00001000
00000000
00000000
00011000
00000000
00010010
00000000
00011000
,
00000000
00000000
00010000
00000010
00000100
00000001
00000100
00000010
,
00010000
00000000
00000000
00011000
00000000
01001000
00000000
00011000
,
00000000
00000000
00001000
01000000
00100000
10000000
00100000
01100000
,
00000000
00000000
10000000
01000000
10000000
00001000
00100000
00101000
,
00000000
00011000
00011000
00010010
,
00000110
00000000
00001000
00000010
00000001
00000010
00001000
00000002
,
00001000
00000000
00001003
00001010
,
00010010
00000000
00010000
00001000
00010000
00001000
01000000
00100000
,
10000000
01000000
10000000
00000000
01000000
10000000
00010000
00000000
,
10010000
00000000
00010000
00100000
10000000
00100000
00010000
20000000
,
00010000
00000000
30010000
01010000
,
01001000
00000000
00010000
00001000
00010000
00000010
00000100
00001000
,
00000000
00000100
00001000
00000010
00000100
00000001
00000010
00000000
,
00001001
00000000
00001000
00000010
00000001
00000010
00001000
00000002
,
00001000
00000000
00001003
00001100
,
00010100
00000000
00010000
00001000
01000000
00000000
00100000
10000000
,
00100000
01000000
00010000
00000000
00010000
00100000
01000000
00000000
,
10010000
00000000
10000000
01000000
00010000
01000000
10000000
00020000
,
10000000
00000000
00000000
00000000
10030000
00000000
00001000
00100000
,
00001000
00000000
00010000
00000010
00010000
00000100
00000010
00000110
,
00000000
00000101
00000000
00000110
00000000
00000000
00002002
00000000
,
00000000
00000000
00003003
00000000
00001001
00000000
00000001
00000100
,
00000010
00010000
00000000
00001000
00100000
00001000
00100000
01000000
,
10000000
00100000
10000000
01000000
00100000
00000000
00001000
00010000
,
00000010
00000100
00000000
00000001
00000010
00000001
00000010
00000100
,
00010000
00001000
01000000
00100000
01100000
00000000
10000000
01000000
,
00100000
00010000
00000000
10000000
00010000
00100000
10000000
00100000
,
00020000
00000000
10030000
00000000
00010000
01000000
00100000
01000000
,
00001000
00100000
00001000
00020000
00000000
00030010
00000100
00000002
,
00000000
00001003
00000120
00000000
,
00000130
00000000
00000001
00001000
00000010
00000001
00000010
00001000
,
00000100
00010000
00001000
00000000
10000000
00010000
00100000
10000000
,
00100000
00010000
10000000
01000000
00010000
01000000
10000000
00001000
,
00100000
00001000
00010000
00000010
00000001
00000010
00010000
00000100
,
00000001
00000100
00010000
00000001
00000100
00000010
00010000
00001000
,
00100000
01000000
10000000
00000000
00010000
01000000
10000000
01000000
,
00010000
00100000
10000000
00100000
00001000
00010000
00000010
00000100
,
00000001
00001000
00020000
00000000
00000000
00000000
00030000
00000000
;

//---------------dance-single - ----------------
#NOTES:
     dance-single:
     :
     Beginner:
     2:
     0.096,0.170,0.093,0.000,0.000: // measure 1
0001
0000
0000
0000
,  // measure 2
0000
0000
0000
0000
,  // measure 3
1000
0000
0000
0000
,  // measure 4
0000
0000
0000
0000
,  // measure 5
0100
0000
0000
0000
,  // measure 6
0000
0000
0000
0000
,  // measure 7
1000
0000
0000
0000
,  // measure 8
0000
0000
0000
0000
,  // measure 9
1001
0000
0000
0000
,  // measure 10
0000
0000
0000
0000
,  // measure 11
0010
0000
0000
0000
,  // measure 12
0000
0000
0000
0000
,  // measure 13
0010
0000
0000
0000
,  // measure 14
0000
0000
0000
0000
,  // measure 15
0010
0000
0000
0000
,  // measure 16
0000
0000
0000
0000
,  // measure 17
0110
0000
0000
0000
,  // measure 18
0100
0000
0000
0000
,  // measure 19
0010
0000
0000
0000
,  // measure 20
0100
0000
0000
0000
,  // measure 21
0010
0000
0000
0000
,  // measure 22
1000
0000
0000
0000
,  // measure 23
0100
0000
0000
0000
,  // measure 24
1000
0000
0000
0000
,  // measure 25
1001
0000
0000
0000
,  // measure 26
0001
0000
0000
0000
,  // measure 27
0010
0000
0000
0000
,  // measure 28
0001
0000
0000
0000
,  // measure 29
0100
0000
0000
0000
,  // measure 30
0010
0000
0000
0000
,  // measure 31
0100
0000
0000
0000
,  // measure 32
0001
0000
0000
0000
,  // measure 33
1000
0000
0000
0000
,  // measure 34
0100
0000
0000
0000
,  // measure 35
1000
0000
0000
0000
,  // measure 36
0001
0000
0000
0000
,  // measure 37
0010
0000
0000
0000
,  // measure 38
0100
0000
0000
0000
,  // measure 39
0010
0000
0000
0000
,  // measure 40
0000
0000
0000
0000
,  // measure 41
1001
0000
0000
0000
,  // measure 42
0000
0000
0000
0000
,  // measure 43
1001
0000
0000
0000
,  // measure 44
0000
0000
0000
0000
,  // measure 45
1001
0000
0000
0000
,  // measure 46
0000
0000
0000
0000
,  // measure 47
1001
0000
0000
0000
,  // measure 48
0001
0000
0000
0000
,  // measure 49
1001
0000
0000
0000
,  // measure 50
1000
0000
0000
0000
,  // measure 51
0100
0000
0000
0000
,  // measure 52
0010
0000
0000
0000
,  // measure 53
0100
0000
0000
0000
,  // measure 54
1000
0000
0000
0000
,  // measure 55
0001
0000
0000
0000
,  // measure 56
0100
0000
0000
0000
,  // measure 57
0110
0000
0000
0000
,  // measure 58
0010
0000
0000
0000
,  // measure 59
1000
0000
0000
0000
,  // measure 60
0100
0000
0000
0000
,  // measure 61
0010
0000
0000
0000
,  // measure 62
0100
0000
0000
0000
,  // measure 63
1000
0000
0000
0000
,  // measure 64
0001
0000
0000
0000
,  // measure 65
0000
0000
1001
0000
,  // measure 66
0000
0000
0000
0000
,  // measure 67
0000
0000
1000
0000
,  // measure 68
0000
0000
0100
0000
,  // measure 69
0000
0000
1000
0000
,  // measure 70
0000
0000
0001
0000
,  // measure 71
0000
0000
1000
0000
,  // measure 72
0000
0000
0100
0000
,  // measure 73
0000
0000
0110
0000
,  // measure 74
0000
0000
0010
0000
,  // measure 75
0000
0000
0100
0000
,  // measure 76
0000
0000
0010
0000
,  // measure 77
0000
0000
0001
0000
,  // measure 78
0000
0000
1000
0000
,  // measure 79
0000
0000
0001
0000
,  // measure 80
0000
0000
0100
0000
,  // measure 81
0000
0100
0000
0000
;
