#TITLE:Lovergirl In Summer;
#SUBTITLE:~GUHROOVY HARD CORE MIX~;
#ARTIST:LUV 2 SHY featuring SONOMI;
#TITLETRANSLIT:;
#SUBTITLETRANSLIT:;
#ARTISTTRANSLIT:;
#CREDIT:DigiMindAxel;
#BANNER:Lovergirl In Summer ~GUHROOVY HARD CORE MIX~.png;
#BACKGROUND:Lovergirl In Summer ~GUHROOVY HARD CORE MIX~-bg.png;
#LYRICSPATH:;
#CDTITLE:beatmania.png;
#MUSIC:Lovergirl In Summer ~GUHROOVY HARD CORE MIX~.ogg;
#METERTYPE:DDR X;
#OFFSET:-11.173;
#SAMPLESTART:33.880;
#SAMPLELENGTH:12.000;
#SELECTABLE:YES;
#BPMS:0.000=95.000,36.000=190.000,164.000=95.000,180.000=190.000;
#STOPS:;
#BGCHANGES:;

//---------------dance-single - ----------------
#NOTES:
     dance-single:
     :
     Easy:
     6:
     0.256,0.278,0.237,0.227,0.000:
1002
0000
2003
0000
,
3020
0000
0230
0000
,
0320
0000
0230
0000
,
0302
0000
0023
0000
,
0032
0000
2003
0000
,
3200
0000
2300
0000
,
3020
0000
0230
0000
,
0302
0000
2003
0000
,
3001
0000
0000
0001
0000
0000
1000
0000
,
1001
0001
0001
0001
,
1000
0010
0100
0010
,
1001
0000
0000
0000
,
0001
0100
0010
0100
,
1001
0000
0000
0000
,
1000
0100
0010
0100
,
1001
0000
1001
0000
,
1000
0100
0010
0001
,
2002
0000
0000
0000
,
0000
3003
0110
0000
,
0220
0000
0000
0000
,
0000
0330
1000
1000
,
2002
0000
0000
3003
,
0100
0000
0100
0000
,
0110
0000
0000
0000
,
0001
1000
0001
1000
,
0001
0001
1001
1000
,
0100
0010
0001
1001
,
1000
1000
1001
0010
,
0100
1000
0001
1000
,
1001
1000
0100
1000
,
0100
0010
0001
0010
,
1001
0001
0100
0010
,
0100
0100
0100
0100
,
1001
0000
0001
0000
,
1000
0000
0010
0000
,
0100
0000
0001
0000
,
1000
0000
0100
0000
,
0010
0000
0001
0000
,
0100
0000
0010
0000
,
1000
0000
0001
0000
,
1001
0000
1001
0000
,
0001
1000
0001
0100
,
0010
0100
0001
1000
,
0100
0010
0001
1000
,
1001
0001
1000
1000
,
1001
0000
0000
0100
,
0000
0000
0010
0001
,
1001
0000
0000
0010
,
0000
0000
0100
1000
,
1001
0000
0000
0000
;

//---------------dance-single - ----------------
#NOTES:
     dance-single:
     :
     Challenge:
     11:
     0.486,0.707,0.237,0.206,0.108: // measure 1
1001
0000
0100
0001
0100
0000
1000
0010
,  // measure 2
0100
0000
0001
0000
0100
0000
1000
0000
0100
0000
0000
0000
0001
0000
1000
0010
,  // measure 3
1000
0000
0010
0001
0010
0000
1000
0100
,  // measure 4
0001
0000
0100
0000
1000
0000
0001
0000
0010
0000
0000
0000
0001
1000
0001
1000
,  // measure 5
0001
0000
0010
1000
0010
0000
0001
0000
,  // measure 6
1000
0000
0100
0000
0001
0000
0100
0000
1000
0001
0000
1000
0001
0000
1000
0001
,  // measure 7
1000
0000
0010
0001
0010
0000
1000
0010
,  // measure 8
0100
0100
0001
0001
1000
0000
1001
0000
,  // measure 9
1100
0000
0000
0101
0000
0000
0100
0100
,  // measure 10
0120
2030
3002
0013
,  // measure 11
0001
0010
0100
0010
0001
1000
0010
0100
,  // measure 12
0002
2003
3200
0310
,  // measure 13
0100
1000
0001
0100
0001
1000
0100
0010
,  // measure 14
0002
0203
0320
0130
,  // measure 15
0001
1000
0010
1000
0001
1000
0010
1000
,  // measure 16
0001
0010
0100
1000
0001
0010
0100
1000
,  // measure 17
0001
0000
1001
0000
1000
0100
0010
0001
,  // measure 18
0010
0000
0010
0000
,  // measure 19
0010
0000
0000
0000
0110
0000
0000
1000
,  // measure 20
1001
0000
0100
0000
,  // measure 21
0100
0000
0000
0000
1000
0010
0100
0001
,  // measure 22
1000
0000
1000
0000
,  // measure 23
1001
0000
1001
0000
,  // measure 24
1001
0000
0010
0000
,  // measure 25
0110
0000
0110
0000
1000
0100
0010
0001
,  // measure 26
1000
0100
0001
0100
1000
0100
0001
0100
,  // measure 27
0001
0100
0001
0100
1000
0010
0100
0000
,  // measure 28
0001
0010
1000
0010
0001
0010
1000
0010
,  // measure 29
1000
0010
1000
0010
0001
1000
0100
0000
,  // measure 30
1000
0100
0010
0010
0001
0100
0100
0001
,  // measure 31
1000
1000
0100
0010
0010
0001
1000
0000
,  // measure 32
0001
1000
0100
0100
1000
0010
0010
0100
,  // measure 33
0001
0001
0010
0100
1000
0100
0010
0001
,  // measure 34
2000
0010
3010
0100
,  // measure 35
0002
1000
1003
0100
,  // measure 36
1000
0010
0001
0100
,  // measure 37
1000
0000
0001
1000
0100
2000
0000
0001
,  // measure 38
3001
1000
0001
0100
,  // measure 39
1000
0010
0001
0100
,  // measure 40
0002
1003
0200
1300
,  // measure 41
1001
0000
2002
3003
,  // measure 42
1001
0000
0000
0000
1000
0100
0010
0100
1000
0001
0010
0100
1000
0001
0010
0000
,  // measure 43
0011
0000
0000
0000
0001
1000
0010
0100
0001
1000
0010
0100
0010
1000
0100
0000
,  // measure 44
1100
0000
0000
0000
1000
0001
0010
0100
1000
0100
0010
0001
1000
0010
1000
0000
,  // measure 45
1001
0000
1001
0000
0100
0000
0100
0100
,  // measure 46
1002
1000
1003
0200
,  // measure 47
1000
0000
1300
0000
0001
1000
0010
0000
,  // measure 48
2001
0001
3001
0200
,  // measure 49
0001
0000
0301
0000
1000
0100
0010
0000
,  // measure 50
1001
0000
0000
0000
;

//---------------dance-single - ----------------
#NOTES:
     dance-single:
     :
     Hard:
     10:
     0.417,0.530,0.237,0.113,0.036:
1001
0000
0010
0001
0200
0000
0310
0000
,
1000
1000
0100
0100
0020
0000
0130
0000
,
1001
0000
1000
0100
0010
0001
0010
0100
,
1000
1001
0011
0000
,
1001
0000
0001
1000
0200
0000
0310
0000
,
0001
1000
0010
0100
0001
0100
0010
0000
,
1001
0000
1000
0001
0010
0000
0010
0001
,
1000
0100
0010
0001
1000
0000
1000
0000
,
1001
0000
0000
1001
0000
0000
0100
0100
,
0110
1000
0100
0010
,
0001
1000
0100
0010
0000
0010
0001
1000
,
0010
0100
0001
1000
,
0100
0010
0001
1000
0000
1000
0001
0010
,
0100
0010
0001
1000
,
0010
1000
0001
0010
0000
0010
0100
1000
,
0001
0001
1001
1000
,
1001
0000
1001
0000
0001
1000
0010
0100
,
0002
0000
1000
0000
,
1003
0000
0110
0000
,
2001
0000
0100
0000
,
3100
0000
0000
0000
1000
0100
0010
0001
,
0200
0000
0310
0000
,
1001
0000
1001
0000
,
1001
0000
0000
0000
,
0110
0000
0110
0000
0010
0100
0001
1000
,
0100
0010
0100
1000
0010
0000
0010
0100
,
0001
0010
1000
0010
1000
0010
0001
0000
,
1000
0001
0010
0001
1000
0000
1000
0100
,
0010
0100
0010
0001
1000
0000
1000
0000
,
1001
0000
0001
0100
0000
0100
0010
0000
,
0100
0010
0000
0010
1000
0000
1000
0000
,
0110
0000
0010
0001
0000
0001
1000
0000
,
1000
0100
0010
0001
1000
0100
0010
0001
,
1000
0100
0001
0100
,
1000
0010
0001
0010
,
1000
1000
0001
0001
,
2000
0000
0000
3001
1000
0001
0000
0100
,
0010
1000
0100
0001
,
0100
1000
0010
0001
,
0010
1000
0100
0010
,
0002
0000
2003
0000
,
3001
0000
0000
0000
1000
0000
0100
0000
0001
0000
0100
0000
1000
0010
0100
0001
,
1000
0000
0001
0000
1000
0000
0010
0000
0001
0000
0010
0000
1000
0100
0010
0001
,
1000
0000
0001
0000
1000
0000
0100
0000
0001
0000
0100
0000
1000
0010
0100
0001
,
0010
0000
0000
0000
0011
0000
0000
0000
0100
0000
0000
0000
1000
0000
0001
1000
,
0002
0000
0000
0000
0103
0000
0001
1000
,
0100
0000
0010
0000
0001
1000
0010
0000
,
2000
0000
0000
0000
3001
0000
1000
0001
,
0010
0000
0100
0000
1000
0001
0100
0000
,
1001
0000
0000
0000
;

//---------------dance-single - ----------------
#NOTES:
     dance-single:
     :
     Medium:
     8:
     0.333,0.328,0.278,0.082,0.000:
1001
0001
0001
0100
,
0100
0010
0010
0100
,
0100
0010
0010
1000
,
1000
0000
0001
0000
0001
0000
1000
0001
,
1000
0100
0020
0031
,
1000
0100
0020
0031
,
1000
0001
0100
0010
,
1000
0010
0100
0001
,
1001
0000
0000
1001
0000
0000
0001
0001
,
1001
1000
1000
1000
,
0010
0100
0010
0100
,
0001
0001
0001
0001
,
0100
0010
0100
0001
,
1000
1000
1000
1000
,
0100
0010
0100
0010
,
1001
1000
1001
0001
,
1001
1000
0001
1000
,
2002
0000
0000
0000
,
0000
3003
0110
0000
,
0220
0000
0000
0000
,
0000
0330
0001
1000
,
2002
0000
0000
3003
,
0110
0000
0110
0000
,
0110
0000
0000
0000
,
1001
0000
1001
0000
0001
1000
0001
1000
,
0001
1000
0010
1000
,
0001
0010
0001
0010
0100
1000
0100
0000
,
1000
0001
0100
0001
,
1000
0010
1000
0010
0100
0001
0100
0000
,
0001
0000
1000
0100
0000
1000
0100
0000
,
1000
0001
0000
1000
0001
0000
1001
0000
,
1000
0000
0001
0100
0000
0001
0100
0000
,
0001
0000
0010
0100
0010
0100
0010
0000
,
1001
0010
0100
0010
,
1000
0001
1000
0001
,
1000
0010
0100
0010
,
0100
0000
0001
1000
0001
0000
1000
0001
,
1000
0001
0010
0100
,
1000
0100
0010
0001
,
0100
0001
0100
0001
,
1001
0000
1001
0000
,
1000
0001
0010
0100
,
1001
0100
0010
0001
,
1001
0100
0010
0001
,
0110
0110
1001
0000
,
1000
0010
0100
0010
,
0100
0001
1000
0001
,
0110
1000
0100
1000
,
0100
0010
0001
1000
,
1001
0000
0000
0000
;

//---------------dance-single - ----------------
#NOTES:
     dance-single:
     :
     Beginner:
     2:
     0.087,0.126,0.093,0.000,0.000:
0100
0000
0000
0000
,
0000
0000
0000
0000
,
0010
0000
0000
0000
,
0000
0000
0000
0000
,
0100
0000
0000
0000
,
0000
0000
0000
0000
,
0010
0000
0000
0000
,
0000
0000
0000
0000
,
1001
0000
0000
0000
,
1001
0000
0000
0000
,
0010
0000
0010
0000
,
0010
0000
0000
0000
,
0100
0000
0100
0000
,
0100
0000
0000
0000
,
0001
0000
0001
0000
,
0001
0000
1000
0000
,
0001
0000
1000
0000
,
1001
0000
0000
0000
,
0000
0000
0000
0000
,
0110
0000
0000
0000
,
0000
0000
0000
0000
,
1001
0000
0000
0000
,
0000
0000
0000
0000
,
1001
0000
0000
0000
,
0010
0000
0000
0000
,
0100
0000
0000
0000
,
0000
0000
0000
0000
,
0010
0000
0000
0000
,
0000
0000
0000
0000
,
0100
0000
0000
0000
,
0000
0000
0000
0000
,
0001
0000
0000
0000
,
1001
0000
0000
0000
,
1000
0000
0001
0000
,
1000
0000
0001
0000
,
0100
0000
0001
0000
,
1000
0000
0010
0000
,
1000
0000
0010
0000
,
0100
0000
0010
0000
,
1000
0000
0001
0000
,
1000
0000
0000
0000
,
1001
0000
0000
0000
,
0010
0000
0000
0000
,
0010
0000
0000
0000
,
0010
0000
0000
0000
,
1001
0000
0000
0000
,
0000
0000
0000
0000
,
0100
0000
0000
0000
,
0000
0000
0000
0000
,
0100
0000
0000
0000
;

//---------------dance-double - ----------------
#NOTES:
     dance-double:
     :
     Easy:
     6:
     0.249,0.227,0.237,0.124,0.000:
10010000
10000000
10000000
00000000
,
00010000
01000000
00010000
00000000
,
01100000
01000000
01000000
00000000
,
00001000
00010000
00001000
00000000
,
00011000
00010000
00010000
00000000
,
00000100
00000010
00000100
00000000
,
00001001
00000001
00000001
00000000
,
00010000
00000100
00010000
00000000
,
00011000
00000000
00000000
00001000
00000000
00000000
01000000
00000000
,
02200000
00000000
00000000
03300000
,
10000000
01000000
00100000
00010000
,
00022000
00000000
00000000
00033000
,
00001000
00000010
00000100
00000001
,
00002002
00000000
00000000
00003003
,
00000001
00000010
00000100
00001000
,
00011000
00000000
00011000
00000000
,
00001000
01000000
00100000
10000000
,
20020000
00000000
00000000
00000000
,
00000000
30030000
01100000
00000000
,
02200000
00000000
00000000
00000000
,
00000000
03300000
00001000
00001000
,
00022000
00000000
00000000
00033000
,
00000110
00000000
00000110
00000000
,
00000110
00000000
00000000
00000000
,
00001000
00000001
00001000
00000001
,
00001000
00001000
00000100
00000100
,
00001000
00010000
00100000
01000000
,
10000000
10000000
00010000
00010000
,
01000000
00100000
10000000
00010000
,
10000000
01000000
00100000
00010000
,
00001000
00000010
00000100
00000001
,
00000100
00000010
00010000
00001000
,
01000000
01000000
01000000
01000000
,
10010000
00000000
00010000
00000000
,
10000000
00000000
00100000
00000000
,
01000000
00000000
00001000
00000000
,
00010000
00000000
00000100
00000000
,
00000010
00000000
00000100
00000000
,
00010000
00000000
00010000
00000000
,
00001000
00000000
00001000
00000000
,
01100000
00000000
01100000
00000000
,
10000000
00100000
10000000
00010000
,
00001000
00010000
10000000
01000000
,
00100000
01000000
10000000
00010000
,
00001000
00010000
10000000
10000000
,
10010000
00000000
00000000
10000000
,
00000000
00000000
00001000
00010000
,
00011000
00000000
00000000
00000010
,
00000000
00000000
00000100
00000010
,
00000110
00000000
00000000
00000000
;

//---------------dance-double - ----------------
#NOTES:
     dance-double:
     :
     Medium:
     8:
     0.373,0.404,0.371,0.072,0.000:
01100000
00100000
10000000
00100000
,
01000000
00000000
00001000
00010000
00001000
00000000
00011000
00000000
,
00010010
00000010
00000100
00000001
,
00000010
00000000
00000100
00000000
00010000
00000000
00001000
00001000
,
00011000
00000000
01000000
00100000
02000000
00000000
03100000
00000000
,
10000000
00000000
00001000
00100000
00002000
00000000
10003000
00000000
,
00001000
00010000
00000100
00000010
,
00000001
00001000
00000001
00001000
00000001
00000000
00010000
00000000
,
00011000
00000000
00000000
00011000
00000000
00000000
01000000
00100000
,
01100000
01000000
01000000
01000000
,
00010000
00000000
10000000
01000000
00000000
01000000
10000000
00000000
,
10001000
00001000
00001000
00001000
,
00010000
00000000
00000100
00000010
00000000
00000010
00000001
00000000
,
00001001
00001000
00001000
00001000
,
00000100
00000000
00010000
00001000
00000000
00001000
01000000
00000000
,
01100000
01001000
10010000
01000000
,
01100000
00000000
01100000
00000000
00100000
10000000
01000000
00100000
,
00020000
00000000
00000000
00000000
,
00000000
00030000
01010000
00000000
,
00022000
00000000
00000000
00000000
,
00033000
00000000
00000100
00000010
,
00000220
00000000
00000000
00000330
,
00001001
00000000
00001001
00000000
,
00001001
00000000
00000000
00000000
,
00010000
00000000
00001000
00000000
00010000
00001000
00010000
00001000
,
00010000
00001000
01000000
00100000
,
10000000
00100000
01000000
00010000
01000000
00100000
10000000
00000000
,
01000000
00100000
00010000
00001000
,
00000100
00000010
00000001
00000010
00000100
00001000
00000001
00000000
,
00010000
00000000
00001000
01000000
00000000
00001000
10000000
00000000
,
00001000
01000000
00000000
00001000
10000000
00000000
10010000
00000000
,
00010000
00000000
00100000
00001000
00000000
10000000
00001000
00000000
,
00100000
00000000
00001000
00010000
00001000
00010000
00001000
00010000
,
00000100
00000010
00000001
00000010
,
00000100
00010000
00001000
01000000
,
00100000
10000000
00100000
01000000
,
00001000
00000000
00010000
00000010
00000100
00000000
00000010
00000100
,
00000001
00000100
00000010
00010000
,
00001000
00100000
01000000
10000000
,
00010000
10000000
00010000
00000000
00100000
01000000
00100000
00000000
,
00011000
00000000
00011000
00000000
,
00000110
00000000
00001001
00000000
00000001
00000010
00000100
00000000
,
00011000
00000000
01001000
00000000
01000000
00100000
10000000
00000000
,
10010000
00000000
01100000
00000000
01000000
00100000
00001000
00000000
,
00011000
00011000
00011000
00011000
,
00010001
00000001
00001000
00000100
,
00001000
00000000
00000001
00000000
00010000
00001000
00010000
00000000
,
00011000
01000000
00100000
10000000
,
00100000
00000000
01000000
00000000
00001000
00010000
00001000
00000000
,
00011000
00000000
00000000
00000000
;

//---------------dance-double - ----------------
#NOTES:
     dance-double:
     :
     Hard:
     10:
     0.440,0.530,0.320,0.103,0.036:
01100000
00000000
01000000
10000000
00020000
00000000
00130000
00000000
,
00001000
00001000
00010000
00010000
00000020
00000000
00000130
00000000
,
00001001
00000000
00000001
00000010
00000100
00001000
00000010
00000001
,
00000010
00000000
00010010
00000000
00011000
00000000
01000000
01000000
,
01100000
00000000
01000000
10000000
00200000
00000000
01300000
00000000
,
00001000
00010000
00000010
00000100
00000001
00000100
00000010
00000000
,
00001001
00000000
00001000
00000010
00000001
00000010
00010000
00001000
,
01000000
00100000
10000000
01000000
00200000
00000000
01300000
00000000
,
10100000
00000000
00000000
01001000
00000000
00000000
00001000
00001000
,
00011000
00010000
00000100
00000010
,
00000001
00001000
00000100
00000010
00000000
00000010
00000001
00010000
,
00001000
01000000
00100000
10000000
,
00010000
10000000
00100000
01000000
00000000
01000000
00001000
00010000
,
00000010
00000100
00000001
00001000
,
00000001
00000010
00000100
00001000
00000000
00001000
00000100
00010000
,
00011000
01000000
01100000
00001000
,
00011000
00000000
00011000
00000000
00010000
00000100
00000010
00000001
,
00020000
00000000
00001000
00000000
,
00031000
00000000
00000110
00000000
,
00002001
00000000
00000100
00000000
,
00003100
00000000
00000000
00000000
00001000
00000010
00000100
00000001
,
00020000
00000000
00031000
00000000
,
00011000
00000000
00011000
00000000
,
00011000
00000000
00000000
00000000
,
01100000
00000000
01100000
00000000
00100000
10000000
01000000
00100000
,
00010000
10000000
01000000
00010000
01000000
10000000
00001000
00000000
,
00001000
00010000
00000100
00000010
00000100
00010000
00001000
00000000
,
00010000
00000001
00000100
00001000
00000100
00000001
00010000
00000000
,
00001000
01000000
00100000
01000000
00001000
00000000
00011000
00000000
,
00100000
00000000
00100000
01000000
00000000
01000000
10000000
00000000
,
00100000
01000000
00000000
01000000
00001000
00000000
00011000
00000000
,
00000010
00000000
00000010
00001000
00000000
00001000
00000001
00000000
,
00000001
00000010
00000100
00010000
00001000
00100000
01000000
10000000
,
00010000
01000000
10000000
01000000
,
00010000
00100000
10000000
00100000
,
00001000
00010000
00001000
00000000
00000010
00000100
00000010
00000000
,
00002000
00000000
00000000
00003001
00000010
00000100
00000000
00001000
,
00000001
00000100
00001000
00000100
,
00000001
00000010
00001000
00000010
,
00000001
00001000
00000001
00000000
00010000
00001000
00010000
00000000
,
10002000
00000000
20003000
00000000
,
31000000
00000000
00000000
00000000
11000000
00000000
10000000
00000000
00010000
00000000
01000000
00000000
00001000
00010000
00001000
00010000
,
00001000
00000000
00000000
00000000
00000110
00000000
00000010
00000000
00000100
00000000
00000001
00000000
00010000
00001000
00010000
00001000
,
00010000
00000000
00000000
00000000
01100000
00000000
00100000
00000000
10000000
00000000
00010000
00000000
00001000
00010000
00001000
00010000
,
00001000
00000000
00000000
00000000
00000110
00000000
00000000
00000000
00000110
00000000
00000000
00000000
00000110
00000000
00000001
00001000
,
00000001
00000000
00000010
00000000
00001000
00000010
00000001
00010000
,
00001000
00000000
00100000
00000000
01000000
10000000
00010000
00000000
,
10010000
00000000
01000000
00000000
00010000
01000000
10000000
00010000
,
00001000
00000000
00000100
00000000
00000010
00000001
00000100
00000000
,
00001001
00000000
00000000
00000000
;

//---------------dance-double - ----------------
#NOTES:
     dance-double:
     :
     Challenge:
     12:
     0.515,0.707,0.371,0.062,0.103:
00001001
00000000
00001000
00000001
00000010
00000000
00000010
00000100
,
00001000
00000000
00010000
00000000
01000000
00000000
00100000
00000000
10000000
00000000
00000000
00000000
00010000
00000000
01000000
00100000
,
01000000
00000000
00100000
10000000
01000000
00000000
01000000
00100000
,
00001000
00000000
00010000
00000000
00000010
00000000
00001000
00000000
00000100
00000000
00000000
00000000
00001000
00000001
00001000
00000001
,
00001000
00000000
00000001
00000010
00000100
00000000
00011000
00000000
,
10000000
00000000
01000000
00000000
00010000
00000000
01000000
00000000
10000000
00010000
00000000
10000000
00010000
00000000
10000000
00001000
,
10000000
00000000
00001000
00010000
00000010
00000000
00000010
00001000
,
00000100
00000001
00000100
00001000
00000010
00000000
00000110
00000000
,
00011000
00000000
00000000
01100000
00000000
00000000
10000000
10000000
,
10010000
10100000
01010000
10010000
,
10000000
00100000
01000000
10000000
01000000
00100000
10000000
00001000
,
00011000
00010010
00000110
00000101
,
00000001
00000010
00000100
00000001
00000100
00000010
00000001
00010000
,
00011000
00101000
01100000
11000000
,
10000000
00010000
01000000
10000000
01000000
00010000
00100000
00001000
,
00010000
00000100
00000010
00000100
00010000
00000001
00000100
00000001
,
00010000
00000000
00010001
00000000
00000001
00000100
00000010
00001000
,
00000100
00000000
00001000
00000000
00000010
00000100
00000010
00000100
,
00000001
00000010
00000100
00010000
00001000
00000000
00000000
10000000
,
10010000
00010000
00100000
00010000
,
10000000
01000000
00100000
00001000
00010000
00000100
00010000
00000010
,
00000100
00000000
00000001
00000000
00001000
00000100
00001000
00000100
,
00010000
00001000
01000000
00100000
,
01000000
00000000
00010000
00000000
10000000
01000000
10000000
01000000
,
10000000
00000000
10010000
00000000
00010000
00100000
01000000
10000000
,
00001000
00100000
10000000
00100000
00001000
00010000
00000100
00000010
,
00000100
00000010
00000100
00000010
00000001
00001000
00000010
00000000
,
00010000
00000100
00000001
00000100
00010000
00001000
00100000
01000000
,
00100000
01000000
00100000
01000000
10000000
00100000
01000000
00000000
,
00001000
00010000
00000100
00000100
00001000
00000001
00000001
00010000
,
00000010
00000010
00001000
00010000
00010000
00100000
01000000
00000000
,
10000000
00010000
00100000
00100000
00001000
00010000
00010000
00000010
,
00001000
00001000
00000100
00000010
00000001
00000010
00000100
00001000
,
00000002
00000100
00000103
00000010
,
00020000
00001000
00031000
10000000
,
00010000
01000000
10000000
01000000
,
00010000
00000000
10000000
00001000
00010000
00001000
00000000
00001000
,
10000000
01000000
00100000
00001000
,
00010000
00000010
00000100
00000001
,
00001001
00001000
00001010
00000010
,
00000220
00000330
00022000
00033000
,
01100000
00000000
00000000
00000000
01000000
00100000
00010000
00100000
01000000
10000000
00001000
01000000
00001000
00010000
00001000
00000000
,
00011000
00000000
00000000
00000000
00000100
00000010
00000001
00000010
00000100
00010000
00000010
00000100
00000010
00010000
00001000
00000000
,
00011000
00000000
00000000
00000000
01000000
00100000
10000000
00100000
01001000
00000000
00100000
01000000
00100000
00001000
00010000
00000000
,
00011000
00000000
00011000
00000000
00000110
00000000
00000010
00000010
,
00001001
00001000
00000010
00011000
,
01000000
00000000
00100000
00000000
10000000
00001000
00010000
00000000
,
00011000
00000010
00000100
00001001
,
00000010
00000000
00000100
00000000
00001000
00010000
01000000
00000000
,
01100000
00000000
00000000
00000000
;
