#TITLE:Love Again Tonight;
#SUBTITLE:-high speed mix-;
#ARTIST:NAOKI feat. PAULA TERRY;
#TITLETRANSLIT:;
#SUBTITLETRANSLIT:;
#ARTISTTRANSLIT:;
#CREDIT:DigiMindAxel;
#BANNER:Love Again Tonight -high speed mix-.png;
#BACKGROUND:Love Again Tonight -high speed mix--bg.png;
#LYRICSPATH:Love Again Tonight -high speed mix-.lrc;
#CDTITLE:ParaParaParadise.png;
#MUSIC:Love Again Tonight -high speed mix-.ogg;
#METERTYPE:DDR X;
#OFFSET:-0.204;
#SAMPLESTART:36.679;
#SAMPLELENGTH:12.000;
#SELECTABLE:YES;
#BPMS:0.000=160.000;
#STOPS:;
#BGCHANGES:-2.000=Love Again Tonight -high speed mix-.avi=1.000=1=1=0,
99999=-nosongbg-=1.000=0=0=0 // don't automatically add -songbackground-
;

//---------------dance-single - ----------------
#NOTES:
     dance-single:
     :
     Beginner:
     4:
     0.220,0.258,0.201,0.000,0.000:
0000
0000
0000
0000
,
0000
0000
0000
0000
,
0000
0000
0000
0000
,
0000
0000
0000
0000
,
0000
0000
0000
0000
,
1000
0000
1000
0000
,
0001
0000
0001
0000
,
1000
0000
1000
0000
,
0001
0001
0001
0000
,
0100
0000
0100
0000
,
0100
0000
0010
0000
,
0010
0000
1000
0000
,
0100
0000
1000
0000
,
0100
0000
0100
0000
,
0100
0000
1000
0000
,
0010
0000
1000
0000
,
0100
0000
1000
0000
,
1000
1000
1000
0000
,
0010
0010
0010
0000
,
1001
0000
1001
0000
,
0100
0000
0010
0000
,
0001
0001
0001
0000
,
0010
0010
0010
0000
,
1001
0000
0001
0000
,
0000
0000
0000
0000
,
0110
0000
0110
0000
,
0110
0000
0110
0000
,
0001
0000
0010
0000
,
0100
0000
1000
0000
,
0001
0000
0010
0000
,
0001
0000
1000
0000
,
0010
0000
1000
0000
,
1001
0000
0110
0000
,
1000
1000
1000
0000
,
0001
0001
0001
0000
,
0100
0100
0100
0000
,
0010
0010
0010
0000
,
1000
1000
1000
0000
,
0001
0001
0001
0000
,
0010
0010
0010
0000
,
0100
0100
0100
0000
,
1000
0000
1000
0000
,
1000
0000
1000
0000
,
1001
0000
1001
0000
,
1001
0000
1001
0000
,
0001
0000
0010
0000
,
0001
0000
0010
0000
,
0100
0000
0100
0000
,
1000
0000
1000
0000
,
0100
0000
0100
0000
,
0010
0000
0010
0000
,
1001
0000
1001
0000
,
1001
0000
1001
0000
,
0100
0000
0100
0000
,
0001
0000
1000
0000
,
0010
0000
0010
0000
,
0100
0000
0010
0000
,
0010
0000
1000
0000
,
0001
1000
0001
1000
,
0001
0000
1000
0100
,
1000
0000
1001
0000
,
1001
0000
0000
0000
;

//---------------dance-single - ----------------
#NOTES:
     dance-single:
     :
     Easy:
     6:
     0.326,0.355,0.222,0.000,0.000:
0000
0000
0000
0000
,
0000
0000
0000
0000
,
0000
0000
0000
0000
,
0000
0000
0000
0000
,
0000
0000
0000
0000
,
1000
1000
1000
1000
,
0001
1000
0001
1000
,
0100
0010
0100
0010
,
0001
1000
0001
1000
,
0000
0100
0000
0100
,
0010
0100
1000
0001
,
0010
0000
0010
0000
,
0100
0100
1000
0001
,
0100
0100
1001
0000
,
0010
0000
0010
0000
,
0100
0100
1000
0010
,
0100
0001
0100
0001
,
0100
0010
0010
1000
,
0100
0100
1000
0110
,
0000
1001
0010
0010
,
1000
0100
1000
0100
,
1000
0100
0001
0010
,
0001
0010
0001
0110
,
0000
1001
1000
0100
,
0100
0000
0010
0010
,
1001
0010
1001
0010
,
0001
0010
0100
1000
,
0001
0001
0010
0010
,
0100
1000
0001
0010
,
0100
0000
0000
1000
,
0001
0001
0010
0100
,
1000
0100
0010
0001
,
0000
1001
0000
0110
,
0000
0000
1000
0000
0000
1000
0000
0000
,
0001
0000
0000
0001
0000
0000
0000
0000
,
0100
0100
0100
1001
,
0010
0010
0010
0010
,
0000
0000
1000
0000
0000
1000
0000
0000
,
0001
0000
0000
0001
0000
0000
0000
0000
,
1000
1000
1000
1000
,
0001
0001
0001
0001
,
1001
0000
1001
0000
,
1001
0000
1001
0000
,
1001
0010
1001
0010
,
0001
0010
0100
1000
,
0001
0001
0010
0010
,
0100
1000
0001
0010
,
1000
0100
1000
0100
,
0001
0010
0001
0010
,
0001
0010
0100
1000
,
0100
0100
0010
0010
,
0110
1001
0000
1001
,
0000
0001
0010
0100
,
1000
0100
1000
0100
,
0010
0001
0010
0001
,
1000
1000
0010
0010
,
0001
0100
1000
0010
,
1001
0010
0000
0000
,
0010
0010
0010
0010
,
0001
0001
0001
0001
,
1000
1000
1000
1000
,
0110
0000
0000
0000
;

//---------------dance-single - ----------------
#NOTES:
     dance-single:
     :
     Medium:
     8:
     0.436,0.516,0.338,0.000,0.000:
0000
0000
0000
0000
,
0000
0000
0000
0000
,
0000
0000
0000
0000
,
0000
0000
0000
0000
,
0000
0000
0000
0000
,
0001
0000
0001
0000
0010
0100
0010
0000
,
1000
0000
1000
0000
0100
0010
0100
0000
,
0010
0000
0010
0000
0001
0100
0001
0000
,
1001
0000
1001
0000
1000
0010
1000
0000
,
0100
0010
1000
0001
0000
0000
0000
1000
,
0000
1000
0000
1000
0000
0000
0000
0000
,
0100
0010
0100
0000
1000
0000
0000
0000
,
0001
0100
0001
0100
,
0010
0100
0001
1000
0000
0000
0000
0001
,
0000
0001
0000
0001
0000
0000
0000
0000
,
0001
0010
0100
1000
0001
0010
0000
0000
,
0001
0010
1000
0110
,
0001
0000
1000
0000
0001
0010
0100
0000
,
1000
0001
0110
1001
,
0000
0000
0100
0000
0001
0010
0001
0000
,
0100
0000
0010
0000
1000
0001
0010
0000
,
1001
0000
1000
0000
0100
0010
0100
0000
,
1000
0010
1001
1001
,
0000
0000
0001
1000
0010
0100
0000
0110
,
0000
0000
0000
0000
,
0011
0011
1010
1010
,
1000
0010
1000
0000
0001
0010
0001
0000
,
0101
0101
1000
0010
,
0001
0000
0100
0000
0010
0010
0010
0000
,
1000
0010
0100
0001
,
0001
0010
0001
0000
1000
0100
1000
0000
,
0010
0100
0010
0100
0001
0000
0001
0000
,
1000
0100
0010
0001
,
0000
0000
1100
0000
0000
0011
0000
0000
,
1010
0000
0000
0110
0000
0000
0000
0000
,
0100
0010
0100
0000
0100
0010
0100
0001
,
1000
0000
1000
0000
1000
0010
0100
0010
,
0000
0000
0101
0000
0000
1010
0000
0000
,
0011
0000
0000
0110
0000
0000
0000
0000
,
1000
0010
1000
0000
1000
0010
1000
0001
,
0010
0010
0100
0100
,
1001
0001
1000
1000
,
0001
1000
0001
1000
0001
1000
0001
0000
,
0011
0011
1010
1010
,
0001
0010
0001
0000
1000
0010
1000
0000
,
1100
1100
0011
0011
,
1000
0000
0100
0000
0010
0010
0010
0000
,
0001
0010
0100
1000
,
0010
0001
0010
0100
,
0001
0100
0001
0000
1000
0010
1000
0000
,
0001
0010
0100
1000
,
1000
0010
0010
0000
0001
0100
0100
0000
,
0010
1000
1000
0000
0001
0010
0010
0000
,
1000
0000
0001
0000
1000
0100
0010
0000
,
0001
0000
0100
0000
1000
0100
0010
0000
,
1000
0001
1000
0000
0001
0010
0001
0000
,
1000
0001
1000
0000
0001
0010
0001
0000
,
1000
0001
1000
0001
,
1000
0100
0010
0001
1000
0000
1000
0000
,
0100
0000
0010
0100
0000
0000
0000
0000
,
1000
0000
0001
1000
0000
0100
0010
0001
,
1000
0000
0000
0000
;

//---------------dance-single - ----------------
#NOTES:
     dance-single:
     :
     Hard:
     12:
     0.559,0.548,0.264,0.000,0.063:
0000
0000
0000
0000
,
0000
0000
0000
0000
,
0000
0000
0000
0000
,
0000
0000
0000
0000
,
0000
0000
0000
0000
,
0001
0000
0000
1000
0000
0000
0001
0000
0000
0100
0000
0000
0010
0000
1000
0000
,
0001
0000
0000
1000
0000
0000
0001
0000
0000
0100
0000
0000
0010
0000
1000
0000
,
0001
0000
0000
1000
0000
0000
0001
0000
0000
0010
0000
0000
0100
0000
1000
0000
,
0001
1000
0000
0001
1000
0000
0001
1000
0000
0001
1000
0000
0001
0000
1000
0000
,
0010
0000
0100
0000
0001
0000
1000
0100
,
0010
0100
0010
0100
1000
0000
0001
0100
,
0010
0000
0100
0000
0001
0000
1000
0001
,
0010
0001
0010
0001
1000
0100
0010
0000
,
0001
0010
0001
0010
0100
0000
1000
0001
,
0100
0001
0100
0001
1000
0100
0010
0000
,
0001
0010
0100
1000
0010
1000
0000
0001
,
0000
0010
0000
0100
0010
0000
0010
0000
,
0100
1000
0001
0000
0100
0001
0010
0000
,
0100
1000
0001
0100
0010
1000
0100
0000
,
1100
0000
0011
0000
0100
0010
0100
0000
,
0001
0010
0100
1000
0100
0010
0001
0000
,
1000
0100
1000
0000
0001
0010
0001
0000
,
1000
0100
1000
0010
0100
0001
0010
0000
,
0110
0000
1001
0000
0100
0010
0100
0001
,
0010
0010
0010
0010
,
0010
0100
1001
0000
0010
0100
1001
0000
,
0001
0100
0001
0000
1000
0010
1000
0000
,
0001
0010
0100
1000
0001
0010
0001
1000
,
0100
1000
0100
1000
0001
0010
0010
0000
,
0001
0010
1000
0000
0001
0010
1000
0000
,
0001
0010
1000
0010
0001
0010
1000
0000
,
0110
0110
1001
0110
,
1100
1001
0011
1001
,
0000
0000
1000
1000
0000
0100
0100
0000
,
0001
0001
0000
0010
0010
0100
0110
0000
,
0100
0010
0100
0010
0100
0000
1001
0000
,
0001
1000
0001
1000
0001
0001
0010
0010
,
0100
0000
1000
1000
0000
0001
0001
0000
,
0010
0010
0000
0100
0100
0010
0110
0000
,
1000
0001
1000
0001
1000
0000
0110
0000
,
0001
1000
0001
1000
0100
0000
1100
0000
,
1000
0001
1000
0001
,
1000
0001
1000
0001
1000
0001
1000
0000
,
0010
0100
1001
0000
0010
0100
1001
0000
,
0001
0100
0001
0000
1000
0010
1000
0000
,
0001
0010
0100
1000
0001
0010
0001
1000
,
0100
1000
0100
1000
0001
0010
0010
0000
,
1000
0010
0001
0000
1000
0010
0001
0000
,
1000
0010
0001
0010
1000
0010
0001
0010
,
0001
0010
1000
0010
0001
0010
1000
0000
,
0100
0001
1000
0010
,
0100
0010
1001
0000
0100
0010
1001
0000
,
0100
0010
0000
1001
0000
1000
0100
0010
,
0100
1000
0010
0000
0100
0001
0010
0000
,
0001
0100
0010
1000
0100
0010
0001
0000
,
1000
0010
0100
0000
0001
0100
0010
0000
,
1000
0100
0010
0001
1000
0100
0010
0000
,
0001
0100
0010
0100
,
0001
0010
0100
1000
1000
0001
0001
0000
,
1000
0000
0000
0100
0000
0000
0010
0000
0000
0000
0001
0000
0010
0000
0100
0000
,
1000
0000
0000
0001
0000
0000
1000
0000
0000
0000
0100
0000
0010
0000
0001
0000
,
1001
0000
0000
0000
;

//---------------dance-double - ----------------
#NOTES:
     dance-double:
     :
     Easy:
     6:
     0.325,0.322,0.233,0.000,0.000:
00000000
00000000
00000000
00000000
,
00000000
00000000
00000000
00000000
,
00000000
00000000
00000000
00000000
,
00000000
00000000
00000000
00000000
,
00000000
00000000
00000000
00000000
,
00001000
00001000
00001000
00001000
,
00000010
00000010
00000100
00000001
,
00010000
00010000
00010000
00010000
,
00001000
00100000
01000000
01000000
,
10000000
00010000
10000000
00000000
,
01000000
10000000
01000000
00000000
,
00100000
00010000
00100000
00000000
,
10010000
10000000
10000000
10000000
,
00001000
00100000
00001000
00000000
,
00010000
00001000
00010000
00000000
,
00000100
00000010
00000001
00000010
,
00000100
00000100
00000100
00001001
,
00000001
00000001
00000010
00000100
,
00010000
00001000
00100000
01000000
,
10000000
00100000
01000000
00010000
,
01000000
10000000
10000000
01000000
,
00100000
00100000
00001000
00010000
,
00000100
00000010
00000100
00001000
,
00000000
00000110
00000110
00000001
,
00001000
00000000
00000010
00000010
,
00001001
00000000
00001001
00000000
,
00001001
00000010
00000100
00001000
,
00010000
00001000
00010000
00000100
,
00010000
00001000
00100000
01000000
,
10010000
00000000
00010000
00000000
,
10000000
01000000
00100000
01000000
,
10000000
10000000
00010000
00010000
,
01000000
00010000
00001000
00000010
,
00000110
00000000
00000100
00000000
00000000
00000100
00000000
00000000
,
00000100
00000000
00000000
00000100
00000000
00000000
00000000
00000000
,
00000001
00001001
00000001
00001001
,
00000100
00010000
00001000
00010000
,
00011000
00000000
00001000
00000000
00000000
00001000
00000000
00000000
,
00001000
00000000
00000000
00001000
00000000
00000000
00000000
00000000
,
00010000
00011000
00010000
00011000
,
00100000
01000000
10000000
00010000
,
01000000
00000000
01000000
00000000
,
01000000
00000000
01000000
00000000
,
10010000
00000000
10010000
00000000
,
10010000
00100000
01000000
00010000
,
00100000
00010000
10000000
01000000
,
00100000
00010000
00001000
00000100
,
00000010
00000000
00000001
00000010
,
00000100
00000010
00000001
00010000
,
00001000
00010000
00001000
00000000
,
00000100
00000010
00000100
00000010
,
00001001
00000000
00001001
00000000
,
00001001
00000010
00000100
00000010
,
00000100
00000010
00001000
00000100
,
00010000
00001000
00010000
00100000
,
01000000
00000000
10000000
01000000
,
10000000
01000000
00100000
01000000
,
10010000
00000000
00010000
00000000
,
10000000
01000000
00100000
01000000
,
10000000
00000000
00000000
01000000
00000000
00000000
00100000
00000000
,
00001000
00000000
00000000
00010000
00000000
00000000
00000010
00000000
,
00000110
00000000
00000000
00000000
;

//---------------dance-double - ----------------
#NOTES:
     dance-double:
     :
     Medium:
     8:
     0.462,0.484,0.370,0.000,0.000:
00000000
00000000
00000000
00000000
,
00000000
00000000
00000000
00000000
,
00000000
00000000
00000000
00000000
,
00000000
00000000
00000000
00000000
,
00000000
00000000
00000000
00000000
,
00000001
00000000
00001000
00000100
00010000
00000000
00001000
00000000
,
00010000
00000000
00001000
01000000
00100000
00000000
10000000
00000000
,
01000000
00000000
00100000
00010000
01000000
00000000
00001000
00000000
,
00010000
00000000
00001000
01000000
00100000
00000000
10000000
00000000
,
00010000
10000000
00010000
00100000
,
01000000
10000000
00010000
01000000
,
00001000
00010000
00001000
01000000
,
00100000
10000000
00010000
00000000
00100000
00001000
00010000
00000000
,
00001000
00000100
00000010
00000001
00001000
00000000
00000010
00000000
,
00000100
00000001
00010000
00001000
,
00010000
00000010
00000100
00000000
00000010
00000000
00010000
00000000
,
00001000
00100000
01000000
00000000
10000000
00100000
01000000
00000000
,
10010000
00000000
00010000
00000000
10000000
00100000
10000000
00000000
,
00010000
01000000
00010000
00000000
01000000
00000000
00001000
00000000
,
00011000
00000000
00010000
00000000
00000100
00000010
00000001
00000000
,
00000001
00001000
00000100
00010000
00001000
01000000
00100000
10000000
,
01000000
00000000
01000000
00000000
00100000
01000000
00100000
00000000
,
00010000
10000000
00100000
00000000
10000000
00000000
00010000
00000000
,
01100000
00000000
10000000
01000000
10000000
00001000
00000000
00011000
,
00000000
00001000
00001000
00001000
,
00010000
00001000
00010000
00000000
00000010
00001000
00000100
00000000
,
00000010
00000001
00000000
00001001
00000000
00001000
00000100
00001000
,
00000001
00000010
00000001
00000000
00001000
00000100
00010000
00001000
,
00010000
00011000
01001000
00011000
,
10001000
00100000
01000000
00010000
,
10000000
10000000
01000000
01000000
,
00100000
00010000
01000000
00000000
00010000
10000000
01000000
00000000
,
10010000
11000000
10010000
01001000
,
00011000
00000000
00001000
00000000
00000000
00000001
00000000
00000000
,
00000110
00000000
00000000
00001000
00000100
00000010
00000010
00000100
,
00001000
00000000
00001000
00000000
00001000
00000000
00000100
00010000
,
00100000
00000000
00100000
00010000
10000000
01000000
01000000
10000000
,
00010000
00000000
10000000
00000000
00000000
00010000
00000000
00000000
,
01100000
00000000
00000000
10000000
00000000
00010000
00010000
01000000
,
00100000
10000000
01000000
10000000
,
01000000
00100000
00001000
00010000
,
00011000
00000000
00011000
00000000
,
00011000
00000000
00011000
00000000
,
00010000
00001000
00010000
00000000
00000010
00001000
00000100
00000000
,
00001000
00000001
00000000
00001001
00000000
00000100
00001000
00000100
,
00000010
00000001
00010000
00000000
00000100
00000000
00001000
00000000
,
00000010
00000000
00010000
00001000
00100000
01000000
10000000
00000000
,
01100000
00000000
00100000
00000000
00010000
10000000
01000000
00000000
,
00100000
00000000
00100000
00000000
00001000
00010000
00000100
00000000
,
00000010
00000001
00001000
00000001
,
00000011
00001001
00000011
00001001
,
00000010
00010000
00001000
00000000
00010000
00001000
00100000
00000000
,
00010000
10000000
00000000
10010000
00000000
01000000
10000000
01000000
,
00100000
00010000
01000000
01000000
,
00001000
00010000
00001000
00000000
01000000
00001000
00010000
00000000
,
00000001
00000000
00000001
00000000
00000010
00000001
00000100
00000000
,
00000001
00000000
00001000
00000000
00000010
00001000
00000100
00000000
,
00001000
00010000
00100000
01000000
,
10010000
01010000
10010000
01010000
,
01001000
00000000
00000000
00011000
00000000
00000000
00000000
00000000
,
00000000
00000110
00000000
00000100
00000010
00000000
00000010
00000000
,
00001001
00000000
00000000
00000000
;

//---------------dance-double - ----------------
#NOTES:
     dance-double:
     :
     Hard:
     11:
     0.531,0.516,0.233,0.000,0.011:
00000000
00000000
00000000
00000000
,
00000000
00000000
00000000
00000000
,
00000000
00000000
00000000
00000000
,
00000000
00000000
00000000
00000000
,
00000000
00000000
00000000
00000000
,
00100000
01000000
00100000
00000000
10000000
00100000
01000000
00001000
,
00010000
00000010
00010000
00000000
00001000
00010000
00000010
00000100
,
00000001
00001000
00000001
00000000
00000100
00000010
00001000
00000100
,
00001000
00001001
00001001
00001001
,
00000001
00000010
00000001
00000010
00000001
00000000
00000100
00000010
,
00010000
00001000
01000000
00100000
01000000
00000000
00010000
00000000
,
10000000
01000000
10000000
00010000
,
00100000
01000000
10000000
00010000
01000000
00001000
00010000
00000000
,
00000010
00001000
00000010
00001000
00000001
00000000
00000010
00000100
,
00010000
00001000
00100000
01000000
00100000
00000000
00010000
00000000
,
01000000
00000000
00100000
10000000
00010000
00100000
01000000
00000000
,
10000000
00000000
00010000
01000000
00100000
10000000
01000000
00000000
,
00100000
01000000
00100000
00000000
10000000
00010000
01000000
00000000
,
00100000
01000000
00001000
00100000
00001000
00010000
00000100
00000000
,
00001001
00000000
00000001
00001000
00000001
00001000
00000100
00000010
,
00000000
00000001
00010000
00000010
00010000
00001000
01000000
00000000
,
01100000
00000000
00100000
00000000
01000000
00100000
01000000
00000000
,
10000000
00010000
10000000
00000000
01000000
00000000
00100000
00000000
,
00001000
00000000
00010000
00001000
00010000
00000010
00000000
00000110
,
00000000
00000010
00000010
00000010
,
00000010
00001000
00000100
00000000
00000010
00000001
00000100
00000000
,
00000001
00001000
00000010
00000000
00000100
00000001
00010000
00001000
,
00010000
00000100
00010000
00001000
01000000
00100000
01000000
00000000
,
00100000
01000000
00010000
10000000
00010000
01000000
00100000
00000000
,
10010000
01000000
00100000
00001000
,
00010000
00000100
00000010
00000001
,
00000010
00000001
00001000
00000000
00000100
00001000
00000001
00000000
,
00000010
00000100
00010000
00001000
01000000
00100000
10000000
00010000
,
10000000
00000000
10100000
00000000
00000000
01001000
00000000
00000000
,
00011000
00000000
00000000
00010010
00000000
00000010
00000010
00000100
,
00000001
00000100
00001000
00000000
00000001
00000100
00001000
00000000
,
00001000
00000100
00000001
00000000
00001000
00000100
00000001
00001000
,
00000001
00000000
00000101
00000000
00000000
00010010
00000000
00000000
,
00011000
00000000
00000000
01001000
00000000
01000000
01000000
00100000
,
10000000
01000000
00010000
00000000
10000000
01000000
00010000
00000000
,
10000000
01000000
00100000
00001000
00010000
00001000
00010000
00000000
,
00011000
00000000
00011000
00000000
,
00011000
00000000
00011000
00000000
,
00100000
00010000
01000000
00000000
00100000
10000000
01000000
00000000
,
00100000
00010000
10000000
00100000
01000000
00010000
10000000
01000000
,
00100000
00001000
00010000
00001000
00000010
00000100
00000001
00000000
,
00000010
00000100
00001000
00000001
00001000
00000100
00000100
00000000
,
00000110
00000000
00000010
00000000
00000001
00001000
00000100
00010000
,
00001000
00000000
00001000
00000000
00010000
00001000
00100000
01000000
,
10000000
10000000
00010000
00010000
,
10000000
01000000
00100000
00001000
00010000
00000100
00000010
00000001
,
00000100
00000001
00001000
00000000
00000100
00001000
00000001
00000000
,
00001000
00000001
00000100
00000000
00000010
00001000
00000100
00000010
,
00000001
00000100
00000010
00001000
00000100
00010000
00001000
00000000
,
01000000
00100000
01000000
00010000
10000000
01000000
01000000
00000000
,
00100000
00010000
01000000
00000000
00001000
00010000
00001000
00000000
,
00010000
00001000
00010000
00000010
00000100
00000001
00001000
00000000
,
00000100
00000010
00000001
00000100
,
00000001
00000010
00000100
00001000
00000100
00000010
00000001
00000000
,
00001001
00000000
00000000
00000001
00000000
00000000
00001000
00000000
00000000
00000000
00000100
00000000
00010000
00000000
00001000
00000000
,
00100000
00000000
00000000
01000000
00000000
00000000
00100000
00000000
00000000
00000000
00010000
00000000
01000000
00000000
00100000
00000000
,
01100000
00000000
00000000
00000000
;

//---------------dance-couple - ----------------
#NOTES:
     dance-couple:
     :
     Medium:
     7:
     0.625,0.811,1.000,0.000,0.042:
00000000
00000000
00000000
00000000
,
00000000
00000000
00000000
00000000
,
00000000
00000000
00000000
00000000
,
00000000
00000000
00000000
00000000
,
00000000
00000000
00000000
00000000
,
10000000
00000000
00000000
00010000
00000000
00000000
10000000
00000000
00000000
00100000
00000000
00000000
01000000
00000000
00010000
00000000
,
00001000
00000000
00000000
00000001
00000000
00000000
00001000
00000000
00000000
00000010
00000000
00000000
00000100
00000000
00000001
00000000
,
10001000
00000000
00000000
00010001
00000000
00000000
10001000
00000000
00000000
01000100
00000000
00000000
00100010
00000000
00010001
00000000
,
10001000
00000000
00000000
00010001
00000000
00000000
10001000
00000000
00000000
01000100
00000000
00000000
00100010
00000000
00000000
00000000
,
01000001
01000000
01000000
01000000
00000000
00000000
00000000
00110000
,
00000001
10010000
00000000
11000000
00000000
00000000
10000000
00100000
,
00100001
00000000
10010000
00000000
,
10000001
00010000
01000000
00000000
00010000
01000000
10000000
00000000
,
10000100
00000100
00000100
00000100
00000000
00000000
00000000
00000011
,
10000000
00001001
00000000
00001100
00000000
00000000
00001000
00000010
,
10000010
00000000
00001001
00000000
,
10001000
00000001
00000100
00000000
00000001
00000100
00001000
00000000
,
00100000
00010000
10000000
00000000
00100000
10000000
01000000
00000000
,
00100000
00010000
10000000
00100000
01000000
00010000
00100000
00000000
,
00110011
00000000
11001100
00000000
00100010
01000100
00100010
00000000
,
10001000
01000100
00100010
00010001
01000100
00000000
01100110
00000000
,
00000010
00000001
00001000
00000000
00000010
00001000
00000100
00000000
,
00000010
00000001
00001000
00000010
00000100
00000001
00000010
00000000
,
10101010
00000000
01010101
00000000
01000100
00100010
01000100
00010001
,
00000000
01000100
01000100
00000000
00000000
00000000
00000000
00000000
,
10011001
01000100
10011001
01000100
,
10001000
01000100
00100010
00010001
,
10001000
10001000
01000100
01000100
,
00100010
00010001
10001000
01000100
,
00000001
00000100
00000010
00001000
,
00000100
00000011
00000010
00001100
,
00010000
01000000
00100000
10000000
,
01000000
00110000
00100000
11000000
,
00000000
00000000
00110000
00000000
00000000
11000000
00000000
00000000
,
01010000
00000000
00000000
00100000
00000000
01000000
01000000
00000000
,
00100010
00100010
00100010
10011001
,
01000100
01000100
01000100
01000100
,
00000000
00000000
00001010
00000000
00000000
00000101
00000000
00000000
,
00001100
00000000
00000000
00000010
00000000
00000100
00000100
00000000
,
00010001
00010001
00010001
01100110
,
10001000
10001000
00110011
00110011
,
11000000
11000000
01010000
01010000
,
10000000
01000000
10000000
00000000
00010000
01000000
00010000
00000000
,
00001100
00001100
00000101
00000101
,
00001000
00000100
00001000
00000000
00000001
00000100
00000001
00000000
,
10000000
10000000
00010000
00010000
,
00001000
00001000
00000001
00000001
,
00000110
01100000
01010000
00000101
,
00100010
10001000
00010001
01000100
,
01000100
00100010
10011001
00000000
01000100
00100010
10011001
00000000
,
10001000
00100010
10001000
00000000
00010001
01000100
00010001
00000000
,
10000000
01000000
00010000
00000000
00001000
00000100
00000001
00000000
,
00000001
00000100
00001000
00000000
00010000
01000000
10000000
00000000
,
00010001
00010001
00010001
00000000
10001000
00100010
01000100
00000000
,
00100010
01000100
10001000
00010001
00100010
01000100
10001000
00000000
,
10010000
00001001
00000000
00000000
,
10001000
01000100
00100010
00010001
00010001
00000000
00000000
00000000
,
00000000
00000000
00000001
00000000
00001000
00000001
00000000
00000000
,
00000000
00000000
00010000
00000000
10000000
00010000
00000000
00000000
,
01100110
00000000
00000000
00000000
;

//---------------dance-single - ----------------
#NOTES:
     dance-single:
     :
     Challenge:
     13:
     0.657,0.838,0.264,0.053,0.270: // measure 1
0000
0000
0000
0000
,  // measure 2
0000
0000
0000
0000
,  // measure 3
0000
0000
0000
0000
,  // measure 4
0000
0000
0000
0000
,  // measure 5
0000
0000
0000
0000
,  // measure 6
0001
1000
0000
0010
1000
0000
0001
0010
0000
0001
1000
0000
0001
0000
0001
0000
,  // measure 7
1000
0100
0000
1000
0001
0000
0100
0001
0000
1000
0001
0000
1000
0000
1000
0000
,  // measure 8
0100
0010
0000
0001
0100
0000
0010
1000
0000
0100
0010
0000
0001
0000
0001
0000
,  // measure 9
1000
0001
1000
0001
1000
0000
0000
0000
0100
1000
0100
0000
1000
0100
1000
0000
,  // measure 10
1001
0000
0001
0000
0010
0000
0100
1000
,  // measure 11
0010
0100
0001
0100
1000
0000
0100
0000
,  // measure 12
0001
0000
0010
0000
0100
0000
1000
0001
,  // measure 13
0010
0100
1000
0010
0001
0010
1000
0001
,  // measure 14
1000
0100
0010
0100
1000
0000
0001
1000
,  // measure 15
0010
0100
0010
1000
0001
0010
0001
0000
,  // measure 16
0010
0100
1000
0001
0100
0000
0001
1000
,  // measure 17
0100
0010
0001
0100
1000
0000
0100
0000
,  // measure 18
0001
1000
0100
0000
0100
1000
0001
0000
,  // measure 19
0010
0100
1000
0001
0010
0100
1000
0001
,  // measure 20
0201
0010
0010
0310
,  // measure 21
1000
0100
0001
1000
0010
0001
1000
0000
,  // measure 22
0001
1000
0010
0000
0010
1000
0001
0000
,  // measure 23
1000
0010
0100
0001
1000
0010
0100
0000
,  // measure 24
1002
0000
0010
0000
0010
0000
0013
0100
,  // measure 25
0000
0100
0100
0100
,  // measure 26
1100
1001
1100
1001
,  // measure 27
1100
0000
1001
0000
0001
0100
0001
1000
,  // measure 28
0100
0010
0001
1000
0000
1000
0001
0100
,  // measure 29
0010
0100
0010
0100
0001
1000
0100
0010
,  // measure 30
0001
1000
0100
0000
1000
0100
0010
0000
,  // measure 31
0100
0010
0001
0100
1000
0100
0001
0000
,  // measure 32
0100
0010
1000
0000
0001
1000
0010
0000
,  // measure 33
0100
0001
1000
0100
0010
0001
1000
0001
,  // measure 34
0010
0001
0010
0001
0010
0000
0001
1000
0001
1000
0001
0000
1000
0010
1000
0010
,  // measure 35
2000
0000
0000
0000
3100
0100
0010
0010
,  // measure 36
0001
1000
0001
1000
0001
0000
0100
0001
0100
0001
0100
0000
0020
0000
0000
0000
,  // measure 37
1030
0001
1000
0001
1000
0000
0000
0000
0001
1000
0001
0000
1000
0001
1000
0000
,  // measure 38
0100
1000
0100
1000
0100
0000
1000
0001
1000
0001
1000
0000
0001
0100
0001
0100
,  // measure 39
0002
0000
0000
0000
1003
1000
0001
0001
,  // measure 40
0100
0001
0100
0001
0100
0000
0001
1000
0001
1000
0001
0000
1000
0100
1000
0100
,  // measure 41
1000
0001
1000
0001
1000
0000
0000
0000
0001
0100
0001
0000
1000
0010
1000
0000
,  // measure 42
0001
1000
0001
1000
,  // measure 43
0001
1000
0001
1000
0001
1000
0001
0000
,  // measure 44
0011
1001
0011
1001
,  // measure 45
0011
0000
1001
0000
0001
0100
0001
1000
,  // measure 46
0100
0010
0001
1000
0000
1000
0010
0100
,  // measure 47
0010
0100
0010
1000
0100
0010
0100
0000
,  // measure 48
1000
0001
0100
0000
0010
1000
0100
0000
,  // measure 49
0010
0001
1000
0100
0001
0100
1000
0000
,  // measure 50
0100
0010
0001
0000
0010
0100
1000
0000
,  // measure 51
0001
0010
0100
0010
0001
1000
0100
0000
,  // measure 52
0110
1001
0110
1001
,  // measure 53
0110
0000
1001
0000
1000
0010
1000
0001
,  // measure 54
0100
0010
1000
0001
0000
0001
1000
0100
,  // measure 55
0010
0100
1000
0001
0010
0100
0010
0000
,  // measure 56
0001
1000
0100
0000
1000
0001
0100
0000
,  // measure 57
0010
1000
0001
0010
0100
1000
0001
0100
,  // measure 58
0010
1000
0100
0010
,  // measure 59
0001
0001
1000
1000
0010
0100
0001
0100
,  // measure 60
0101
0000
0000
1001
0000
0000
0101
0000
0000
0001
1000
0000
0100
0000
0010
0000
,  // measure 61
0001
0000
1000
0010
1000
0010
1000
0000
0010
0100
0001
0000
0001
0000
1000
0000
,  // measure 62
1001
0000
0000
0000
;

//---------------dance-double - ----------------
#NOTES:
     dance-double:
     :
     Challenge:
     13:
     0.661,0.838,0.190,0.053,0.270:
00000000
00000000
00000000
00000000
,
00000000
00000000
00000000
00000000
,
00000000
00000000
00000000
00000000
,
00000000
00000000
00000000
00000000
,
00000000
00000000
00000000
00000000
,
10000000
01000000
00000000
10000000
00010000
00000000
01000000
00010000
00000000
00100000
01000000
00000000
10000000
00000000
10000000
00000000
,
00001000
00100000
00000000
00001000
10000000
00000000
01000000
00100000
00000000
00001000
00010000
00000000
00000010
00000000
00000010
00000000
,
00000100
00000001
00000000
00001000
00000100
00000000
00000010
00000100
00000000
00010000
00001000
00000000
01000000
00000000
01000000
00000000
,
00100000
01000000
00100000
01000000
00100000
00000000
00000000
00000000
01000000
00100000
01000000
00000000
00100000
01000000
00100000
00000000
,
10000000
00000000
01000000
00000000
00100000
00000000
00010000
01000000
,
00100000
01000000
00001000
00010000
00001000
00000000
00010000
00000000
,
00000010
00000000
00000100
00000000
00000001
00000000
00001000
00000001
,
00000010
00000100
00001000
00000010
00000001
00000010
00010000
00000100
,
00010000
00001000
01000000
00100000
01000000
00000000
00010000
10000000
,
00100000
01000000
00100000
10000000
00001000
00010000
00001000
00000000
,
00010000
00000100
00000010
00000001
00001000
00000000
00000010
00001000
,
00000100
00000010
00000001
00000100
00001000
00000100
00000001
00010000
,
00001000
01000000
00100000
00000000
00100000
01000000
00001000
00000000
,
00100000
01000000
10000000
00100000
10000000
01000000
00100000
00001000
,
00012000
00010000
00010000
00013000
,
00000010
00000100
00000001
00001000
00000010
00000100
00000001
00010000
,
00001000
00100000
01000000
00000000
01000000
00100000
00001000
00000000
,
01000000
00100000
10000000
01000000
10000000
00100000
01000000
00001000
,
00012000
00000000
00010000
00000000
00010000
00000000
00013000
00000010
,
00000000
00000100
00000100
00000100
,
00000100
00000010
00001001
00000000
00000100
00000010
00001001
00000000
,
00000100
00000010
00001001
00000000
00000100
00000010
00001001
00000000
,
00001000
00000100
00000010
00000100
00000000
00010000
00001000
01000000
,
00100000
01000000
00010000
00100000
00010000
10000000
01000000
00100000
,
00010000
01000000
00100000
00000000
10000000
00100000
01000000
00000000
,
00001000
01000000
00100000
00000000
01000000
00001000
00010000
00000000
,
00001000
00010000
00000010
00000100
00000010
00000100
00000010
00000000
,
00000100
00000001
00001000
00000100
00000010
00000001
00000010
00000100
,
00010000
00000100
00010000
00000100
00010000
00000000
00001000
01000000
00001000
01000000
00001000
00000000
10000000
00010000
10000000
00010000
,
20000000
00000000
00000000
00000000
31000000
01000000
00100000
00100000
,
00001000
01000000
00001000
01000000
00001000
00000000
00010000
00001000
00010000
00001000
00010000
00000000
00000020
00000000
00000000
00000000
,
00000130
00000010
00000100
00000010
00000100
00000000
00000000
00000000
00000010
00000100
00000010
00000000
00000100
00000010
00000100
00000000
,
00000001
00000010
00000001
00000010
00000001
00000000
00010000
00000010
00010000
00000010
00010000
00000000
00001000
00010000
00001000
00010000
,
00002000
00000000
00000000
00000000
01003000
01000000
00100000
00100000
,
10000000
00010000
10000000
00010000
10000000
00000000
00001000
01000000
00001000
01000000
00001000
00000000
00010000
00001000
00010000
00001000
,
00000100
00000010
00000100
00000010
00000100
00000000
00000000
00000000
00000010
00000100
00000010
00000000
00000100
00000010
00000100
00000000
,
00001000
00010000
00001000
00010000
,
00001000
00010000
00001000
00010000
00001000
00010000
00001000
00000000
,
01000000
00100000
10010000
00000000
01000000
00100000
10010000
00000000
,
01000000
00100000
10010000
00000000
01000000
00100000
10010000
00000000
,
00010000
00100000
00001000
00010000
00000000
00010000
00000010
00000100
,
00000010
00000100
00000010
00010000
00000001
00000100
00000010
00000000
,
00000100
00000010
00001000
00000000
00000001
00010000
00001000
00000000
,
00010000
00001000
01000000
00100000
01000000
00100000
01000000
00000000
,
00010000
00100000
01000000
00000000
00100000
00010000
10000000
00000000
,
00010000
01000000
10000000
01000000
00001000
00010000
00000010
00000000
,
00000100
00000010
00001001
00000000
00000100
00000010
00001001
00000000
,
00000100
00000010
00001001
00000000
00000100
00000010
00001001
00000000
,
00001000
00000100
00010000
00001000
00000000
00001000
00100000
01000000
,
10000000
01000000
00100000
00001000
01000000
00100000
01000000
00000000
,
00010000
10000000
00100000
00000000
01000000
00010000
10000000
00000000
,
01000000
00100000
00001000
00010000
00000100
00000010
00000001
00001000
,
00000001
00000010
00000100
00010000
,
00001000
00010000
00001000
00100000
01000000
10000000
01000000
00100000
,
01100000
00000000
00000000
01100000
00000000
00000000
10010000
00000000
00000000
00010000
10000000
00000000
00001000
00000000
00010000
00000000
,
00000010
00000000
00000100
00000010
00000100
00000010
00000100
00000000
00000010
00000100
00000010
00000000
00001000
00000000
00000001
00000000
,
00001001
00000000
00000000
00000000
;
