#TITLE:LUV TO ME;
#SUBTITLE:;
#ARTIST:THIRD-MIX miryam reo yoshinori;
#TITLETRANSLIT:;
#SUBTITLETRANSLIT:;
#ARTISTTRANSLIT:;
#CREDIT:DigiMindAxel (Single), silenttype01 (Double);
#BANNER:LUV TO ME.png;
#BACKGROUND:LUV TO ME-bg.png;
#LYRICSPATH:LUV TO ME.lrc;
#CDTITLE:beatmania.png;
#MUSIC:LUV TO ME.ogg;
#METERTYPE:DDR X;
#OFFSET:-6.632;
#SAMPLESTART:43.791;
#SAMPLELENGTH:12.900;
#SELECTABLE:YES;
#BPMS:0.000=154.000;
#STOPS:;
#BGCHANGES:;

//---------------dance-single - ----------------
#NOTES:
     dance-single:
     :
     Easy:
     6:
     0.318,0.328,0.453,0.000,0.000:
0000
0000
0000
0000
,
1001
0001
0001
0000
,
1000
1000
1000
0000
,
0010
0100
0010
0000
,
1001
0000
0000
0000
,
1000
1000
1000
1000
,
1001
0010
0001
0010
,
1001
0100
1000
0100
,
1001
0010
0001
0100
,
1001
0000
0110
0000
,
1001
0100
0010
0001
,
1001
0010
0100
1000
,
1001
0010
0100
0010
,
1000
1000
1000
1000
,
0110
0010
0110
0000
,
0100
0100
0110
0000
,
0001
0001
1001
0000
,
1000
1000
1001
0000
,
0100
0100
0110
0000
,
0010
0010
0110
0000
,
1001
0100
0010
0001
,
0010
0010
0010
0000
,
1001
0000
0000
0000
,
0110
0000
0000
0000
,
1001
1000
0001
1000
,
0001
0100
0001
0100
,
0010
1000
0010
1000
,
1001
0000
0110
0000
,
1001
1000
0100
1000
,
0001
0010
0001
0010
,
0001
1000
0001
1000
,
0100
1000
0100
1000
,
1001
0010
0100
0010
,
1001
0100
0010
0100
,
1001
0100
0010
0100
,
0110
0000
1001
0000
,
1001
0100
0010
0100
,
1001
0010
0100
0010
,
1001
1000
0100
0010
,
0001
0010
0100
1000
,
0110
0000
0000
0000
,
1001
0000
0000
0000
;

//---------------dance-single - ----------------
#NOTES:
     dance-single:
     :
     Hard:
     11:
     0.499,0.464,0.386,0.067,0.060:
0000
0000
0000
0000
,
1001
0001
0010
1000
,
0100
0000
0001
0000
1000
0100
0010
0001
,
1000
0100
0001
0100
,
1001
0100
0100
0100
,
0011
1100
0011
1100
,
1000
0010
0100
0010
0100
0010
0000
0100
,
0001
0010
0001
0100
0000
0010
1000
0100
,
0020
0000
0000
0130
0000
0000
1000
0001
,
1001
0000
0000
0000
0000
0000
0010
0100
0010
0000
0000
0010
0000
0000
0010
0000
,
1000
0010
0100
0010
1000
0100
0010
0001
,
1000
0100
0000
0010
0000
0001
0100
0020
,
0000
0000
0000
0130
0000
0000
0010
0000
,
1010
1010
1001
1001
,
0110
0000
0000
0000
0010
0000
0000
0100
0001
0000
1000
0000
1000
0000
0000
0000
,
0001
0010
0100
2000
0000
0010
3010
0000
,
0110
0000
0000
0000
0010
0000
0000
1000
0001
0000
0010
0000
0010
0000
0000
0000
,
0001
0000
0000
1000
0000
0000
0200
0000
0000
0000
1000
0000
1300
0000
0000
0000
,
1001
0001
0011
0000
,
1001
1000
1010
0000
,
0010
0100
0010
0100
0001
0010
0100
1000
,
0001
0000
0000
0001
0000
0000
0001
0000
2000
0000
0000
0000
0000
0000
0000
0000
,
3001
1001
1001
1001
,
1000
0100
0010
0001
1000
0100
0010
0001
,
1000
0000
0100
0001
0100
1000
0001
0000
,
1000
0000
0010
0001
0010
1000
0001
0000
,
1000
0000
0100
0001
0100
1000
0001
0000
,
1001
0000
0000
0000
0000
0000
1000
0001
1000
0000
0000
1000
0000
0000
1000
0000
,
0001
0000
0010
1000
0010
0001
1000
0000
,
0001
0000
0100
1000
0100
0001
1000
0000
,
0001
0000
0010
1000
0010
0001
1000
0000
,
1001
1001
0110
0000
,
0001
0100
0010
0100
0001
0010
0000
0100
,
1000
0010
0100
0010
1000
0100
0000
0010
,
0001
0010
0100
0010
0001
0100
0000
0010
,
1000
0000
0100
0000
0010
0000
0001
0000
1000
0000
0000
1000
0000
0000
1000
0000
,
0001
1000
0100
1000
0100
1000
0001
0100
,
0100
0001
1000
0001
1000
0001
0010
0100
,
0100
0010
0001
1000
0001
1000
0010
0100
,
0100
0001
1000
0100
0001
0100
1000
0000
,
0011
0110
1100
0110
,
1001
0000
0000
0000
;

//---------------dance-single - ----------------
#NOTES:
     dance-single:
     :
     Challenge:
     13:
     0.662,0.640,0.453,0.093,0.366:
0000
0000
0000
0000
,
1001
0000
0000
0001
0000
0000
0010
0000
0000
0000
0001
0000
0000
0001
0000
0000
,
1000
0000
0000
0100
0000
0000
0010
0000
0000
0000
0001
0000
0001
0000
0001
0000
,
1000
0000
0000
0010
0000
0000
0100
0000
0000
0000
0001
0000
0000
1000
0000
0000
,
2002
0000
0000
3003
,
1000
0100
1000
0000
0010
0100
0010
0000
0100
0001
0100
0000
0001
1000
0001
0000
,
0100
0000
0001
1000
0000
0000
1000
0100
0000
0000
0100
0010
0000
0000
0001
0000
,
1001
0000
1000
0001
0000
0000
0001
0100
0000
0000
0100
0010
0000
0000
1000
0000
,
1001
0000
0001
1000
0000
0000
1000
0100
0000
0000
0100
0010
0000
0000
0001
0000
,
1001
0000
1000
0001
0000
0000
0100
0010
0100
0000
0000
0110
0000
0000
0101
0000
,
1001
0000
1000
0010
0000
0000
0010
0100
0000
0000
0100
0001
0000
0000
1000
0000
,
1001
0000
0001
0010
0000
0000
0010
0100
0000
0000
0100
0010
0000
0000
0002
0000
,
1000
0000
0000
2003
0000
0000
3001
1000
,
0001
0000
0100
0001
0100
0000
0001
1000
0001
1000
0001
0000
1000
0000
0010
0100
,
0010
0000
0000
0100
0001
0000
0000
0001
1000
0000
0010
0000
0010
0000
0000
0000
,
1000
0100
0010
0002
0000
0100
0103
0000
,
0001
0000
0000
0001
0100
0000
0000
0100
0010
0000
1000
0000
1000
0000
0001
0000
,
0010
0000
0000
0011
0000
0000
1002
0000
0000
0000
1000
0000
1003
0000
0000
0000
,
0001
0010
1000
0010
0001
1000
1000
0000
,
0001
0100
1000
0100
0001
1000
1000
0000
,
0001
0100
1000
0001
0010
1000
0001
0100
,
0010
0000
0000
0110
0000
0000
0101
0000
0001
0000
1000
0000
1000
0000
0000
0000
,
1001
1001
1001
1001
,
0001
1000
0001
0000
1000
0100
1000
0000
0001
0010
0001
0000
0100
0001
0100
0000
,
0001
0010
0100
1000
0010
0001
0010
1000
,
1001
0100
0010
0001
0100
1000
0100
0001
,
1001
0010
0100
1000
0100
0001
0100
1000
,
1001
0000
0000
0000
0010
0000
0100
0010
0100
0000
0000
0110
0000
0000
0101
0000
,
1001
0100
0010
0001
0010
1000
0010
0001
,
1001
0010
0100
1000
0100
0001
0100
1000
,
1001
0100
0010
0001
0100
1000
0100
0001
,
0010
0001
0010
0000
0001
0100
0001
0000
1000
0100
1000
0000
0010
1000
0010
0000
,
1001
0001
0100
0001
0100
1000
0100
0001
,
1001
1000
0100
1000
0100
0001
0100
1000
,
1001
0001
0010
0001
0010
1000
0010
0001
,
1001
0000
0000
0000
0100
0000
0010
0100
0010
0000
0000
0110
0000
0000
1010
0000
,
1001
0100
0010
0001
0010
1000
0010
0001
,
1001
0010
0100
1000
0100
0001
0100
1000
,
1001
0100
0010
0001
0010
1000
0010
0001
,
0010
0100
1000
0100
0010
0100
1000
0000
,
0010
1000
0010
0000
0100
0010
0100
0000
0001
0100
0001
0100
0010
1000
0010
1000
,
0002
0000
0000
0003
;

//---------------dance-single - ----------------
#NOTES:
     dance-single:
     :
     Medium:
     8:
     0.388,0.437,0.466,0.000,0.000:
0000
0000
0000
0000
,
1001
0001
0100
0001
,
1000
0000
0010
0000
1000
0001
1000
0001
,
1000
0100
0010
0001
,
1001
0000
0000
0000
,
0001
0010
0100
1000
,
1001
0000
0001
0000
0100
0000
0010
1000
,
0010
0000
0100
0000
0001
0000
1000
0100
,
1000
0000
1100
0000
,
1001
0000
0000
0100
0010
0000
0010
0000
,
0110
1000
0001
1000
,
0100
1000
0100
0000
1000
0000
0001
0000
,
1001
0000
0011
0000
,
1001
0000
1000
0000
0100
1000
0100
1000
,
0001
0100
1001
0000
,
1000
0100
0010
0000
,
0001
0110
1001
0000
,
0001
0010
0100
0000
,
1000
0110
1001
0000
,
0001
0010
0100
0000
,
1001
0100
1001
0010
,
0110
0000
0000
1000
0001
0000
0000
0000
,
0100
1001
0100
1001
,
0011
0011
1100
1100
,
1001
0000
0010
0000
0100
0000
1000
0010
,
1000
0000
0010
0000
0100
0000
0001
0100
,
0001
0000
1000
0000
0001
0000
0010
0100
,
0010
0000
0000
0000
0001
0010
0100
0000
,
1001
0000
0001
0000
0010
0000
0100
1000
,
0100
0000
1000
0000
0001
0000
0100
0010
,
0100
0001
0010
0100
,
1001
1010
0101
1010
,
0100
0001
0010
0000
0100
0000
1000
0001
,
1000
0000
0001
0000
0010
0000
0100
1000
,
0010
0000
0100
0000
0001
0000
1000
0001
,
1000
0000
0000
0010
0100
0000
0100
0000
,
0110
0000
0001
0100
0001
0000
0010
0000
,
0100
0000
1000
0010
1000
0000
0100
0010
,
0001
0000
0100
0000
0010
0000
0100
0001
,
0010
0000
0100
1000
0100
1000
0001
0000
,
0101
0101
1010
1010
,
1001
0000
0000
0000
;

//---------------dance-single - ----------------
#NOTES:
     dance-single:
     :
     Beginner:
     3:
     0.141,0.218,0.147,0.000,0.000:
0000
0000
0000
0000
,
1000
0000
0000
0000
,
0001
0000
0000
0000
,
1000
0000
0000
0000
,
1001
0000
0000
0000
,
0010
0000
0010
0000
,
1001
0000
0000
0000
,
0001
0000
0000
0000
,
0010
0000
0000
0000
,
0100
0000
0000
0000
,
1000
0000
0000
0000
,
0010
0000
0000
0000
,
0100
0000
0000
0000
,
0001
0000
0001
0000
,
1001
0000
0000
0000
,
0100
0000
0000
0000
,
0010
0000
0000
0000
,
0001
0000
0000
0000
,
0100
0000
0000
0000
,
0010
0000
0000
0000
,
1000
0000
1000
0000
,
1000
0000
0000
0000
,
1001
0000
0001
0000
,
1001
0000
1000
0000
,
1001
0000
0010
0000
,
0100
0000
0010
0000
,
1000
0000
0001
0000
,
1000
0000
0001
0000
,
1000
0000
0100
0000
,
1000
0000
0100
0000
,
1000
0000
0001
0000
,
1000
0000
0001
0000
,
1001
0000
0010
0000
,
0001
0000
0010
0000
,
0001
0000
0100
0000
,
0010
0000
0100
0000
,
1001
0000
0010
0000
,
0100
0000
0010
0000
,
1000
0000
0001
0000
,
1000
0000
0001
0000
,
1001
0000
1001
0000
,
0110
0000
0000
0000
;

//---------------dance-double - ----------------
#NOTES:
     dance-double:
     :
     Hard:
     13:
     0.613,0.573,0.160,0.080,0.386:
00000001
00000100
00000001
00000000
00001000
00000100
00001000
00000000
00000001
00000100
00000001
00000000
00001000
00000100
00001000
00000000
,
00000001
00000000
00000000
00000001
00000000
00000000
00000001
00000000
00000000
00000000
00000100
00000000
00000000
00000100
00000000
00000000
,
00000010
00000000
00000000
00001000
00000000
00000000
00000100
00000000
00000000
00010000
00001000
00000000
00010000
00000000
00000100
00000000
,
00000010
00000000
00000000
00000001
00000000
00000000
00001000
00000000
00000000
00000000
00000010
00000000
00000000
00000010
00000000
00000000
,
00020000
00001000
00031000
00000000
,
01000000
00010000
01000000
00000000
00010000
10000000
00010000
00000000
10000000
00010000
10000000
00000000
01000000
10000000
01000000
00000000
,
00100000
00000000
00010000
10000000
00000000
00000000
10000000
01000000
00000000
00000000
01000000
00100000
00000000
00000000
00100000
00001000
,
00000000
00000000
00001000
00010000
00000000
00000000
00010000
00000100
00000000
00000000
00000100
00000010
00000000
00000000
00000010
00000001
,
00000000
00000000
00000001
00000100
00000000
00000000
00000100
00000010
00000000
00000000
00000010
00010000
00000000
00000000
00010000
00001000
,
00000000
00000000
00001000
01000000
00000000
00000000
01000000
00010000
01000000
00000000
00000000
00010000
00000000
00000000
10000000
00000000
,
00100000
00000000
01000000
00010000
00000000
00000000
10000000
01000000
00000000
00000000
00100000
00001000
00000000
00000000
00010000
00000010
,
00000000
00000000
00000010
00001000
00000000
00000000
00000001
00000100
00000000
00000000
00001000
00010000
00000000
00000000
00100000
10000000
,
00000000
00000000
10000000
01000000
00000000
00000000
00010000
00001000
00000000
00000000
00000010
00000001
00000000
00000000
00001000
00000001
,
00000000
00000000
00000100
00000001
00000100
00000000
00000010
00001000
00000010
00001000
00000010
00000000
00010000
00000000
00010000
00001000
,
00100000
00000000
00000000
00000000
00100000
00000000
00000000
00010000
10000000
00000000
01100000
00000000
01100000
00000000
00000000
00000000
,
10000000
01000000
00010000
00001000
00000000
00010010
00010010
00000000
,
00000001
00000100
00001000
00000100
00001000
00010000
00011000
01000000
,
00100000
00000000
00000000
00001000
00000000
00000000
00010000
00000000
00000000
00000000
01100000
00000000
01100000
00000000
00000000
00000000
,
00010000
10000000
00100000
00010000
00001000
00000100
00001001
00000000
,
00000001
00000100
00001000
00010000
00000000
00101000
00101000
00000000
,
01000000
10000000
00100000
00010000
00001000
00010000
00000100
00001000
,
00000001
00000000
00000000
00000010
00000000
00000000
00000002
00000000
00002000
00000000
00000000
00000000
00003003
00000000
00000000
00000000
,
00000001
00000100
00000000
00000000
00000010
00000100
00000000
00000000
00001000
00000100
00000000
00000000
00010000
00000100
00000000
00000000
,
00000220
00000000
00000000
00000330
,
00000001
00000100
00000001
00000100
00001000
00000100
00001000
00000100
,
00000010
00010000
00000010
00010000
00001000
00100000
00001000
00100000
,
01000000
00010000
01000000
00010000
01000000
10000000
01000000
10000000
,
00010000
01000000
00010000
01000000
00100000
00010000
00100000
00010000
,
00001000
01000000
00010000
00100000
00001000
01000000
00010000
10000000
,
01000000
00010000
00001000
00000100
00000010
00010000
00001000
00000010
,
00000100
00001000
00000001
00000100
00001000
00010000
00100000
01000000
,
00010000
10000000
00010000
00000000
00100000
00010000
00100000
00000000
01000000
00100000
01000000
00000000
10000000
01000000
10000000
00000000
,
00010000
01000000
10000000
01000000
00010000
00100000
01000000
00010000
,
00001000
00000010
00000001
00000100
00001000
00000100
00000001
00001000
,
00000100
00010000
00000010
00000100
00000001
00000100
00001000
00010000
,
01000000
00000000
10000000
00000000
00010000
00000000
00100000
00001000
00100000
00000000
00000000
00001000
00000000
00000000
00010000
00000000
,
00000010
00000100
00000001
00001000
00000100
00000010
00001000
00010000
,
01000000
10000000
00100000
01000000
10000000
01000000
00010000
00100000
,
00001000
00010000
00000100
00000010
00001000
00000001
00000100
00001000
,
00000010
00010000
00001000
01000000
00010000
00100000
00001000
00000000
,
00020000
00000000
00000000
00030000
,
00011000
00000000
00000000
00000000
;

//---------------dance-double - ----------------
#NOTES:
     dance-double:
     :
     Easy:
     3:
     0.166,0.218,0.226,0.000,0.000:
00000000
00000000
00000000
00000000
,
00000000
00000000
00000000
00000000
,
00000000
00000000
00000000
00000000
,
00000000
00000000
00000000
00000000
,
00000000
00000000
00000000
00000000
,
00000000
00000000
00000000
00000000
,
10000000
00000000
00000000
00000000
,
01000000
00000000
00000000
00000000
,
00100000
00000000
00000000
00000000
,
00010000
00000000
00000000
00000000
,
00001000
00000000
00000000
00000000
,
00000100
00000000
00000000
00000000
,
00000010
00000000
00000000
00000000
,
00000001
00000000
00000000
00000000
,
00001000
00000000
00001001
00000000
,
00000001
00000000
00000101
00000000
,
00000100
00000000
00000110
00000000
,
00000010
00000000
00010010
00000000
,
00010000
00000000
00011000
00000000
,
00001000
00000000
01001000
00000000
,
01000000
00000000
01100000
00000000
,
00100000
00000000
10100000
00000000
,
10000000
00000000
00000000
00000000
,
00000000
00000000
00000000
00000000
,
10000000
01000000
10000000
00000000
,
00010000
01000000
00010000
00000000
,
00100000
00001000
00100000
00000000
,
00011000
00000000
00011000
00000000
,
00000001
00000010
00000001
00000000
,
00001000
00000010
00001000
00000000
,
00000100
00010000
00000100
00000000
,
00011000
00000000
00011000
00000000
,
10000000
00100000
10000000
00000000
,
00001000
00010000
00001000
00000000
,
00010000
00000010
00010000
00000000
,
00001001
00000000
00001001
00000000
,
00000001
00000100
00000001
00000000
,
00010000
00001000
00010000
00000000
,
00001000
01000000
00001000
00000000
,
10010000
00000000
10010000
00000000
,
00000000
00000000
00000000
00000000
,
01100000
00000000
00000000
00000000
;

//---------------dance-double - ----------------
#NOTES:
     dance-double:
     :
     Medium:
     8:
     0.362,0.382,0.027,0.013,0.020:
00000000
00000000
00000000
00000000
,
10000000
00000000
00100000
00000000
01000000
00010000
01000000
00000000
,
00100000
00000000
10000000
00000000
01000000
10000000
01000000
00000000
,
00100000
00000000
00010000
00000000
01000000
00010000
01000000
00000000
,
00100000
00000000
00000000
00000000
,
00010000
00001000
00011000
00000000
,
00000000
00001000
00010000
00000000
00000010
00001000
00000000
00000001
,
00000100
00000001
00000000
00000010
00000000
00000100
00010000
00001000
,
00010000
00000000
00000000
00001000
00000000
00000000
00000000
00100000
,
00010000
00000000
10000000
01000000
00000000
00100000
00000000
00000000
,
00000000
01000000
10000000
01000000
10000000
00010000
01000000
00010000
,
01000000
00100000
10000000
00100000
00000000
01000000
00010000
01000000
,
00000000
00000000
00000000
00001000
00000000
00000000
00000000
00010000
,
00001000
00000000
00000010
00000001
00000000
00001000
00000000
00000000
,
00000001
00000000
00000000
00000000
00000001
00000000
00000000
00001000
00000100
00000000
00000000
00000000
00000000
00000000
00000000
00000000
,
00000010
00000001
00000100
00000010
00000000
00001000
00000000
00000000
,
00000100
00010000
00001000
00010000
00000010
00000000
00000000
00010000
,
00001000
00000000
00000000
00001000
00000000
00000000
00001000
00000000
00000000
00000000
00000000
00000000
00000000
00000000
00000000
00000000
,
00100000
00010000
01000000
00100000
10000000
00000000
00000000
00000000
,
01000000
10000000
00010000
00100000
00000000
01000000
00000000
00000000
,
10000000
01000000
10000000
01000000
00010000
01000000
00010000
00001000
,
00010000
00000000
00000000
00000010
00000000
00000000
00001000
00000000
00000001
00000000
00000000
00000000
00000000
00000000
00000000
00000000
,
00000000
00000000
00000000
00000000
,
00000020
00000000
00000000
00000000
00000000
00000000
00000000
00000031
,
00000000
00000100
00000001
00000100
00000000
00000001
00000000
00001000
,
00000000
00000100
00001000
00000100
00000000
00001000
00000000
00000010
,
00000000
00010000
00001000
00010000
00000000
00001000
00000000
00100000
,
00000000
01000000
00100000
00010000
01000000
00100000
01000000
00010000
,
10000000
01000000
00100000
00010000
00000000
10000000
00000000
00100000
,
00000000
01000000
00010000
10000000
00000000
01000000
00000000
00100000
,
00000000
00001000
00010000
00000100
00000000
00001000
00000000
00000010
,
00000000
00000100
00000010
00001000
00000001
00000010
00000000
00000000
,
00000100
00010000
00001000
00010000
00000000
00001000
00000000
00100000
,
00000000
00010000
01000000
00010000
00000000
10000000
00000000
00100000
,
00000000
01000000
00010000
01000000
00000000
00010000
00000000
00100000
,
00000000
01000000
10000000
00010000
01000000
00010000
10000000
00000000
,
00100000
10000000
00010000
01000000
00000000
01000000
00000000
00010000
,
00000000
10000000
01000000
10000000
00000000
10000000
00000000
00100000
,
00000000
01000000
00010000
00100000
00000000
00100000
00000000
00001000
,
00000000
00010000
00000100
00001000
00000010
00000100
00000001
00000000
,
00000000
00000000
00000000
00000000
,
00001001
00000000
00000000
00000000
;

//---------------dance-double - ----------------
#NOTES:
     dance-double:
     :
     Challenge:
     13:
     0.660,0.584,0.147,0.093,0.326: // measure 1
10000000
01000000
10000000
00000000
00010000
01000000
00010000
00000000
01000000
00100000
01000000
00000000
00010000
10000000
00010000
10000000
,  // measure 2
00010000
00000000
00000000
00010000
01000000
00000000
00100000
00000000
00000000
00000000
10000000
00000000
00000000
10000000
00010000
00000000
,  // measure 3
00100000
00000000
00000000
00100000
00001000
00000000
00010000
00000000
00000000
00000000
00001000
00010000
00001000
00010000
00001000
00010000
,  // measure 4
00000010
00000000
00000000
00000010
00001000
00000000
00000100
00000000
00000000
00000000
00001000
00000000
00000000
00001000
00000001
00000000
,  // measure 5
00000010
00000010
00000010
00000010
,  // measure 6
00000001
00000010
00000001
00000000
00001000
00000010
00001000
00000000
00000010
00000100
00000010
00000000
00001000
00000001
00001000
00000001
,  // measure 7
00001000
00000100
00001000
00000001
00010000
00000100
00010000
00000001
,  // measure 8
00000010
00000100
00001000
00000100
00000010
00000001
00010000
00000100
,  // measure 9
00020000
00000000
00000000
00000100
00030100
00000000
00010000
00001000
,  // measure 10
01000000
00000000
00100000
00000000
10000000
00000000
00010000
01000000
00010000
00000000
00000000
01010000
00000000
00000000
10010000
00000000
,  // measure 11
00010000
01000000
00010000
10000000
00001000
01000000
00001000
00100000
,  // measure 12
01000000
10000000
01000000
00100000
00001000
00010000
00000010
00000200
,  // measure 13
00000010
00000000
00000000
00000302
00000000
00000000
00010003
00000100
,  // measure 14
00010000
00000000
00000010
00000100
00000010
00000000
00001000
00000001
00001000
00000001
00001000
00000000
00000001
00000000
00010000
00000100
,  // measure 15
00010000
00000000
00000000
00010000
00000001
00000000
00000000
00000001
00000010
00000000
00000100
00000000
00000100
00000000
00000000
00000000
,  // measure 16
00010000
00000010
00000100
00000002
00000000
00010000
00010003
00000000
,  // measure 17
00000001
00000000
00000000
00000001
00001000
00000000
00000000
00001000
00000100
00000000
00010000
00000000
00010000
00000000
00000010
00000000
,  // measure 18
00000100
00000000
00000000
00000110
00000000
00000000
00012000
00000000
00000000
00000000
00010000
00000000
00013000
00000000
00000000
00000000
,  // measure 19
00001000
10000000
00100000
10000000
00001000
00100000
01000000
10000000
,  // measure 20
00001000
10000000
01000000
10000000
00001000
01000000
00100000
10000000
,  // measure 21
00010000
00100000
10000000
00100000
00001000
00010000
00000010
00000100
,  // measure 22
00000001
00000000
00000000
00000101
00000000
00000000
00000101
00000000
00002001
00000000
00000000
00000000
00000000
00000000
00000000
00000000
,  // measure 23
00003100
00000100
00000100
00000100
,  // measure 24
00001000
00000001
00001000
00000000
00000001
00000010
00000001
00000000
00001000
00000010
00001000
00000000
00000001
00001000
00000001
00001000
,  // measure 25
00000001
00000010
00000100
00010000
00000100
00000010
00000100
00010000
,  // measure 26
00000001
00000100
00000010
00010000
00000100
00000001
00000100
00010000
,  // measure 27
00000001
00000010
00000001
00010000
00000100
00000010
00000100
00010000
,  // measure 28
00000010
00000000
00000000
00000000
00000000
00000000
00001000
00000100
00001000
00000000
00000000
00001100
00000000
00000000
00011000
00000000
,  // measure 29
00001000
01000000
00001000
10000000
01000000
00010000
01000000
10000000
,  // measure 30
00001000
01000000
00001000
10000000
00100000
00001000
00100000
10000000
,  // measure 31
00001000
01000000
00001000
00010000
00000010
00000100
00000010
00010000
,  // measure 32
00000001
00000100
00000001
00000000
00000100
00000010
00000100
00000000
00000010
00001000
00000010
00000000
00010000
00001000
00010000
00000000
,  // measure 33
00001000
01000000
00100000
10000000
00100000
00001000
00100000
10000000
,  // measure 34
01000000
00100000
00001000
10000000
00100000
00001000
00100000
10000000
,  // measure 35
00100000
01000000
00001000
00010000
00000010
00001000
00000100
00000001
,  // measure 36
00000100
00000000
00000000
00000000
00001000
00000000
00000001
00001000
00000001
00000000
00000000
00001001
00000000
00000000
00001001
00000000
,  // measure 37
00000001
00000010
00000100
00001000
00000100
00000001
00000100
00001000
,  // measure 38
00000001
00010000
00000100
00000010
00000001
00000010
00000100
00010000
,  // measure 39
00001000
00100000
01000000
10000000
00100000
00010000
00100000
10000000
,  // measure 40
01000000
00100000
00001000
00010000
00000010
00000100
00000001
00000000
,  // measure 41
00001000
00000010
00001000
00000000
00000001
00001000
00000001
00000000
00010000
00001000
00010000
00001000
01000000
00100000
01000000
00100000
,  // measure 42
02000000
00000000
00000000
03000000
;
