#TITLE:ロンドンは夜8時;
#SUBTITLE:(LON 8PM - TYO 4AM);
#ARTIST:LONDON ELEKTRICITY FEAT. AMWE;
#TITLETRANSLIT:LONDON WA YORU 8JI;
#SUBTITLETRANSLIT:;
#ARTISTTRANSLIT:;
#CREDIT:DigiMindAxel;
#BANNER:LONDON WA YORU 8JI (LON 8PM - TYO 4AM).png;
#BACKGROUND:LONDON WA YORU 8JI (LON 8PM - TYO 4AM)-bg.png;
#LYRICSPATH:LONDON WA YORU 8JI (LON 8PM - TYO 4AM).lrc;
#CDTITLE:DigiMindAxel original simfile.png;
#MUSIC:LONDON WA YORU 8JI (LON 8PM - TYO 4AM).ogg;
#METERTYPE:DDR X;
#OFFSET:-1.450;
#SAMPLESTART:86.001;
#SAMPLELENGTH:12.000;
#SELECTABLE:YES;
#BPMS:0.000=173.000,180.000=86.500,196.000=173.000;
#STOPS:;
#BGCHANGES:-3.000=LONDON WA YORU 8JI (LON 8PM - TYO 4AM).avi=1.000=1=1=0,
99999=-nosongbg-=1.000=0=0=0 // don't automatically add -songbackground-
;

//---------------dance-single - ----------------
#NOTES:
     dance-single:
     :
     Easy:
     5:
     0.174,0.198,0.016,0.024,0.000: // measure 1
0000
0000
0000
0000
,  // measure 2
0000
0000
0000
0000
,  // measure 3
0000
0000
0000
0000
,  // measure 4
0000
0000
0000
0000
,  // measure 5
0000
0000
0000
0000
,  // measure 6
0000
0000
0000
0000
,  // measure 7
0000
0000
0000
0000
,  // measure 8
1000
0000
0001
0000
,  // measure 9
1000
0000
0100
0000
,  // measure 10
0010
0000
0001
0000
,  // measure 11
0100
0000
0010
0000
,  // measure 12
0200
0000
0000
0000
,  // measure 13
0000
0000
0000
0000
,  // measure 14
0310
0000
1000
0000
,  // measure 15
0100
0000
1000
0000
,  // measure 16
0010
0000
0100
0000
,  // measure 17
0010
0000
0100
0000
,  // measure 18
0001
0000
1000
0000
,  // measure 19
0001
0000
1000
0000
,  // measure 20
0100
0000
0010
0000
,  // measure 21
0100
0000
0010
0000
,  // measure 22
0001
0000
0100
0000
,  // measure 23
0001
0000
0100
0000
,  // measure 24
0001
0000
1000
0000
,  // measure 25
0001
0000
1000
0000
,  // measure 26
0100
0000
0010
0000
,  // measure 27
0100
0000
0010
0000
,  // measure 28
0001
0000
0100
0000
,  // measure 29
0001
0000
0100
0000
,  // measure 30
0001
0000
1000
0000
,  // measure 31
0100
0000
1000
0000
,  // measure 32
0001
0000
0100
0000
,  // measure 33
0001
0000
1000
0000
,  // measure 34
0100
0000
0010
0000
,  // measure 35
0100
0000
1000
0000
,  // measure 36
0001
0000
0100
0000
,  // measure 37
0010
0000
0100
0000
,  // measure 38
0001
0000
1000
0000
,  // measure 39
0100
0000
1000
0000
,  // measure 40
0010
0000
0100
0000
,  // measure 41
0010
0000
0100
0000
,  // measure 42
0001
0000
0010
0000
,  // measure 43
0001
0000
1000
0000
,  // measure 44
0001
0000
1000
0000
,  // measure 45
0100
0000
0010
0000
,  // measure 46
0002
0000
0003
0000
,  // measure 47
0000
0000
0000
0000
,  // measure 48
2000
0000
3000
0000
,  // measure 49
0000
0000
0000
0000
,  // measure 50
0001
0000
0001
0000
,  // measure 51
0001
0000
0001
0000
,  // measure 52
1000
0000
1000
0000
,  // measure 53
1000
0000
1000
0000
,  // measure 54
0001
0000
1000
0000
,  // measure 55
0001
0000
1000
0000
,  // measure 56
0001
0000
0000
0000
,  // measure 57
0000
0000
0000
0000
,  // measure 58
1001
0000
0100
0000
,  // measure 59
0010
0000
0100
0000
,  // measure 60
1000
0001
1000
0000
,  // measure 61
0010
0000
0100
0000
,  // measure 62
0001
0010
0100
0000
,  // measure 63
1000
0000
0001
0000
,  // measure 64
1000
0100
0010
0000
,  // measure 65
0001
0000
1000
0000
,  // measure 66
0001
0000
0010
0000
,  // measure 67
0100
0000
0010
0000
,  // measure 68
0001
1000
0001
0000
,  // measure 69
0010
0000
0100
0000
,  // measure 70
1000
0010
0100
0000
,  // measure 71
0001
0000
1000
0000
,  // measure 72
0001
0100
0010
0000
,  // measure 73
1000
0000
0001
0000
,  // measure 74
1000
0000
0100
0000
,  // measure 75
0010
0000
0100
0000
,  // measure 76
1000
0001
1000
0000
,  // measure 77
0010
0000
0100
0000
,  // measure 78
0001
0010
0100
0000
,  // measure 79
0010
0000
0001
0000
,  // measure 80
1000
0100
0010
0000
,  // measure 81
0100
0000
0000
0000
,  // measure 82
1001
0000
0000
0000
;

//---------------dance-single - ----------------
#NOTES:
     dance-single:
     :
     Medium:
     8:
     0.303,0.396,0.024,0.081,0.008:
0000
0000
0000
0000
,
0000
0000
0000
0000
,
0000
0000
0000
0000
,
0000
0000
0000
0000
,
0000
0000
0000
0000
,
0000
0000
0000
0000
,
0000
0000
0000
0000
,
2000
0000
0100
0000
,
3100
0000
0010
0000
,
0002
0000
0100
0000
,
0103
0000
0001
0000
,
2000
0000
0000
0000
,
0000
0000
0000
0000
,
3001
1000
0001
0000
,
0010
0001
0100
0000
,
0010
1000
0100
0000
,
0010
0001
0100
0000
,
0001
0010
0100
1000
,
0001
0000
1000
0000
,
0001
1000
0100
0010
,
0001
0000
1000
0000
,
0100
0010
0001
0000
,
0100
0010
1000
0000
,
0010
0100
0001
0000
,
1000
0001
0010
0000
,
0001
1000
0100
0010
,
0001
0000
1000
0000
,
0100
1000
0010
0100
,
0001
0000
1000
0000
,
0100
1000
0010
0100
,
0001
0000
1000
0000
,
0100
1000
0100
0010
,
0001
0000
0100
0000
,
0010
0100
0001
0010
,
0100
0000
1000
0000
,
0010
1000
0100
0010
,
0001
0000
0100
0000
,
0001
1000
0100
0010
,
0100
0000
1000
0000
,
0010
0100
0001
1000
,
0100
0000
0010
0000
,
0001
0100
0010
0100
,
0001
0000
1000
0000
,
0100
1000
0010
0100
,
0001
0000
0010
0000
,
0100
0000
0000
0100
0000
0000
0100
0000
0000
0000
0000
0000
0000
0000
0000
0000
,
2000
0000
3002
0000
,
0013
0000
0000
0010
0000
0000
0010
0000
0000
0000
0000
0000
0000
0000
0000
0000
,
0002
0000
2003
0000
,
3001
0000
0010
0000
,
0001
0000
0010
0000
,
0100
0000
1000
0000
,
0100
0000
1000
0000
,
0010
0000
0100
0000
,
0100
0000
0100
0000
,
0220
0000
0000
0000
,
0000
0000
0000
0330
,
1001
0000
0001
0000
1000
0100
1000
0000
,
0001
0000
1000
0000
0100
1000
0100
0000
,
0010
0000
0100
0000
1000
0010
1000
0000
,
0100
0000
0010
0000
0001
0100
0001
0000
,
0010
0000
0100
0000
1000
0010
1000
0000
,
0010
0000
0100
0000
0001
0010
0001
0000
,
0100
0010
1000
0000
0100
0000
0010
0000
,
0001
1000
0001
0000
0010
0100
1000
0000
,
0001
0000
0010
0000
0100
1000
0100
0000
,
1000
0000
0010
0000
1000
0001
1000
0000
,
0100
0000
0010
0000
0001
0100
0001
0000
,
0010
0000
0100
0000
1000
0010
1000
0000
,
0100
0010
0001
0000
0010
0000
0100
0000
,
1000
0000
0010
0000
0100
0010
0100
0000
,
0001
0010
0001
0000
0100
0010
1000
0000
,
0100
0000
0010
0000
0001
1000
0001
0000
,
1000
0000
0100
0000
0010
0001
0010
0000
,
0001
0000
1000
0000
0010
0100
0010
0000
,
1000
0000
0010
0000
0100
0001
0100
0000
,
0001
0000
1000
0000
0010
0100
0010
0000
,
1000
0000
0100
0000
0010
0001
0010
0000
,
0001
0000
0010
0000
0100
0010
0100
0000
,
1000
0010
0100
0000
0001
1000
0100
0000
,
0020
0000
0000
0030
,
0110
0000
0000
0000
;

//---------------dance-single - ----------------
#NOTES:
     dance-single:
     :
     Hard:
     11:
     0.460,0.462,0.090,0.122,0.191:
0000
0000
0000
0000
,
0000
0000
0000
0000
,
0000
0000
0000
0000
,
0000
0000
0000
0000
,
0000
0000
0000
0000
,
0000
0000
0000
0000
,
0000
0000
0000
0000
,
1000
0000
1001
0000
0001
1000
0100
0000
,
0010
0000
0110
0000
0100
0001
1000
0000
,
0100
0000
0110
0000
0010
0001
0100
0000
,
0001
0000
1001
0000
1000
0100
0010
0000
,
0002
0000
0000
0000
,
0000
0000
0000
0003
,
1001
0000
0000
0000
1000
0000
0000
1000
0000
0000
1000
0000
0001
0000
0000
0000
,
0100
0000
0000
0000
0010
0000
0000
0010
0000
0000
0010
0000
0100
0000
0000
0000
,
0001
0000
0000
0000
1000
0000
0000
1000
0000
0000
1000
0000
0100
0000
0000
0000
,
0010
0000
0000
0000
0001
0000
0000
0001
0000
0000
0001
0000
0100
0000
0000
0000
,
0001
0000
0000
0000
1000
0000
0000
1000
0000
0000
1000
0000
0001
0000
0000
0000
,
0010
0000
0000
0000
0100
0000
0000
0100
0000
0000
0100
0000
1000
0000
0000
0000
,
0010
0000
0000
0000
1000
0000
0000
1000
0000
0000
1000
0000
0001
0000
0000
0000
,
0010
0000
0000
0000
0100
0000
0000
0100
0000
0000
0100
0000
0010
0000
0000
0000
,
0001
0000
0000
0000
0100
0000
0000
0001
0000
0000
1000
0000
0100
0000
0000
0000
,
0010
0000
0000
0000
0001
0000
0000
0100
0000
0000
0001
0000
1000
0000
0000
0000
,
0100
0000
0000
0000
0010
0000
0000
0100
0000
0000
1000
0000
0001
0000
0000
0000
,
0100
0000
0000
0000
0010
0000
0000
1000
0000
0000
0001
0000
0010
0000
0000
0000
,
0100
0000
0000
0000
1000
0000
0000
0100
0000
0000
1000
0000
0010
0000
0000
0000
,
1000
0000
0000
0000
0001
0000
0000
0010
0000
0000
0100
0000
0010
0000
0001
0000
,
0000
0100
0010
0100
0000
0001
1000
0001
,
0000
0000
1000
0000
0100
0000
1000
0000
0000
0000
0001
0000
0100
0000
0010
0100
,
0010
0000
1000
0000
0100
0000
0000
0010
0000
0000
0001
0000
0100
0000
0000
0000
,
0010
0000
1000
0000
0100
0000
0000
0010
0000
0000
0100
0000
1000
0000
0000
0000
,
0001
0000
1000
0000
0010
0000
0000
0100
0000
0000
0001
0000
0010
0000
0000
0000
,
0100
0000
0010
0000
0001
0000
0000
1000
0000
0000
0010
0000
0100
0000
0000
0000
,
0001
0000
0010
0000
0100
0000
0000
0010
0000
0000
0001
0000
1000
0000
0000
0000
,
0001
0000
0100
0000
0010
0000
0000
1000
0000
0000
0001
0000
0010
0000
0100
0000
,
0000
1000
0100
1000
0000
0010
0100
0001
,
0000
0010
0100
1000
0000
0001
0100
0001
,
1000
0000
0100
0000
0010
0000
0000
0100
0000
0000
1000
0000
0010
0000
0000
0000
,
0100
0000
0001
0000
0010
0000
0000
0100
0000
0000
0010
0000
0001
0000
0000
0000
,
0010
0000
0100
0000
1000
0000
0000
0001
0000
0000
1000
0000
0100
0000
0000
0000
,
1000
0000
0001
0000
0010
0000
0000
0100
0000
0000
0010
0000
0001
0000
0000
0000
,
0100
0000
0010
0000
1000
0000
0000
0001
0000
0000
1000
0000
0100
0000
0000
0000
,
0010
0000
0100
0000
1000
0000
0000
0001
0000
0000
0100
0000
0010
0000
0000
0000
,
1000
0000
0100
0000
0010
0000
0000
0100
0000
0000
1000
0000
0010
0000
0000
0000
,
1000
0000
0100
0000
0010
0000
0000
0001
0000
0000
1000
0000
0010
0000
0000
0000
,
1000
0000
0000
1000
0000
0000
0001
0000
0000
0001
0000
0000
2000
0000
0000
0000
0000
0000
0000
0000
0000
0000
0000
0000
0000
0000
0000
0000
0000
0000
0000
0000
,
3200
0000
0000
0320
0000
0000
0000
0000
,
0031
0000
0000
0001
0000
0000
1000
0000
0000
1000
0000
0000
0020
0000
0000
0000
0000
0000
0000
0000
0000
0000
0000
0000
0000
0000
0000
0000
0000
0000
0000
0000
,
0230
0000
0000
0302
0000
0000
0000
0000
,
1003
0100
1000
0100
,
0010
0001
0100
0010
,
0100
0001
0010
0001
,
1000
0100
0010
0001
,
1000
0010
0110
0100
,
0101
0001
1001
1000
,
2200
0000
0000
0000
,
0000
0000
0000
3300
,
1001
0000
0000
0001
0000
0000
0100
0000
0000
0100
0000
0000
0001
0000
0010
0000
,
0100
0000
0100
1000
0010
0100
0010
0000
,
0100
0001
0010
0100
1000
0001
1000
0000
,
0010
1000
0100
0010
0001
0100
0001
0000
,
0010
0000
0000
0100
0000
0000
1000
0000
0002
0000
0000
0000
0100
0000
0000
0000
,
0000
0000
0103
0000
0001
1000
0100
0000
,
1000
0000
0000
0001
0000
0000
0010
0000
0200
0000
0000
0000
1000
0000
0000
0000
,
0000
0000
1300
0000
0010
0100
0001
0000
,
0010
0000
0000
0010
0000
0000
0100
0000
0000
0100
0000
0000
0010
0000
0001
0000
,
1000
0000
1000
0100
0010
0001
1000
0000
,
0001
1000
0001
0010
0100
0010
0001
0000
,
0100
0010
0100
0001
0010
0100
1000
0000
,
0010
0000
0000
1000
0000
0000
0001
0000
0020
0000
0000
0000
0100
0000
0000
0000
,
0000
0000
0130
0000
1000
0001
0010
0000
,
0100
0000
0000
1000
0000
0000
0010
0000
0200
0000
0000
0000
0010
0000
0000
0000
,
0000
0000
0310
0000
1000
0100
0010
0000
,
0001
0000
0000
0001
0000
0000
1000
0000
0000
1000
0000
0000
0010
0000
1000
0000
,
0001
0000
0001
0100
0010
1000
0100
0000
,
1000
0001
0100
1000
0100
0001
0010
0000
,
0001
1000
0100
0001
0100
1000
0010
0000
,
0100
0000
0000
0001
0000
0000
1000
0000
0200
0000
0000
0000
0010
0000
0000
0000
,
0000
0000
0310
0000
0001
0100
0010
0000
,
1000
0000
0000
0001
0000
0000
0010
0000
0200
0000
0000
0000
1000
0000
0000
0000
,
0000
0000
0000
0300
,
1001
0000
0000
0000
;

//---------------dance-double - ----------------
#NOTES:
     dance-double:
     :
     Easy:
     5:
     0.181,0.264,0.024,0.024,0.000:
00000000
00000000
00000000
00000000
,
00000000
00000000
00000000
00000000
,
00000000
00000000
00000000
00000000
,
00000000
00000000
00000000
00000000
,
00000000
00000000
00000000
00000000
,
00000000
00000000
00000000
00000000
,
00000000
00000000
00000000
00000000
,
10000000
00000000
00100000
00000000
,
01000000
00000000
00010000
00000000
,
10000000
00000000
01000000
00000000
,
00100000
00000000
00010000
00000000
,
00002000
00000000
00000000
00000000
,
00000000
00000000
00000000
00000000
,
00013000
00000000
00000010
00000000
,
00000100
00000000
00000010
00000000
,
00010000
00000000
00001000
00000000
,
00010000
00000000
00000001
00000000
,
00000010
00000000
00000001
00000000
,
00000010
00000000
00000100
00000000
,
00010000
00000000
00001000
00000000
,
00100000
00000000
01000000
00000000
,
10000000
00000000
01000000
00000000
,
00100000
00000000
00001000
00000000
,
00100000
00000000
00001000
00000000
,
00010000
00000000
00000010
00000000
,
00000100
00000000
00000001
00000000
,
00000010
00000000
00000001
00000000
,
00000100
00000000
00000010
00000000
,
00001000
00000000
00010000
00000000
,
00100000
00000000
01000000
00000000
,
10000000
00000000
00010000
00000000
,
01000000
00000000
00010000
00000000
,
00100000
00000000
00001000
00000000
,
00010000
00000000
00000100
00000000
,
00000010
00000000
00000100
00000000
,
00001000
00000000
00000001
00000000
,
00000100
00000000
00000001
00000000
,
00000010
00000000
00000100
00000000
,
00010000
00000000
00001000
00000000
,
00010000
00000000
00001000
00000000
,
01000000
00000000
00010000
00000000
,
00100000
00000000
01000000
00000000
,
00100000
00000000
00010000
00000000
,
00000100
00000000
00000010
00000000
,
00000001
00000000
00001000
00000000
,
00000020
00000000
00000030
00000000
,
00000000
00000000
00000000
00000000
,
00020000
00000000
00030000
00000000
,
00000000
00000000
00000000
00000000
,
00100000
00000000
00100000
00000000
,
00100000
00000000
00100000
00000000
,
01000000
00000000
01000000
00000000
,
01000000
00000000
01000000
00000000
,
10000000
00000000
01000000
00000000
,
00100000
00000000
00001000
00000000
,
00010000
00000000
00000000
00000000
,
00000000
00000000
00000000
00000000
,
00001001
00000000
00001000
00000000
,
00000001
00000000
00001000
00000000
,
00000010
00000100
00000010
00000000
,
00001000
00000000
00010000
00000000
,
01000000
00100000
01000000
00000000
,
00100010
00000000
10000000
00000000
,
01000000
00100000
00010000
00001000
,
00010000
00000000
00000010
00000000
,
00000100
00000000
00000001
00000000
,
00001000
00000010
00000100
00000000
,
00000001
00001000
00000001
00000000
,
00000010
00000000
00000100
00000000
,
00010000
00001000
00100000
00000000
,
01000000
00000000
10000000
00000000
,
00100000
10000000
01000000
00100000
,
00001000
00000000
00010000
00000000
,
00000010
00000000
00000100
00000000
,
00000001
00000010
00000100
00000000
,
00010000
00001000
00010000
00000000
,
00001000
00000000
00100000
00000000
,
01000000
10000000
00100000
00000000
,
10000000
00000000
00010000
00000000
,
00100000
01000000
10000000
00001000
,
01000000
00000000
00000000
00000000
,
00011000
00000000
00000000
00000000
;

//---------------dance-double - ----------------
#NOTES:
     dance-double:
     :
     Medium:
     8:
     0.352,0.396,0.057,0.065,0.008:
00000000
00000000
00000000
00000000
,
00000000
00000000
00000000
00000000
,
00000000
00000000
00000000
00000000
,
00000000
00000000
00000000
00000000
,
00000000
00000000
00000000
00000000
,
00000000
00000000
00000000
00000000
,
00000000
00000000
00000000
00000000
,
10000000
01000000
10000000
01000000
,
10000000
00010000
10000000
00010000
,
00100000
00001000
00010000
00001000
,
00010000
00000010
00000100
00000001
,
00002000
00000000
00000000
00000000
,
00000000
00000000
00000000
00000000
,
00003001
00001000
00000001
00000010
,
00000001
00001000
00000001
00000010
,
00000001
00000100
00000010
00001000
,
00000001
00000100
00000010
00001000
,
00010000
00100000
01000000
00100000
,
00010000
00100000
01000000
00100000
,
00010000
01000000
00010000
10000000
,
01000000
10000000
00010000
01000000
,
00010000
10000000
01000000
10000000
,
01000000
00100000
00010000
10000000
,
01000000
00100000
00010000
10000000
,
00001000
00010000
00001000
10000000
,
00001000
00010000
00001000
10000000
,
00100000
01000000
00001000
00010000
,
00000100
00000010
00000001
00000010
,
00000100
00000010
00000001
00000010
,
00000100
00001000
00000010
00000100
,
00000010
00001000
00000100
00001000
,
00000010
00000100
00000010
00010000
,
00001000
00100000
01000000
00100000
,
00001000
01000000
00001000
10000000
,
00001000
01000000
00001000
10000000
,
00001000
00010000
00000100
00000010
,
00000100
00010000
00000100
00000010
,
00000100
00010000
00000001
00000010
,
00000100
00010000
00000010
00000100
,
00001010
00010000
00100000
01000000
,
10000000
01000000
00100000
01000000
,
10000000
00010000
01000000
00010000
,
10000000
00100000
01000000
00010000
,
00001000
00000100
00000010
00000001
,
00000010
00000100
00010000
00001000
,
00010000
00000000
00000000
00010000
00000000
00000000
00010000
00000000
00000000
00000000
00000000
00000000
00000000
00000000
00000000
00000000
,
00002000
00000000
02003000
00000000
,
03100000
00000000
00000000
00100000
00000000
00000000
00100000
00000000
00000000
00000000
00000000
00000000
00000000
00000000
00000000
00000000
,
20000000
00000000
32000000
00000000
,
03100000
00000000
00010000
00000000
,
00100000
00000000
00010000
00000000
,
00100000
00000000
00001000
00000000
,
00100000
00000000
00001000
00000000
,
00010000
00000000
00011000
00000000
,
00011000
00000000
00011000
00000000
,
00020002
00000000
00000000
00000000
,
00000000
00000000
00000000
00030003
,
00010001
00000000
00000001
00000000
00000100
00000001
00000100
00000000
,
00000001
00000000
00001000
00000000
00000100
00000010
00000100
00000000
,
00010000
00000000
00001000
00000000
01000000
00100000
01000000
00000000
,
00010000
00000000
10000000
00000000
01000000
10000000
01000000
00000000
,
10000000
00000000
00010000
00000000
01000000
00010000
01000000
00000000
,
00010000
00000000
00001000
00000000
00000010
00000100
00000010
00000000
,
00001000
00000001
00000010
00000000
00000100
00000000
00001000
00000000
,
00100000
00010000
00100000
00000000
00010000
00100000
01000000
00000000
,
00100000
00000000
00010000
00000000
10000000
01000000
10000000
00000000
,
00100000
00000000
01000000
00000000
00010000
00001000
00010000
00000000
,
00001000
00000000
00000010
00000000
00000100
00000001
00000100
00000000
,
00000001
00000000
00000010
00000000
00000100
00001000
00000100
00000000
,
00010000
00001000
00100000
00000000
01000000
00000000
10000000
00000000
,
00010000
00000000
01000000
00000000
00010000
10000000
00010000
00000000
,
00100000
01000000
00100000
00000000
00010000
10000000
01000000
00000000
,
00100000
00000000
00001000
00000000
00010000
00001000
00010000
00000000
,
00000100
00000000
00000010
00000000
00000001
00001000
00000001
00000000
,
00000010
00000000
00000100
00000000
00010000
00001000
01000000
00000000
,
00100000
00000000
10000000
00000000
00010000
00100000
00010000
00000000
,
00100000
00000000
01000000
00000000
10000000
00010000
10000000
00000000
,
01000000
00000000
00100000
00000000
00001000
00010000
00000100
00000000
,
00000010
00000000
00000001
00000000
00001000
00000001
00001000
00000000
,
00000100
00000010
00000001
00000000
00001000
00000010
00010000
00000000
,
00002000
00000000
00000000
00003000
,
00011000
00000000
00000000
00000000
;

//---------------dance-double - ----------------
#NOTES:
     dance-double:
     :
     Hard:
     11:
     0.462,0.462,0.098,0.122,0.191:
00000000
00000000
00000000
00000000
,
00000000
00000000
00000000
00000000
,
00000000
00000000
00000000
00000000
,
00000000
00000000
00000000
00000000
,
00000000
00000000
00000000
00000000
,
00000000
00000000
00000000
00000000
,
00000000
00000000
00000000
00000000
,
10000000
00000000
10010000
00000000
00010000
00100000
01000000
00000000
,
00100000
00000000
00101000
00000000
00001000
00010000
00000010
00000000
,
00000100
00000000
00000110
00000000
00000010
00000001
00000100
00000000
,
00000001
00000000
00001001
00000000
00001000
00000100
00010000
00000000
,
00002000
00000000
00000000
00000000
,
00000000
00000000
00000000
00003000
,
00011000
00000000
00000000
00000000
00010000
00000000
00000000
00010000
00000000
00000000
00010000
00000000
00001000
00000000
00000000
00000000
,
00100000
00000000
00000000
00000000
01000000
00000000
00000000
01000000
00000000
00000000
01000000
00000000
10000000
00000000
00000000
00000000
,
01000000
00000000
00000000
00000000
00100000
00000000
00000000
00100000
00000000
00000000
00100000
00000000
00010000
00000000
00000000
00000000
,
00001000
00000000
00000000
00000000
00000010
00000000
00000000
00000010
00000000
00000000
00000010
00000000
00000100
00000000
00000000
00000000
,
00000001
00000000
00000000
00000000
00000010
00000000
00000000
00000010
00000000
00000000
00000010
00000000
00000100
00000000
00000000
00000000
,
00010000
00000000
00000000
00000000
00001000
00000000
00000000
00001000
00000000
00000000
00001000
00000000
00100000
00000000
00000000
00000000
,
01000000
00000000
00000000
00000000
10000000
00000000
00000000
10000000
00000000
00000000
10000000
00000000
00010000
00000000
00000000
00000000
,
01000000
00000000
00000000
00000000
00001000
00000000
00000000
00001000
00000000
00000000
00001000
00000000
00010000
00000000
00000000
00000000
,
01000100
00000000
00000000
00000000
00000010
00000000
00000000
00000001
00000000
00000000
00000100
00000000
00000010
00000000
00000000
00000000
,
00010000
00000000
00000000
00000000
00001000
00000000
00000000
10000000
00000000
00000000
01000000
00000000
00100000
00000000
00000000
00000000
,
00010000
00000000
00000000
00000000
01000000
00000000
00000000
00001000
00000000
00000000
00100000
00000000
01000000
00000000
00000000
00000000
,
10000000
00000000
00000000
00000000
00001000
00000000
00000000
00010000
00000000
00000000
00000100
00000000
00000010
00000000
00000000
00000000
,
00000001
00000000
00000000
00000000
00000100
00000000
00000000
00000001
00000000
00000000
00000010
00000000
00000100
00000000
00000000
00000000
,
00001000
00000000
00000000
00000000
00010000
00000000
00000000
01000000
00000000
00000000
00100000
00000000
10000000
00000000
01000000
00000000
,
00000000
00100000
00010000
00100000
00000000
01000000
10000000
01000000
,
00000000
00000000
00100000
00000000
00010000
00000000
00100000
00000000
00000000
00000000
00010000
00000000
10000000
00000000
00010000
10000000
,
00010000
00000000
00100000
00000000
01000000
00000000
00000000
10000000
00000000
00000000
00010000
00000000
01000000
00000000
00000000
00000000
,
00001000
00000000
00010000
00000000
00000100
00000000
00000000
00000010
00000000
00000000
00000001
00000000
00000100
00000000
00000000
00000000
,
00000001
00000000
00000010
00000000
00000100
00000000
00000000
00000010
00000000
00000000
00000001
00000000
00010000
00000000
00000000
00000000
,
00001000
00000000
00100000
00000000
01000000
00000000
00000000
00100000
00000000
00000000
00010000
00000000
10000000
00000000
00000000
00000000
,
01000000
00000000
10000000
00000000
00100000
00000000
00000000
01000000
00000000
00000000
00001000
00000000
00010000
00000000
00000000
00000000
,
00000100
00000000
00000010
00000000
00000001
00000000
00000000
00000010
00000000
00000000
00000001
00000000
00000100
00000000
00000001
00000000
,
00000000
00001000
00000010
00001000
00000000
00000001
00000100
00000001
,
00000000
00001000
00000010
00001000
00000000
00000001
00000100
00000001
,
00000010
00000000
00000100
00000000
00010000
00000000
00000000
00001000
00000000
00000000
00100000
00000000
00010000
00000000
00000000
00000000
,
01000000
00000000
00100000
00000000
01000000
00000000
00000000
00010000
00000000
00000000
10000000
00000000
01000000
00000000
00000000
00000000
,
00100000
00000000
01000000
00000000
10000000
00000000
00000000
00010000
00000000
00000000
00100000
00000000
00010000
00000000
00000000
00000000
,
01000000
00000000
00100000
00000000
01000000
00000000
00000000
00010000
00000000
00000000
00001000
00000000
00000100
00000000
00000000
00000000
,
00000010
00000000
00000001
00000000
00000100
00000000
00000000
00000001
00000000
00000000
00000010
00000000
00000100
00000000
00000000
00000000
,
00010000
00000000
00001000
00000000
00100000
00000000
00000000
01000000
00000000
00000000
10000000
00000000
00010000
00000000
00000000
00000000
,
00100000
00000000
00010000
00000000
01000000
00000000
00000000
00010000
00000000
00000000
10000000
00000000
01000000
00000000
00000000
00000000
,
00100000
00000000
00001000
00000000
00010000
00000000
00000000
00000010
00000000
00000000
00000100
00000000
00000001
00000000
00000000
00000000
,
00001000
00000000
00000000
00001000
00000000
00000000
00000001
00000000
00000000
00000001
00000000
00000000
00002000
00000000
00000000
00000000
00000000
00000000
00000000
00000000
00000000
00000000
00000000
00000000
00000000
00000000
00000000
00000000
00000000
00000000
00000000
00000000
,
00003200
00000000
00000000
00020300
00000000
00000000
00000000
00000000
,
00031000
00000000
00000000
00001000
00000000
00000000
00100000
00000000
00000000
00100000
00000000
00000000
02000000
00000000
00000000
00000000
00000000
00000000
00000000
00000000
00000000
00000000
00000000
00000000
00000000
00000000
00000000
00000000
00000000
00000000
00000000
00000000
,
23000000
00000000
00000000
30020000
00000000
00000000
00000000
00000000
,
10030000
01000000
10000000
01000000
,
00100000
00001000
00100000
00001000
,
00010000
00000010
00010000
00000010
,
00001000
00000001
00001000
00000001
,
00000010
00000100
00010100
00010000
,
00011000
01000000
01100000
00100000
,
20200000
00000000
00000000
00000000
,
00000000
00000000
00000000
30300000
,
10010000
00000000
00000000
00010000
00000000
00000000
10000000
00000000
00000000
10000000
00000000
00000000
01000000
00000000
00100000
00000000
,
00010000
00000000
00001000
00010000
00000010
00000100
00000010
00000000
,
00000100
00000001
00000010
00000100
00000010
00000001
00010000
00000000
,
00001000
00100000
01000000
00100000
00001000
01000000
00100000
00000000
,
10000000
00000000
00000000
01000000
00000000
00000000
00010000
00000000
02000000
00000000
00000000
00000000
10000000
00000000
00000000
00000000
,
00000000
00000000
13000000
00000000
00100000
01000000
00100000
00000000
,
10000000
00000000
00000000
01000000
00000000
00000000
00010000
00000000
02000000
00000000
00000000
00000000
10000000
00000000
00000000
00000000
,
00000000
00000000
13000000
00000000
00100000
01000000
00100000
00000000
,
10000000
00000000
00000000
10000000
00000000
00000000
00010000
00000000
00000000
00010000
00000000
00000000
10000000
00000000
01000000
00000000
,
00100000
00000000
00001000
00010000
00000100
00000010
00000100
00000000
,
00001000
00000010
00001000
00000001
00000010
00000100
00001000
00000000
,
00000001
00000100
00000001
00000010
00000100
00010000
00001000
00000000
,
10000000
00000000
00000000
01000000
00000000
00000000
00010000
00000000
02000000
00000000
00000000
00000000
10000000
00000000
00000000
00000000
,
00000000
00000000
13000000
00000000
00100000
01000000
00100000
00000000
,
10000000
00000000
00000000
01000000
00000000
00000000
00010000
00000000
02000000
00000000
00000000
00000000
10000000
00000000
00000000
00000000
,
00000000
00000000
13000000
00000000
00100000
01000000
00100000
00000000
,
10000000
00000000
00000000
10000000
00000000
00000000
00010000
00000000
00000000
00010000
00000000
00000000
10000000
00000000
00100000
00000000
,
01000000
00000000
00001000
00010000
00000010
00000100
00000010
00000000
,
00001000
00000010
00000001
00000010
00001000
00000001
00000100
00000000
,
00000001
00000010
00001000
00000010
00000001
00000100
00000010
00000000
,
00010000
00000000
00000000
00000100
00000000
00000000
00000001
00000000
00000200
00000000
00000000
00000000
00010000
00000000
00000000
00000000
,
00000000
00000000
00010300
00000000
00001000
00010000
00001000
00000000
,
00010000
00000000
00000000
00100000
00000000
00000000
10000000
00000000
00200000
00000000
00000000
00000000
00010000
00000000
00000000
00000000
,
00000000
00000000
00000000
00300000
,
01100000
00000000
00000000
00000000
;

//---------------dance-single - ----------------
#NOTES:
     dance-single:
     :
     Beginner:
     2:
     0.099,0.132,0.049,0.000,0.000: // measure 1
0000
0000
0000
0000
,  // measure 2
0000
0000
0000
0000
,  // measure 3
0000
0000
0000
0000
,  // measure 4
0000
0000
0000
0000
,  // measure 5
0000
0000
0000
0000
,  // measure 6
0000
0000
0000
0000
,  // measure 7
0000
0000
0000
0000
,  // measure 8
1000
0000
0000
0000
,  // measure 9
0001
0000
0000
0000
,  // measure 10
1000
0000
0000
0000
,  // measure 11
0100
0000
0000
0000
,  // measure 12
0010
0000
0000
0000
,  // measure 13
0000
0000
0000
0000
,  // measure 14
1001
0000
0000
0000
,  // measure 15
0001
0000
0000
0000
,  // measure 16
0100
0000
0000
0000
,  // measure 17
0001
0000
0000
0000
,  // measure 18
1000
0000
0000
0000
,  // measure 19
0100
0000
0000
0000
,  // measure 20
1000
0000
0000
0000
,  // measure 21
0100
0000
0000
0000
,  // measure 22
0010
0000
0000
0000
,  // measure 23
0100
0000
0000
0000
,  // measure 24
0010
0000
0000
0000
,  // measure 25
0100
0000
0000
0000
,  // measure 26
0010
0000
0000
0000
,  // measure 27
0001
0000
0000
0000
,  // measure 28
0010
0000
0000
0000
,  // measure 29
0001
0000
0000
0000
,  // measure 30
1001
0000
0000
0000
,  // measure 31
1000
0000
0000
0000
,  // measure 32
0010
0000
0000
0000
,  // measure 33
1000
0000
0000
0000
,  // measure 34
0100
0000
0000
0000
,  // measure 35
0010
0000
0000
0000
,  // measure 36
0100
0000
0000
0000
,  // measure 37
0010
0000
0000
0000
,  // measure 38
0001
0000
0000
0000
,  // measure 39
1000
0000
0000
0000
,  // measure 40
0001
0000
0000
0000
,  // measure 41
1000
0000
0000
0000
,  // measure 42
0001
0000
0000
0000
,  // measure 43
0010
0000
0000
0000
,  // measure 44
0001
0000
0000
0000
,  // measure 45
0010
0000
0000
0000
,  // measure 46
0100
0000
0000
0000
,  // measure 47
0000
0000
0000
0000
,  // measure 48
0000
0000
0000
0000
,  // measure 49
0000
0000
0000
0000
,  // measure 50
1001
0000
0000
0000
,  // measure 51
0000
0000
0000
0000
,  // measure 52
1000
0000
0000
0000
,  // measure 53
0000
0000
0000
0000
,  // measure 54
1001
0000
0000
0000
,  // measure 55
0000
0000
0000
0000
,  // measure 56
0001
0000
0000
0000
,  // measure 57
0000
0000
0000
0000
,  // measure 58
1001
0000
1000
0000
,  // measure 59
1000
0000
1000
0000
,  // measure 60
1000
0000
1000
0000
,  // measure 61
0000
0000
0000
0000
,  // measure 62
0001
0000
0001
0000
,  // measure 63
0001
0000
0001
0000
,  // measure 64
0001
0000
0001
0000
,  // measure 65
0000
0000
0000
0000
,  // measure 66
0010
0000
0010
0000
,  // measure 67
0010
0000
0010
0000
,  // measure 68
0010
0000
0010
0000
,  // measure 69
0000
0000
0000
0000
,  // measure 70
0100
0000
0100
0000
,  // measure 71
0100
0000
0100
0000
,  // measure 72
0100
0000
0100
0000
,  // measure 73
0000
0000
0000
0000
,  // measure 74
1000
0000
0001
0000
,  // measure 75
1000
0000
0001
0000
,  // measure 76
1000
0000
0001
0000
,  // measure 77
0000
0000
0000
0000
,  // measure 78
0100
0000
0001
0000
,  // measure 79
0100
0000
0001
0000
,  // measure 80
0100
0000
0001
0000
,  // measure 81
0000
0000
0000
0000
,  // measure 82
1001
0000
0000
0000
;
